  0
SECTION
  2
HEADER
  9
$ACADVER
  1
AC1014
  9
$ACADMAINTVER
 70
     0
  9
$DWGCODEPAGE
  3
ANSI_1252
  9
$INSBASE
 10
0.0
 20
0.0
 30
0.0
  9
$EXTMIN
 10
36.892555
 20
32.988794
 30
0.0
  9
$EXTMAX
 10
56.892555
 20
47.983651
 30
0.0
  9
$LIMMIN
 10
0.0
 20
0.0
  9
$LIMMAX
 10
12.0
 20
9.0
  9
$ORTHOMODE
 70
     0
  9
$REGENMODE
 70
     1
  9
$FILLMODE
 70
     1
  9
$QTEXTMODE
 70
     0
  9
$MIRRTEXT
 70
     1
  9
$DRAGMODE
 70
     2
  9
$LTSCALE
 40
0.5
  9
$OSMODE
 70
    32
  9
$ATTMODE
 70
     1
  9
$TEXTSIZE
 40
0.125
  9
$TRACEWID
 40
0.05
  9
$TEXTSTYLE
  7
ROMANS
  9
$CLAYER
  8
0
  9
$CELTYPE
  6
0
  9
$CECOLOR
 62
   256
  9
$CELTSCALE
 40
1.0
  9
$DELOBJ
 70
     1
  9
$DISPSILH
 70
     0
  9
$DIMSCALE
 40
0.0
  9
$DIMASZ
 40
0.125
  9
$DIMEXO
 40
0.08
  9
$DIMDLI
 40
0.38
  9
$DIMRND
 40
0.0
  9
$DIMDLE
 40
0.0
  9
$DIMEXE
 40
0.18
  9
$DIMTP
 40
0.0
  9
$DIMTM
 40
0.02
  9
$DIMTXT
 40
0.125
  9
$DIMCEN
 40
0.0
  9
$DIMTSZ
 40
0.0
  9
$DIMTOL
 70
     0
  9
$DIMLIM
 70
     0
  9
$DIMTIH
 70
     1
  9
$DIMTOH
 70
     1
  9
$DIMSE1
 70
     0
  9
$DIMSE2
 70
     0
  9
$DIMTAD
 70
     0
  9
$DIMZIN
 70
     0
  9
$DIMBLK
  1

  9
$DIMASO
 70
     1
  9
$DIMSHO
 70
     1
  9
$DIMPOST
  1

  9
$DIMAPOST
  1

  9
$DIMALT
 70
     0
  9
$DIMALTD
 70
     2
  9
$DIMALTF
 40
25.4
  9
$DIMLFAC
 40
1.0
  9
$DIMTOFL
 70
     0
  9
$DIMTVP
 40
0.0
  9
$DIMTIX
 70
     0
  9
$DIMSOXD
 70
     0
  9
$DIMSAH
 70
     0
  9
$DIMBLK1
  1

  9
$DIMBLK2
  1

  9
$DIMSTYLE
  2
LIM000001
  9
$DIMCLRD
 70
     0
  9
$DIMCLRE
 70
     0
  9
$DIMCLRT
 70
     0
  9
$DIMTFAC
 40
1.0
  9
$DIMGAP
 40
0.04
  9
$DIMJUST
 70
     0
  9
$DIMSD1
 70
     0
  9
$DIMSD2
 70
     0
  9
$DIMTOLJ
 70
     1
  9
$DIMTZIN
 70
     0
  9
$DIMALTZ
 70
     4
  9
$DIMALTTZ
 70
     4
  9
$DIMFIT
 70
     4
  9
$DIMUPT
 70
     1
  9
$DIMUNIT
 70
     2
  9
$DIMDEC
 70
     3
  9
$DIMTDEC
 70
     3
  9
$DIMALTU
 70
     2
  9
$DIMALTTD
 70
     2
  9
$DIMTXSTY
  7
ROMANS
  9
$DIMAUNIT
 70
     0
  9
$LUNITS
 70
     2
  9
$LUPREC
 70
     3
  9
$SKETCHINC
 40
0.001
  9
$FILLETRAD
 40
0.06
  9
$AUNITS
 70
     0
  9
$AUPREC
 70
     0
  9
$MENU
  1
acad
  9
$ELEVATION
 40
0.0
  9
$PELEVATION
 40
0.0
  9
$THICKNESS
 40
0.0
  9
$LIMCHECK
 70
     0
  9
$BLIPMODE
 70
     0
  9
$CHAMFERA
 40
0.03
  9
$CHAMFERB
 40
0.03
  9
$CHAMFERC
 40
0.0
  9
$CHAMFERD
 40
0.0
  9
$SKPOLY
 70
     0
  9
$TDCREATE
 40
2449869.632583911
  9
$TDUPDATE
 40
2451942.592157176
  9
$TDINDWG
 40
0.8042972222
  9
$TDUSRTIMER
 40
0.8042972222
  9
$USRTIMER
 70
     1
  9
$ANGBASE
 50
0.0
  9
$ANGDIR
 70
     0
  9
$PDMODE
 70
     0
  9
$PDSIZE
 40
0.0
  9
$PLINEWID
 40
0.0
  9
$COORDS
 70
     0
  9
$SPLFRAME
 70
     0
  9
$SPLINETYPE
 70
     6
  9
$SPLINESEGS
 70
     8
  9
$ATTDIA
 70
     0
  9
$ATTREQ
 70
     1
  9
$HANDLING
 70
     1
  9
$HANDSEED
  5
7281
  9
$SURFTAB1
 70
     6
  9
$SURFTAB2
 70
     6
  9
$SURFTYPE
 70
     6
  9
$SURFU
 70
     6
  9
$SURFV
 70
     6
  9
$UCSNAME
  2

  9
$UCSORG
 10
0.0
 20
0.0
 30
0.0
  9
$UCSXDIR
 10
1.0
 20
0.0
 30
0.0
  9
$UCSYDIR
 10
0.0
 20
1.0
 30
0.0
  9
$PUCSNAME
  2

  9
$PUCSORG
 10
0.0
 20
0.0
 30
0.0
  9
$PUCSXDIR
 10
1.0
 20
0.0
 30
0.0
  9
$PUCSYDIR
 10
0.0
 20
1.0
 30
0.0
  9
$USERI1
 70
     0
  9
$USERI2
 70
     0
  9
$USERI3
 70
     0
  9
$USERI4
 70
     0
  9
$USERI5
 70
     0
  9
$USERR1
 40
0.0
  9
$USERR2
 40
0.0
  9
$USERR3
 40
0.0
  9
$USERR4
 40
0.0
  9
$USERR5
 40
0.0
  9
$WORLDVIEW
 70
     1
  9
$SHADEDGE
 70
     3
  9
$SHADEDIF
 70
    70
  9
$TILEMODE
 70
     1
  9
$MAXACTVP
 70
    16
  9
$PINSBASE
 10
0.0
 20
0.0
 30
0.0
  9
$PLIMCHECK
 70
     0
  9
$PEXTMIN
 10
1.000000E+20
 20
1.000000E+20
 30
1.000000E+20
  9
$PEXTMAX
 10
-1.000000E+20
 20
-1.000000E+20
 30
-1.000000E+20
  9
$PLIMMIN
 10
0.0
 20
0.0
  9
$PLIMMAX
 10
12.0
 20
9.0
  9
$UNITMODE
 70
     0
  9
$VISRETAIN
 70
     0
  9
$PLINEGEN
 70
     0
  9
$PSLTSCALE
 70
     1
  9
$TREEDEPTH
 70
  3020
  9
$PICKSTYLE
 70
     0
  9
$CMLSTYLE
  2
STANDARD
  9
$CMLJUST
 70
     0
  9
$CMLSCALE
 40
1.0
  9
$PROXYGRAPHICS
 70
     1
  9
$MEASUREMENT
 70
     0
  0
ENDSEC
  0
SECTION
  2
CLASSES
  0
CLASS
  1
DICTIONARYVAR
  2
AcDbDictionaryVar
  3
"AutoCAD"
 90
        0
280
     0
281
     0
  0
CLASS
  1
LWPOLYLINE
  2
AcDbPolyline
  3
"AutoCAD"
 90
        0
280
     0
281
     1
  0
CLASS
  1
HATCH
  2
AcDbHatch
  3
"ACAD_SEDONA"
 90
        0
280
     0
281
     1
  0
ENDSEC
  0
SECTION
  2
TABLES
  0
TABLE
  2
VPORT
  5
8
100
AcDbSymbolTable
 70
     2
  0
VPORT
  5
7280
100
AcDbSymbolTableRecord
100
AcDbViewportTableRecord
  2
*ACTIVE
 70
     0
 10
0.0
 20
0.0
 11
1.0
 21
1.0
 12
46.96029
 22
40.130175
 13
0.0
 23
0.0
 14
1.0
 24
1.0
 15
0.0
 25
0.0
 16
0.0
 26
0.0
 36
1.0
 17
0.0
 27
0.0
 37
0.0
 40
18.392958
 41
1.75102
 42
50.0
 43
0.0
 44
0.0
 50
0.0
 51
0.0
 71
     0
 72
 10000
 73
     1
 74
     0
 75
     0
 76
     0
 77
     0
 78
     0
  0
ENDTAB
  0
TABLE
  2
LTYPE
  5
5
100
AcDbSymbolTable
 70
     6
  0
LTYPE
  5
11
100
AcDbSymbolTableRecord
100
AcDbLinetypeTableRecord
  2
BYBLOCK
 70
     0
  3

 72
    65
 73
     0
 40
0.0
  0
LTYPE
  5
12
100
AcDbSymbolTableRecord
100
AcDbLinetypeTableRecord
  2
BYLAYER
 70
     0
  3

 72
    65
 73
     0
 40
0.0
  0
LTYPE
  5
13
100
AcDbSymbolTableRecord
100
AcDbLinetypeTableRecord
  2
CONTINUOUS
 70
     0
  3
Solid line
 72
    65
 73
     0
 40
0.0
  0
LTYPE
  5
3A
100
AcDbSymbolTableRecord
100
AcDbLinetypeTableRecord
  2
HIDDEN
 70
     0
  3
_ _ _ _ _ _ _ _ _ _ _ _ _ _ _ _ _ _ _ _ _ _ 
 72
    65
 73
     2
 40
0.25
 49
0.125
 74
     0
 49
-0.125
 74
     0
  0
LTYPE
  5
3B
100
AcDbSymbolTableRecord
100
AcDbLinetypeTableRecord
  2
CENTER
 70
     0
  3
____ _ ____ _ ____ _ ____ _ ____ _ ____ _ __
 72
    65
 73
     4
 40
2.0
 49
1.25
 74
     0
 49
-0.25
 74
     0
 49
0.25
 74
     0
 49
-0.25
 74
     0
  0
LTYPE
  5
41
100
AcDbSymbolTableRecord
100
AcDbLinetypeTableRecord
  2
CENTER2
 70
     0
  3
___ _ ___ _ ___ _ ___ _ ___ _ ___ _ ___ _ ___ _
 72
    65
 73
     4
 40
1.125
 49
0.75
 74
     0
 49
-0.125
 74
     0
 49
0.125
 74
     0
 49
-0.125
 74
     0
  0
LTYPE
  5
43
100
AcDbSymbolTableRecord
100
AcDbLinetypeTableRecord
  2
BORDER2
 70
     0
  3
__.__.__.__.__.__.__.__.__.__.__.__.__.__.__.__
 72
    65
 73
     6
 40
0.875
 49
0.25
 74
     0
 49
-0.125
 74
     0
 49
0.25
 74
     0
 49
-0.125
 74
     0
 49
0.0
 74
     0
 49
-0.125
 74
     0
  0
LTYPE
  5
4611
100
AcDbSymbolTableRecord
100
AcDbLinetypeTableRecord
  2
0
 70
     0
  3
Solid
 72
    65
 73
     0
 40
0.0
  0
ENDTAB
  0
TABLE
  2
LAYER
  5
2
100
AcDbSymbolTable
 70
    15
  0
LAYER
  5
E
100
AcDbSymbolTableRecord
100
AcDbLayerTableRecord
  2
0
 70
     0
 62
     7
  6
CONTINUOUS
  0
LAYER
  5
55
100
AcDbSymbolTableRecord
100
AcDbLayerTableRecord
  2
3
 70
     0
 62
     7
  6
CONTINUOUS
  0
LAYER
  5
5D
100
AcDbSymbolTableRecord
100
AcDbLayerTableRecord
  2
DEFPOINTS
 70
     0
 62
     7
  6
CONTINUOUS
  0
LAYER
  5
5E
100
AcDbSymbolTableRecord
100
AcDbLayerTableRecord
  2
OBJ
 70
     0
 62
     6
  6
CONTINUOUS
  0
LAYER
  5
60
100
AcDbSymbolTableRecord
100
AcDbLayerTableRecord
  2
CTR
 70
     0
 62
     3
  6
CENTER
  0
LAYER
  5
61
100
AcDbSymbolTableRecord
100
AcDbLayerTableRecord
  2
HID
 70
     0
 62
   254
  6
HIDDEN
  0
LAYER
  5
62
100
AcDbSymbolTableRecord
100
AcDbLayerTableRecord
  2
DIM
 70
     0
 62
     1
  6
CONTINUOUS
  0
LAYER
  5
65
100
AcDbSymbolTableRecord
100
AcDbLayerTableRecord
  2
BORDER
 70
     0
 62
     5
  6
CONTINUOUS
  0
LAYER
  5
180E
100
AcDbSymbolTableRecord
100
AcDbLayerTableRecord
  2
OBJECT
 70
     0
 62
     6
  6
CONTINUOUS
  0
LAYER
  5
180F
100
AcDbSymbolTableRecord
100
AcDbLayerTableRecord
  2
CENTER
 70
     0
 62
    80
  6
CENTER2
  0
LAYER
  5
2E1B
100
AcDbSymbolTableRecord
100
AcDbLayerTableRecord
  2
PAD
 70
     0
 62
     2
  6
CONTINUOUS
  0
LAYER
  5
2E1C
100
AcDbSymbolTableRecord
100
AcDbLayerTableRecord
  2
BACKPL
 70
     0
 62
     6
  6
CONTINUOUS
  0
LAYER
  5
3A14
100
AcDbSymbolTableRecord
100
AcDbLayerTableRecord
  2
IDTAG
 70
     0
 62
   142
  6
CONTINUOUS
  0
LAYER
  5
3A15
100
AcDbSymbolTableRecord
100
AcDbLayerTableRecord
  2
25DRVSRW
 70
     0
 62
   240
  6
CONTINUOUS
  0
LAYER
  5
461E
100
AcDbSymbolTableRecord
100
AcDbLayerTableRecord
  2
M4-PHIL
 70
     0
 62
    30
  6
CONTINUOUS
  0
ENDTAB
  0
TABLE
  2
STYLE
  5
3
100
AcDbSymbolTable
 70
     6
  0
STYLE
  5
F
100
AcDbSymbolTableRecord
100
AcDbTextStyleTableRecord
  2
STANDARD
 70
     0
 40
0.0
 41
1.0
 50
0.0
 71
     0
 42
0.125
  3
txt
  4

  0
STYLE
  5
32
100
AcDbSymbolTableRecord
100
AcDbTextStyleTableRecord
  2
TXT
 70
     0
 40
0.18
 41
1.0
 50
0.0
 71
     0
 42
0.18
  3
TXT.shx
  4

  0
STYLE
  5
33
100
AcDbSymbolTableRecord
100
AcDbTextStyleTableRecord
  2
ROMANS
 70
     0
 40
0.0
 41
0.77
 50
0.0
 71
     0
 42
0.1
  3
ROMANS.shx
  4

  0
STYLE
  5
34
100
AcDbSymbolTableRecord
100
AcDbTextStyleTableRecord
  2
ROMANC
 70
     0
 40
0.0
 41
1.0
 50
0.0
 71
     0
 42
0.0
  3
ROMANC
  4

  0
STYLE
  5
35
100
AcDbSymbolTableRecord
100
AcDbTextStyleTableRecord
  2
ITALICC
 70
     0
 40
0.0
 41
1.0
 50
0.0
 71
     0
 42
0.0
  3
ITALICC
  4

  0
STYLE
  5
36
100
AcDbSymbolTableRecord
100
AcDbTextStyleTableRecord
  2
ROMANT
 70
     0
 40
0.1
 41
1.0
 50
0.0
 71
     0
 42
0.1
  3
romant
  4

  0
ENDTAB
  0
TABLE
  2
VIEW
  5
6
100
AcDbSymbolTable
 70
     0
  0
ENDTAB
  0
TABLE
  2
UCS
  5
7
100
AcDbSymbolTable
 70
     0
  0
ENDTAB
  0
TABLE
  2
APPID
  5
9
100
AcDbSymbolTable
 70
     1
  0
APPID
  5
10
100
AcDbSymbolTableRecord
100
AcDbRegAppTableRecord
  2
ACAD
 70
     0
  0
ENDTAB
  0
TABLE
  2
DIMSTYLE
  5
A
100
AcDbSymbolTable
 70
     2
  0
DIMSTYLE
105
66A
102
{ACAD_REACTORS
330
69BA
102
}
100
AcDbSymbolTableRecord
100
AcDbDimStyleTableRecord
  2
STANDARD
 70
     0
  3

  4

  5

  6

  7

 40
1.0
 41
0.18
 42
0.0625
 43
0.38
 44
0.18
 45
0.0
 46
0.0
 47
0.0
 48
0.0
140
0.18
141
0.09
142
0.0
143
25.4
144
1.0
145
0.0
146
1.0
147
0.09
 71
     0
 72
     0
 73
     1
 74
     1
 75
     0
 76
     0
 77
     0
 78
     0
170
     0
171
     2
172
     0
173
     0
174
     0
175
     0
176
     0
177
     0
178
     0
270
     2
271
     4
272
     4
273
     2
274
     2
340
F
275
     0
280
     0
281
     0
282
     0
283
     1
284
     0
285
     0
286
     0
287
     3
288
     0
  0
DIMSTYLE
105
12D5
102
{ACAD_REACTORS
330
70FA
330
7108
330
712E
330
713C
330
714A
330
7158
330
7166
330
7170
330
717F
330
71EC
102
}
100
AcDbSymbolTableRecord
100
AcDbDimStyleTableRecord
  2
LIM000001
 70
     0
  3
%%C<>
  4

  5

  6

  7

 40
1.0
 41
0.18
 42
0.0625
 43
0.38
 44
0.18
 45
0.0
 46
0.0
 47
0.0
 48
0.001
140
0.18
141
0.09
142
0.0
143
25.4
144
1.0
145
0.0
146
1.0
147
0.09
 71
     0
 72
     1
 73
     1
 74
     1
 75
     0
 76
     0
 77
     0
 78
     0
170
     0
171
     2
172
     0
173
     0
174
     0
175
     0
176
     0
177
     0
178
     0
270
     2
271
     3
272
     3
273
     2
274
     2
340
33
275
     0
280
     0
281
     0
282
     0
283
     1
284
     0
285
     0
286
     0
287
     3
288
     0
  0
ENDTAB
  0
TABLE
  2
BLOCK_RECORD
  5
1
100
AcDbSymbolTable
 70
    11
  0
BLOCK_RECORD
  5
17
100
AcDbSymbolTableRecord
100
AcDbBlockTableRecord
  2
*MODEL_SPACE
  0
BLOCK_RECORD
  5
14
100
AcDbSymbolTableRecord
100
AcDbBlockTableRecord
  2
*PAPER_SPACE
  0
BLOCK_RECORD
  5
69BB
100
AcDbSymbolTableRecord
100
AcDbBlockTableRecord
  2
*D0
  0
BLOCK_RECORD
  5
70ED
100
AcDbSymbolTableRecord
100
AcDbBlockTableRecord
  2
*D1
  0
BLOCK_RECORD
  5
70FB
100
AcDbSymbolTableRecord
100
AcDbBlockTableRecord
  2
*D2
  0
BLOCK_RECORD
  5
7121
100
AcDbSymbolTableRecord
100
AcDbBlockTableRecord
  2
*D3
  0
BLOCK_RECORD
  5
712F
100
AcDbSymbolTableRecord
100
AcDbBlockTableRecord
  2
*D4
  0
BLOCK_RECORD
  5
713D
100
AcDbSymbolTableRecord
100
AcDbBlockTableRecord
  2
*D5
  0
BLOCK_RECORD
  5
714B
100
AcDbSymbolTableRecord
100
AcDbBlockTableRecord
  2
*D6
  0
BLOCK_RECORD
  5
7159
100
AcDbSymbolTableRecord
100
AcDbBlockTableRecord
  2
*D7
  0
BLOCK_RECORD
  5
7167
100
AcDbSymbolTableRecord
100
AcDbBlockTableRecord
  2
*D8
  0
BLOCK_RECORD
  5
7176
100
AcDbSymbolTableRecord
100
AcDbBlockTableRecord
  2
*D9
  0
BLOCK_RECORD
  5
71DF
100
AcDbSymbolTableRecord
100
AcDbBlockTableRecord
  2
*D10
  0
ENDTAB
  0
ENDSEC
  0
SECTION
  2
BLOCKS
  0
BLOCK
  5
69
100
AcDbEntity
  8
0
100
AcDbBlockBegin
  2
*MODEL_SPACE
 70
     0
 10
0.0
 20
0.0
 30
0.0
  3
*MODEL_SPACE
  1

  0
ENDBLK
  5
6A
100
AcDbEntity
  8
0
100
AcDbBlockEnd
  0
BLOCK
  5
67
100
AcDbEntity
 67
     1
  8
0
100
AcDbBlockBegin
  2
*PAPER_SPACE
 70
     0
 10
0.0
 20
0.0
 30
0.0
  3
*PAPER_SPACE
  1

  0
ENDBLK
  5
68
100
AcDbEntity
 67
     1
  8
0
100
AcDbBlockEnd
  0
BLOCK
  5
71F9
100
AcDbEntity
  8
0
100
AcDbBlockBegin
  2
*D0
 70
     1
 10
0.0
 20
0.0
 30
0.0
  3
*D0
  1

  0
LINE
  5
71FA
100
AcDbEntity
  8
0
  6
BYBLOCK
 62
     0
100
AcDbLine
 10
39.021735
 20
40.837924
 30
0.0
 11
38.011779
 21
40.837924
 31
0.0
  0
LINE
  5
71FB
100
AcDbEntity
  8
0
  6
BYBLOCK
 62
     0
100
AcDbLine
 10
39.84709
 20
42.337924
 30
0.0
 11
38.011779
 21
42.337924
 31
0.0
  0
LINE
  5
71FC
100
AcDbEntity
  8
0
  6
BYBLOCK
 62
     0
100
AcDbLine
 10
38.191779
 20
41.017924
 30
0.0
 11
38.191779
 21
41.231258
 31
0.0
  0
LINE
  5
71FD
100
AcDbEntity
  8
0
  6
BYBLOCK
 62
     0
100
AcDbLine
 10
38.191779
 20
42.157924
 30
0.0
 11
38.191779
 21
41.944591
 31
0.0
  0
SOLID
  5
71FE
100
AcDbEntity
  8
0
  6
BYBLOCK
 62
     0
100
AcDbTrace
 10
38.161779
 20
41.017924
 30
0.0
 11
38.221779
 21
41.017924
 31
0.0
 12
38.191779
 22
40.837924
 32
0.0
 13
38.191779
 23
40.837924
 33
0.0
  0
SOLID
  5
71FF
100
AcDbEntity
  8
0
  6
BYBLOCK
 62
     0
100
AcDbTrace
 10
38.161779
 20
42.157924
 30
0.0
 11
38.221779
 21
42.157924
 31
0.0
 12
38.191779
 22
42.337924
 32
0.0
 13
38.191779
 23
42.337924
 33
0.0
  0
MTEXT
  5
7200
100
AcDbEntity
  8
0
  6
BYBLOCK
 62
     0
100
AcDbMText
 10
38.191779
 20
41.587924
 30
0.0
 40
0.2
 41
0.0
 71
     5
 72
     1
  1
\A1;0.625MIN\P1.375MAX
  0
POINT
  5
7201
100
AcDbEntity
  8
DEFPOINTS
  6
BYBLOCK
 62
     0
100
AcDbPoint
 10
39.084235
 20
40.837924
 30
0.0
  0
POINT
  5
7202
100
AcDbEntity
  8
DEFPOINTS
  6
BYBLOCK
 62
     0
100
AcDbPoint
 10
39.90959
 20
42.337924
 30
0.0
  0
POINT
  5
7203
100
AcDbEntity
  8
DEFPOINTS
  6
BYBLOCK
 62
     0
100
AcDbPoint
 10
38.191779
 20
42.337924
 30
0.0
  0
ENDBLK
  5
7204
100
AcDbEntity
  8
0
100
AcDbBlockEnd
  0
BLOCK
  5
7115
100
AcDbEntity
  8
0
100
AcDbBlockBegin
  2
*D1
 70
     1
 10
0.0
 20
0.0
 30
0.0
  3
*D1
  1

  0
LINE
  5
7116
100
AcDbEntity
  8
0
  6
BYBLOCK
 62
     0
100
AcDbLine
 10
42.94334
 20
44.837924
 30
0.0
 11
44.247035
 21
44.837924
 31
0.0
  0
LINE
  5
7117
100
AcDbEntity
  8
0
  6
BYBLOCK
 62
     0
100
AcDbLine
 10
42.94334
 20
38.337924
 30
0.0
 11
44.247035
 21
38.337924
 31
0.0
  0
LINE
  5
7118
100
AcDbEntity
  8
0
  6
BYBLOCK
 62
     0
100
AcDbLine
 10
44.067035
 20
44.712924
 30
0.0
 11
44.067035
 21
41.690424
 31
0.0
  0
LINE
  5
7119
100
AcDbEntity
  8
0
  6
BYBLOCK
 62
     0
100
AcDbLine
 10
44.067035
 20
38.462924
 30
0.0
 11
44.067035
 21
41.485424
 31
0.0
  0
SOLID
  5
711A
100
AcDbEntity
  8
0
  6
BYBLOCK
 62
     0
100
AcDbTrace
 10
44.046202
 20
44.712924
 30
0.0
 11
44.087868
 21
44.712924
 31
0.0
 12
44.067035
 22
44.837924
 32
0.0
 13
44.067035
 23
44.837924
 33
0.0
  0
SOLID
  5
711B
100
AcDbEntity
  8
0
  6
BYBLOCK
 62
     0
100
AcDbTrace
 10
44.046202
 20
38.462924
 30
0.0
 11
44.087868
 21
38.462924
 31
0.0
 12
44.067035
 22
38.337924
 32
0.0
 13
44.067035
 23
38.337924
 33
0.0
  0
MTEXT
  5
711C
100
AcDbEntity
  8
0
  6
BYBLOCK
 62
     0
100
AcDbMText
 10
44.067035
 20
41.587924
 30
0.0
 40
0.125
 41
0.0
 71
     5
 72
     1
  1
\A1;6.50
  7
ROMANS
  0
POINT
  5
711D
100
AcDbEntity
  8
DEFPOINTS
  6
BYBLOCK
 62
     0
100
AcDbPoint
 10
42.86334
 20
44.837924
 30
0.0
  0
POINT
  5
711E
100
AcDbEntity
  8
DEFPOINTS
  6
BYBLOCK
 62
     0
100
AcDbPoint
 10
42.86334
 20
38.337924
 30
0.0
  0
POINT
  5
711F
100
AcDbEntity
  8
DEFPOINTS
  6
BYBLOCK
 62
     0
100
AcDbPoint
 10
44.067035
 20
38.337924
 30
0.0
  0
ENDBLK
  5
7120
100
AcDbEntity
  8
0
100
AcDbBlockEnd
  0
BLOCK
  5
7109
100
AcDbEntity
  8
0
100
AcDbBlockBegin
  2
*D2
 70
     1
 10
0.0
 20
0.0
 30
0.0
  3
*D2
  1

  0
LINE
  5
710A
100
AcDbEntity
  8
0
  6
BYBLOCK
 62
     0
100
AcDbLine
 10
41.40209
 20
44.513342
 30
0.0
 11
41.40209
 21
46.021059
 31
0.0
  0
LINE
  5
710B
100
AcDbEntity
  8
0
  6
BYBLOCK
 62
     0
100
AcDbLine
 10
39.25209
 20
44.513342
 30
0.0
 11
39.25209
 21
46.021059
 31
0.0
  0
LINE
  5
710C
100
AcDbEntity
  8
0
  6
BYBLOCK
 62
     0
100
AcDbLine
 10
41.27709
 20
45.841059
 30
0.0
 11
40.513757
 21
45.841059
 31
0.0
  0
LINE
  5
710D
100
AcDbEntity
  8
0
  6
BYBLOCK
 62
     0
100
AcDbLine
 10
39.37709
 20
45.841059
 30
0.0
 11
40.140424
 21
45.841059
 31
0.0
  0
SOLID
  5
710E
100
AcDbEntity
  8
0
  6
BYBLOCK
 62
     0
100
AcDbTrace
 10
41.27709
 20
45.861892
 30
0.0
 11
41.27709
 21
45.820226
 31
0.0
 12
41.40209
 22
45.841059
 32
0.0
 13
41.40209
 23
45.841059
 33
0.0
  0
SOLID
  5
710F
100
AcDbEntity
  8
0
  6
BYBLOCK
 62
     0
100
AcDbTrace
 10
39.37709
 20
45.861892
 30
0.0
 11
39.37709
 21
45.820226
 31
0.0
 12
39.25209
 22
45.841059
 32
0.0
 13
39.25209
 23
45.841059
 33
0.0
  0
MTEXT
  5
7110
100
AcDbEntity
  8
0
  6
BYBLOCK
 62
     0
100
AcDbMText
 10
40.32709
 20
45.841059
 30
0.0
 40
0.125
 41
0.0
 71
     5
 72
     1
  1
\A1;2.15
  7
ROMANS
  0
POINT
  5
7111
100
AcDbEntity
  8
DEFPOINTS
  6
BYBLOCK
 62
     0
100
AcDbPoint
 10
41.40209
 20
44.433342
 30
0.0
  0
POINT
  5
7112
100
AcDbEntity
  8
DEFPOINTS
  6
BYBLOCK
 62
     0
100
AcDbPoint
 10
39.25209
 20
44.433342
 30
0.0
  0
POINT
  5
7113
100
AcDbEntity
  8
DEFPOINTS
  6
BYBLOCK
 62
     0
100
AcDbPoint
 10
39.25209
 20
45.841059
 30
0.0
  0
ENDBLK
  5
7114
100
AcDbEntity
  8
0
100
AcDbBlockEnd
  0
BLOCK
  5
7122
100
AcDbEntity
  8
0
100
AcDbBlockBegin
  2
*D3
 70
     1
 10
0.0
 20
0.0
 30
0.0
  3
*D3
  1

  0
LINE
  5
7123
100
AcDbEntity
  8
0
  6
BYBLOCK
 62
     0
100
AcDbLine
 10
39.25209
 20
43.733342
 30
0.0
 11
39.25209
 21
43.224429
 31
0.0
  0
LINE
  5
7124
100
AcDbEntity
  8
0
  6
BYBLOCK
 62
     0
100
AcDbLine
 10
38.56534
 20
43.856492
 30
0.0
 11
38.56534
 21
43.224429
 31
0.0
  0
LINE
  5
7125
100
AcDbEntity
  8
0
  6
BYBLOCK
 62
     0
100
AcDbLine
 10
39.37709
 20
43.404429
 30
0.0
 11
39.50209
 21
43.404429
 31
0.0
  0
LINE
  5
7126
100
AcDbEntity
  8
0
  6
BYBLOCK
 62
     0
100
AcDbLine
 10
38.44034
 20
43.404429
 30
0.0
 11
38.31534
 21
43.404429
 31
0.0
  0
SOLID
  5
7127
100
AcDbEntity
  8
0
  6
BYBLOCK
 62
     0
100
AcDbTrace
 10
39.37709
 20
43.425263
 30
0.0
 11
39.37709
 21
43.383596
 31
0.0
 12
39.25209
 22
43.404429
 32
0.0
 13
39.25209
 23
43.404429
 33
0.0
  0
SOLID
  5
7128
100
AcDbEntity
  8
0
  6
BYBLOCK
 62
     0
100
AcDbTrace
 10
38.44034
 20
43.425263
 30
0.0
 11
38.44034
 21
43.383596
 31
0.0
 12
38.56534
 22
43.404429
 32
0.0
 13
38.56534
 23
43.404429
 33
0.0
  0
MTEXT
  5
7129
100
AcDbEntity
  8
0
  6
BYBLOCK
 62
     0
100
AcDbMText
 10
38.908715
 20
43.404429
 30
0.0
 40
0.125
 41
0.0
 71
     5
 72
     1
  1
\A1;0.69
  7
ROMANS
  0
POINT
  5
712A
100
AcDbEntity
  8
DEFPOINTS
  6
BYBLOCK
 62
     0
100
AcDbPoint
 10
39.25209
 20
43.813342
 30
0.0
  0
POINT
  5
712B
100
AcDbEntity
  8
DEFPOINTS
  6
BYBLOCK
 62
     0
100
AcDbPoint
 10
38.56534
 20
43.936492
 30
0.0
  0
POINT
  5
712C
100
AcDbEntity
  8
DEFPOINTS
  6
BYBLOCK
 62
     0
100
AcDbPoint
 10
38.56534
 20
43.404429
 30
0.0
  0
ENDBLK
  5
712D
100
AcDbEntity
  8
0
100
AcDbBlockEnd
  0
BLOCK
  5
7130
100
AcDbEntity
  8
0
100
AcDbBlockBegin
  2
*D4
 70
     1
 10
0.0
 20
0.0
 30
0.0
  3
*D4
  1

  0
LINE
  5
7131
100
AcDbEntity
  8
0
  6
BYBLOCK
 62
     0
100
AcDbLine
 10
39.90959
 20
38.445424
 30
0.0
 11
39.90959
 21
37.226539
 31
0.0
  0
LINE
  5
7132
100
AcDbEntity
  8
0
  6
BYBLOCK
 62
     0
100
AcDbLine
 10
43.39459
 20
38.445424
 30
0.0
 11
43.39459
 21
37.226539
 31
0.0
  0
LINE
  5
7133
100
AcDbEntity
  8
0
  6
BYBLOCK
 62
     0
100
AcDbLine
 10
40.03459
 20
37.406539
 30
0.0
 11
41.467715
 21
37.406539
 31
0.0
  0
LINE
  5
7134
100
AcDbEntity
  8
0
  6
BYBLOCK
 62
     0
100
AcDbLine
 10
43.26959
 20
37.406539
 30
0.0
 11
41.836465
 21
37.406539
 31
0.0
  0
SOLID
  5
7135
100
AcDbEntity
  8
0
  6
BYBLOCK
 62
     0
100
AcDbTrace
 10
40.03459
 20
37.427373
 30
0.0
 11
40.03459
 21
37.385706
 31
0.0
 12
39.90959
 22
37.406539
 32
0.0
 13
39.90959
 23
37.406539
 33
0.0
  0
SOLID
  5
7136
100
AcDbEntity
  8
0
  6
BYBLOCK
 62
     0
100
AcDbTrace
 10
43.26959
 20
37.427373
 30
0.0
 11
43.26959
 21
37.385706
 31
0.0
 12
43.39459
 22
37.406539
 32
0.0
 13
43.39459
 23
37.406539
 33
0.0
  0
MTEXT
  5
7137
100
AcDbEntity
  8
0
  6
BYBLOCK
 62
     0
100
AcDbMText
 10
41.65209
 20
37.406539
 30
0.0
 40
0.125
 41
0.0
 71
     5
 72
     1
  1
\A1;3.49
  7
ROMANS
  0
POINT
  5
7138
100
AcDbEntity
  8
DEFPOINTS
  6
BYBLOCK
 62
     0
100
AcDbPoint
 10
39.90959
 20
38.525424
 30
0.0
  0
POINT
  5
7139
100
AcDbEntity
  8
DEFPOINTS
  6
BYBLOCK
 62
     0
100
AcDbPoint
 10
43.39459
 20
38.525424
 30
0.0
  0
POINT
  5
713A
100
AcDbEntity
  8
DEFPOINTS
  6
BYBLOCK
 62
     0
100
AcDbPoint
 10
43.39459
 20
37.406539
 30
0.0
  0
ENDBLK
  5
713B
100
AcDbEntity
  8
0
100
AcDbBlockEnd
  0
BLOCK
  5
713E
100
AcDbEntity
  8
0
100
AcDbBlockBegin
  2
*D5
 70
     1
 10
0.0
 20
0.0
 30
0.0
  3
*D5
  1

  0
LINE
  5
713F
100
AcDbEntity
  8
0
  6
BYBLOCK
 62
     0
100
AcDbLine
 10
39.17209
 20
39.367924
 30
0.0
 11
37.823846
 21
39.367924
 31
0.0
  0
LINE
  5
7140
100
AcDbEntity
  8
0
  6
BYBLOCK
 62
     0
100
AcDbLine
 10
39.17209
 20
38.747924
 30
0.0
 11
37.823846
 21
38.747924
 31
0.0
  0
LINE
  5
7141
100
AcDbEntity
  8
0
  6
BYBLOCK
 62
     0
100
AcDbLine
 10
38.003846
 20
39.242924
 30
0.0
 11
38.003846
 21
39.160424
 31
0.0
  0
LINE
  5
7142
100
AcDbEntity
  8
0
  6
BYBLOCK
 62
     0
100
AcDbLine
 10
38.003846
 20
38.872924
 30
0.0
 11
38.003846
 21
38.955424
 31
0.0
  0
SOLID
  5
7143
100
AcDbEntity
  8
0
  6
BYBLOCK
 62
     0
100
AcDbTrace
 10
37.983012
 20
39.242924
 30
0.0
 11
38.024679
 21
39.242924
 31
0.0
 12
38.003846
 22
39.367924
 32
0.0
 13
38.003846
 23
39.367924
 33
0.0
  0
SOLID
  5
7144
100
AcDbEntity
  8
0
  6
BYBLOCK
 62
     0
100
AcDbTrace
 10
37.983012
 20
38.872924
 30
0.0
 11
38.024679
 21
38.872924
 31
0.0
 12
38.003846
 22
38.747924
 32
0.0
 13
38.003846
 23
38.747924
 33
0.0
  0
MTEXT
  5
7145
100
AcDbEntity
  8
0
  6
BYBLOCK
 62
     0
100
AcDbMText
 10
38.003846
 20
39.057924
 30
0.0
 40
0.125
 41
0.0
 71
     5
 72
     1
  1
\A1;0.62
  7
ROMANS
  0
POINT
  5
7146
100
AcDbEntity
  8
DEFPOINTS
  6
BYBLOCK
 62
     0
100
AcDbPoint
 10
39.25209
 20
39.367924
 30
0.0
  0
POINT
  5
7147
100
AcDbEntity
  8
DEFPOINTS
  6
BYBLOCK
 62
     0
100
AcDbPoint
 10
39.25209
 20
38.747924
 30
0.0
  0
POINT
  5
7148
100
AcDbEntity
  8
DEFPOINTS
  6
BYBLOCK
 62
     0
100
AcDbPoint
 10
38.003846
 20
38.747924
 30
0.0
  0
ENDBLK
  5
7149
100
AcDbEntity
  8
0
100
AcDbBlockEnd
  0
BLOCK
  5
714C
100
AcDbEntity
  8
0
100
AcDbBlockBegin
  2
*D6
 70
     1
 10
0.0
 20
0.0
 30
0.0
  3
*D6
  1

  0
LINE
  5
714D
100
AcDbEntity
  8
0
  6
BYBLOCK
 62
     0
100
AcDbLine
 10
48.584194
 20
44.120866
 30
0.0
 11
45.776542
 21
44.120866
 31
0.0
  0
LINE
  5
714E
100
AcDbEntity
  8
0
  6
BYBLOCK
 62
     0
100
AcDbLine
 10
48.584194
 20
39.054983
 30
0.0
 11
45.776542
 21
39.054983
 31
0.0
  0
LINE
  5
714F
100
AcDbEntity
  8
0
  6
BYBLOCK
 62
     0
100
AcDbLine
 10
45.956542
 20
43.995866
 30
0.0
 11
45.956542
 21
41.690424
 31
0.0
  0
LINE
  5
7150
100
AcDbEntity
  8
0
  6
BYBLOCK
 62
     0
100
AcDbLine
 10
45.956542
 20
39.179983
 30
0.0
 11
45.956542
 21
41.485424
 31
0.0
  0
SOLID
  5
7151
100
AcDbEntity
  8
0
  6
BYBLOCK
 62
     0
100
AcDbTrace
 10
45.935709
 20
43.995866
 30
0.0
 11
45.977376
 21
43.995866
 31
0.0
 12
45.956542
 22
44.120866
 32
0.0
 13
45.956542
 23
44.120866
 33
0.0
  0
SOLID
  5
7152
100
AcDbEntity
  8
0
  6
BYBLOCK
 62
     0
100
AcDbTrace
 10
45.935709
 20
39.179983
 30
0.0
 11
45.977376
 21
39.179983
 31
0.0
 12
45.956542
 22
39.054983
 32
0.0
 13
45.956542
 23
39.054983
 33
0.0
  0
MTEXT
  5
7153
100
AcDbEntity
  8
0
  6
BYBLOCK
 62
     0
100
AcDbMText
 10
45.956542
 20
41.587924
 30
0.0
 40
0.125
 41
0.0
 71
     5
 72
     1
  1
\A1;5.07
  7
ROMANS
  0
POINT
  5
7154
100
AcDbEntity
  8
DEFPOINTS
  6
BYBLOCK
 62
     0
100
AcDbPoint
 10
48.664194
 20
44.120866
 30
0.0
  0
POINT
  5
7155
100
AcDbEntity
  8
DEFPOINTS
  6
BYBLOCK
 62
     0
100
AcDbPoint
 10
48.664194
 20
39.054983
 30
0.0
  0
POINT
  5
7156
100
AcDbEntity
  8
DEFPOINTS
  6
BYBLOCK
 62
     0
100
AcDbPoint
 10
45.956542
 20
39.054983
 30
0.0
  0
ENDBLK
  5
7157
100
AcDbEntity
  8
0
100
AcDbBlockEnd
  0
BLOCK
  5
715A
100
AcDbEntity
  8
0
100
AcDbBlockBegin
  2
*D7
 70
     1
 10
0.0
 20
0.0
 30
0.0
  3
*D7
  1

  0
LINE
  5
715B
100
AcDbEntity
  8
0
  6
BYBLOCK
 62
     0
100
AcDbLine
 10
48.664194
 20
38.974983
 30
0.0
 11
48.664194
 21
36.350864
 31
0.0
  0
LINE
  5
715C
100
AcDbEntity
  8
0
  6
BYBLOCK
 62
     0
100
AcDbLine
 10
54.09669
 20
38.974983
 30
0.0
 11
54.09669
 21
36.350864
 31
0.0
  0
LINE
  5
715D
100
AcDbEntity
  8
0
  6
BYBLOCK
 62
     0
100
AcDbLine
 10
48.789194
 20
36.530864
 30
0.0
 11
51.193775
 21
36.530864
 31
0.0
  0
LINE
  5
715E
100
AcDbEntity
  8
0
  6
BYBLOCK
 62
     0
100
AcDbLine
 10
53.97169
 20
36.530864
 30
0.0
 11
51.567109
 21
36.530864
 31
0.0
  0
SOLID
  5
715F
100
AcDbEntity
  8
0
  6
BYBLOCK
 62
     0
100
AcDbTrace
 10
48.789194
 20
36.551697
 30
0.0
 11
48.789194
 21
36.510031
 31
0.0
 12
48.664194
 22
36.530864
 32
0.0
 13
48.664194
 23
36.530864
 33
0.0
  0
SOLID
  5
7160
100
AcDbEntity
  8
0
  6
BYBLOCK
 62
     0
100
AcDbTrace
 10
53.97169
 20
36.551697
 30
0.0
 11
53.97169
 21
36.510031
 31
0.0
 12
54.09669
 22
36.530864
 32
0.0
 13
54.09669
 23
36.530864
 33
0.0
  0
MTEXT
  5
7161
100
AcDbEntity
  8
0
  6
BYBLOCK
 62
     0
100
AcDbMText
 10
51.380442
 20
36.530864
 30
0.0
 40
0.125
 41
0.0
 71
     5
 72
     1
  1
\A1;5.43
  7
ROMANS
  0
POINT
  5
7162
100
AcDbEntity
  8
DEFPOINTS
  6
BYBLOCK
 62
     0
100
AcDbPoint
 10
48.664194
 20
39.054983
 30
0.0
  0
POINT
  5
7163
100
AcDbEntity
  8
DEFPOINTS
  6
BYBLOCK
 62
     0
100
AcDbPoint
 10
54.09669
 20
39.054983
 30
0.0
  0
POINT
  5
7164
100
AcDbEntity
  8
DEFPOINTS
  6
BYBLOCK
 62
     0
100
AcDbPoint
 10
54.09669
 20
36.530864
 30
0.0
  0
ENDBLK
  5
7165
100
AcDbEntity
  8
0
100
AcDbBlockEnd
  0
BLOCK
  5
7188
100
AcDbEntity
  8
0
100
AcDbBlockBegin
  2
*D8
 70
     1
 10
0.0
 20
0.0
 30
0.0
  3
*D8
  1

  0
LINE
  5
7189
100
AcDbEntity
  8
0
  6
BYBLOCK
 62
     0
100
AcDbLine
 10
55.054019
 20
39.116193
 30
0.0
 11
54.788313
 21
39.116193
 31
0.0
  0
LINE
  5
718A
100
AcDbEntity
  8
0
  6
BYBLOCK
 62
     0
100
AcDbLine
 10
54.788313
 20
39.116193
 30
0.0
 11
54.386905
 21
39.407334
 31
0.0
  0
MTEXT
  5
718B
100
AcDbEntity
  8
0
  6
BYBLOCK
 62
     0
100
AcDbMText
 10
55.334644
 20
39.116193
 30
0.0
 40
0.125
 41
0.0
 71
     5
 72
     1
  1
\A1;R3.714
  7
ROMANS
  0
SOLID
  5
718C
100
AcDbEntity
  8
0
  6
BYBLOCK
 62
     0
100
AcDbTrace
 10
54.500324
 20
39.350808
 30
0.0
 11
54.47586
 21
39.317079
 31
0.0
 12
54.386905
 22
39.407334
 32
0.0
 13
54.386905
 23
39.407334
 33
0.0
  0
POINT
  5
718D
100
AcDbEntity
  8
DEFPOINTS
  6
BYBLOCK
 62
     0
100
AcDbPoint
 10
54.386905
 20
39.407334
 30
0.0
  0
POINT
  5
718E
100
AcDbEntity
  8
DEFPOINTS
  6
BYBLOCK
 62
     0
100
AcDbPoint
 10
51.380442
 20
41.587924
 30
0.0
  0
ENDBLK
  5
718F
100
AcDbEntity
  8
0
100
AcDbBlockEnd
  0
BLOCK
  5
7180
100
AcDbEntity
  8
0
100
AcDbBlockBegin
  2
*D9
 70
     1
 10
0.0
 20
0.0
 30
0.0
  3
*D9
  1

  0
LINE
  5
7181
100
AcDbEntity
  8
0
  6
BYBLOCK
 62
     0
100
AcDbLine
 10
54.769771
 20
45.012335
 30
0.0
 11
54.062962
 21
45.012335
 31
0.0
  0
LINE
  5
7182
100
AcDbEntity
  8
0
  6
BYBLOCK
 62
     0
100
AcDbLine
 10
54.062962
 20
45.012335
 30
0.0
 11
53.908794
 21
44.81553
 31
0.0
  0
MTEXT
  5
7183
100
AcDbEntity
  8
0
  6
BYBLOCK
 62
     0
100
AcDbMText
 10
55.048104
 20
45.012335
 30
0.0
 40
0.125
 41
0.0
 71
     5
 72
     1
  1
\A1;R4.100
  7
ROMANS
  0
SOLID
  5
7184
100
AcDbEntity
  8
0
  6
BYBLOCK
 62
     0
100
AcDbTrace
 10
53.969477
 20
44.92678
 30
0.0
 11
54.002278
 21
44.901085
 31
0.0
 12
53.908794
 22
44.81553
 32
0.0
 13
53.908794
 23
44.81553
 33
0.0
  0
POINT
  5
7185
100
AcDbEntity
  8
DEFPOINTS
  6
BYBLOCK
 62
     0
100
AcDbPoint
 10
53.908794
 20
44.81553
 30
0.0
  0
POINT
  5
7186
100
AcDbEntity
  8
DEFPOINTS
  6
BYBLOCK
 62
     0
100
AcDbPoint
 10
51.380442
 20
41.587924
 30
0.0
  0
ENDBLK
  5
7187
100
AcDbEntity
  8
0
100
AcDbBlockEnd
  0
BLOCK
  5
71E0
100
AcDbEntity
  8
0
100
AcDbBlockBegin
  2
*D10
 70
     1
 10
0.0
 20
0.0
 30
0.0
  3
*D10
  1

  0
LINE
  5
71E1
100
AcDbEntity
  8
0
  6
BYBLOCK
 62
     0
100
AcDbLine
 10
43.39459
 20
38.445424
 30
0.0
 11
43.39459
 21
36.585924
 31
0.0
  0
LINE
  5
71E2
100
AcDbEntity
  8
0
  6
BYBLOCK
 62
     0
100
AcDbLine
 10
39.25209
 20
38.667924
 30
0.0
 11
39.25209
 21
36.585924
 31
0.0
  0
LINE
  5
71E3
100
AcDbEntity
  8
0
  6
BYBLOCK
 62
     0
100
AcDbLine
 10
43.26959
 20
36.765924
 30
0.0
 11
41.55584
 21
36.765924
 31
0.0
  0
LINE
  5
71E4
100
AcDbEntity
  8
0
  6
BYBLOCK
 62
     0
100
AcDbLine
 10
39.37709
 20
36.765924
 30
0.0
 11
41.09084
 21
36.765924
 31
0.0
  0
SOLID
  5
71E5
100
AcDbEntity
  8
0
  6
BYBLOCK
 62
     0
100
AcDbTrace
 10
43.26959
 20
36.786757
 30
0.0
 11
43.26959
 21
36.74509
 31
0.0
 12
43.39459
 22
36.765924
 32
0.0
 13
43.39459
 23
36.765924
 33
0.0
  0
SOLID
  5
71E6
100
AcDbEntity
  8
0
  6
BYBLOCK
 62
     0
100
AcDbTrace
 10
39.37709
 20
36.786757
 30
0.0
 11
39.37709
 21
36.74509
 31
0.0
 12
39.25209
 22
36.765924
 32
0.0
 13
39.25209
 23
36.765924
 33
0.0
  0
MTEXT
  5
71E7
100
AcDbEntity
  8
0
  6
BYBLOCK
 62
     0
100
AcDbMText
 10
41.32334
 20
36.765924
 30
0.0
 40
0.125
 41
0.0
 71
     5
 72
     1
  1
\A1;4.143
  7
ROMANS
  0
POINT
  5
71E8
100
AcDbEntity
  8
DEFPOINTS
  6
BYBLOCK
 62
     0
100
AcDbPoint
 10
43.39459
 20
38.525424
 30
0.0
  0
POINT
  5
71E9
100
AcDbEntity
  8
DEFPOINTS
  6
BYBLOCK
 62
     0
100
AcDbPoint
 10
39.25209
 20
38.747924
 30
0.0
  0
POINT
  5
71EA
100
AcDbEntity
  8
DEFPOINTS
  6
BYBLOCK
 62
     0
100
AcDbPoint
 10
39.25209
 20
36.765924
 30
0.0
  0
ENDBLK
  5
71EB
100
AcDbEntity
  8
0
100
AcDbBlockEnd
  0
ENDSEC
  0
SECTION
  2
ENTITIES
  0
LINE
  5
423
100
AcDbEntity
  8
CTR
 62
     7
100
AcDbLine
 10
50.778288
 20
41.587924
 30
0.0
 11
55.108979
 21
41.587924
 31
0.0
  0
LINE
  5
428
100
AcDbEntity
  8
OBJ
 62
     7
100
AcDbLine
 10
52.416144
 20
40.462924
 30
0.0
 11
52.461144
 21
40.462924
 31
0.0
  0
LINE
  5
42E
100
AcDbEntity
  8
OBJ
 62
     7
100
AcDbLine
 10
52.416144
 20
42.712924
 30
0.0
 11
52.461144
 21
42.712924
 31
0.0
  0
ARC
  5
434
100
AcDbEntity
  8
OBJ
 62
     7
100
AcDbCircle
 10
43.581396
 20
41.515844
 30
0.0
 40
0.75
100
AcDbArc
 50
194.516966
 51
165.483034
  0
ARC
  5
435
100
AcDbEntity
  8
OBJ
 62
     7
100
AcDbCircle
 10
43.581396
 20
41.515844
 30
0.0
 40
0.81004
100
AcDbArc
 50
193.419991
 51
166.580009
  0
LINE
  5
43F
100
AcDbEntity
  8
OBJ
 62
     7
100
AcDbLine
 10
42.657396
 20
41.703844
 30
0.0
 11
42.657396
 21
41.327844
 31
0.0
  0
LINE
  5
440
100
AcDbEntity
  8
OBJ
 62
     7
100
AcDbLine
 10
42.855341
 20
41.703844
 30
0.0
 11
42.657396
 21
41.703844
 31
0.0
  0
LINE
  5
441
100
AcDbEntity
  8
OBJ
 62
     7
100
AcDbLine
 10
42.855341
 20
41.327844
 30
0.0
 11
42.657396
 21
41.327844
 31
0.0
  0
TEXT
  5
44E
100
AcDbEntity
  8
3
 62
     7
100
AcDbText
 10
30.426574
 20
14.91009
 30
0.0
 40
0.088891
  1

  7
ITALICC
100
AcDbText
  0
TEXT
  5
44F
100
AcDbEntity
  8
3
 62
     7
100
AcDbText
 10
30.31546
 20
15.132318
 30
0.0
 40
0.088891
  1

  7
ITALICC
100
AcDbText
  0
TEXT
  5
450
100
AcDbEntity
  8
3
 62
     7
100
AcDbText
 10
30.382128
 20
15.021204
 30
0.0
 40
0.088891
  1

  7
ITALICC
100
AcDbText
  0
TEXT
  5
454
100
AcDbEntity
  8
3
 62
     7
100
AcDbText
 10
9.426574
 20
-1.08991
 30
0.0
 40
0.088891
  1

  7
ITALICC
100
AcDbText
  0
TEXT
  5
455
100
AcDbEntity
  8
3
 62
     7
100
AcDbText
 10
9.31546
 20
-0.867682
 30
0.0
 40
0.088891
  1

  7
ITALICC
100
AcDbText
  0
TEXT
  5
456
100
AcDbEntity
  8
3
 62
     7
100
AcDbText
 10
9.382128
 20
-0.978796
 30
0.0
 40
0.088891
  1

  7
ITALICC
100
AcDbText
  0
TEXT
  5
4C6
100
AcDbEntity
  8
3
 62
     7
100
AcDbText
 10
30.426574
 20
-1.08991
 30
0.0
 40
0.088891
  1

  7
ITALICC
100
AcDbText
  0
TEXT
  5
4C7
100
AcDbEntity
  8
3
 62
     7
100
AcDbText
 10
30.31546
 20
-0.867682
 30
0.0
 40
0.088891
  1

  7
ITALICC
100
AcDbText
  0
TEXT
  5
4C8
100
AcDbEntity
  8
3
 62
     7
100
AcDbText
 10
30.382128
 20
-0.978796
 30
0.0
 40
0.088891
  1

  7
ITALICC
100
AcDbText
  0
TEXT
  5
4ED
100
AcDbEntity
  8
3
 62
     7
100
AcDbText
 10
9.426574
 20
14.91009
 30
0.0
 40
0.088891
  1

  7
ITALICC
100
AcDbText
  0
TEXT
  5
4EE
100
AcDbEntity
  8
3
 62
     7
100
AcDbText
 10
9.31546
 20
15.132318
 30
0.0
 40
0.088891
  1

  7
ITALICC
100
AcDbText
  0
TEXT
  5
4EF
100
AcDbEntity
  8
3
 62
     7
100
AcDbText
 10
9.382128
 20
15.021204
 30
0.0
 40
0.088891
  1

  7
ITALICC
100
AcDbText
  0
TEXT
  5
610
100
AcDbEntity
  8
BORDER
 62
     4
100
AcDbText
 10
56.603134
 20
-3.328404
 30
0.0
 40
0.15
  1

 41
0.77
  7
ROMANS
 72
     1
 11
56.603134
 21
-3.328404
 31
0.0
100
AcDbText
  0
TEXT
  5
631
100
AcDbEntity
  8
BORDER
 62
     4
100
AcDbText
 10
53.152253
 20
-2.554925
 30
0.0
 40
0.1
  1

 41
0.877818
  7
ROMANS
 72
     5
 11
53.808526
 21
-2.554925
 31
0.0
100
AcDbText
  0
TEXT
  5
649
100
AcDbEntity
  8
0
100
AcDbText
 10
50.511674
 20
-0.325956
 30
0.0
 40
0.18
  1

 72
     2
 11
50.511674
 21
-0.235956
 31
0.0
100
AcDbText
 73
     2
  0
TEXT
  5
B26
100
AcDbEntity
  8
BORDER
 62
     4
100
AcDbText
 10
97.846125
 20
-3.268205
 30
0.0
 40
0.15
  1

 41
0.77
  7
ROMANS
 72
     1
 11
97.846125
 21
-3.268205
 31
0.0
100
AcDbText
  0
TEXT
  5
1C9B
100
AcDbEntity
  8
3
 62
     7
100
AcDbText
 10
11.70745
 20
9.88981
 30
0.0
 40
0.177782
  1

  7
ITALICC
100
AcDbText
  0
TEXT
  5
1C9C
100
AcDbEntity
  8
3
 62
     7
100
AcDbText
 10
11.485222
 20
10.334266
 30
0.0
 40
0.177782
  1

  7
ITALICC
100
AcDbText
  0
TEXT
  5
1C9D
100
AcDbEntity
  8
3
 62
     7
100
AcDbText
 10
11.618559
 20
10.112038
 30
0.0
 40
0.177782
  1

  7
ITALICC
100
AcDbText
  0
TEXT
  5
1C9E
100
AcDbEntity
  8
BORDER
 62
     4
100
AcDbText
 10
0.907714
 20
5.100991
 30
0.0
 40
0.097815
  1

 41
0.77
  7
ROMANS
 72
     1
 11
0.907714
 21
5.100991
 31
0.0
100
AcDbText
  0
TEXT
  5
1C9F
100
AcDbEntity
  8
BORDER
 62
     2
100
AcDbText
 10
-4.606832
 20
4.038548
 30
0.0
 40
0.086948
  1

 50
90.0
 41
1.25
 72
     1
 11
-4.606832
 21
4.038548
 31
0.0
100
AcDbText
  0
TEXT
  5
1CA0
100
AcDbEntity
  8
BORDER
 62
     2
100
AcDbText
 10
-4.606832
 20
4.763798
 30
0.0
 40
0.086948
  1

 50
90.0
 41
1.25
 72
     1
 11
-4.606832
 21
4.763798
 31
0.0
100
AcDbText
  0
TEXT
  5
1CA1
100
AcDbEntity
  8
BORDER
 62
     2
100
AcDbText
 10
-4.606832
 20
5.427245
 30
0.0
 40
0.086948
  1

 50
90.0
 41
1.25
 72
     1
 11
-4.606832
 21
5.427245
 31
0.0
100
AcDbText
  0
LINE
  5
1CA2
100
AcDbEntity
  8
CENTER
 62
     7
100
AcDbLine
 10
46.044926
 20
39.218566
 30
0.0
 11
46.550406
 21
38.747198
 31
0.0
  0
ARC
  5
1CA3
100
AcDbEntity
  8
OBJECT
 62
     7
100
AcDbCircle
 10
43.581396
 20
41.515844
 30
0.0
 40
3.625
100
AcDbArc
 50
68.493197
 51
88.801283
  0
ARC
  5
1CA6
100
AcDbEntity
  8
OBJECT
 62
     7
100
AcDbCircle
 10
43.581396
 20
41.515844
 30
0.0
 40
3.625
100
AcDbArc
 50
270.96435
 51
291.506803
  0
ARC
  5
1CAB
100
AcDbEntity
  8
OBJECT
 62
     7
100
AcDbCircle
 10
43.581396
 20
41.515844
 30
0.0
 40
3.625
100
AcDbArc
 50
328.617629
 51
351.506803
  0
ARC
  5
1CB1
100
AcDbEntity
  8
OBJECT
 62
     7
100
AcDbCircle
 10
43.581396
 20
41.515844
 30
0.0
 40
4.1
100
AcDbArc
 50
37.224265
 51
41.151982
  0
LINE
  5
1CB2
100
AcDbEntity
  8
OBJECT
 62
     7
100
AcDbLine
 10
46.676502
 20
43.40289
 30
0.0
 11
46.846119
 21
43.996083
 31
0.0
  0
LINE
  5
1CB4
100
AcDbEntity
  8
OBJECT
 62
     7
100
AcDbLine
 10
45.76518
 20
44.495096
 30
0.0
 11
46.244736
 21
44.632994
 31
0.0
  0
ARC
  5
1CB5
100
AcDbEntity
  8
CENTER
 62
     7
100
AcDbCircle
 10
43.581396
 20
41.515844
 30
0.0
 40
3.714
100
AcDbArc
 50
37.666848
 51
48.333152
  0
LINE
  5
1CD4
100
AcDbEntity
  8
OBJECT
 62
     7
100
AcDbLine
 10
46.876848
 20
39.076582
 30
0.0
 11
46.676099
 21
39.628136
 31
0.0
  0
ARC
  5
1CD5
100
AcDbEntity
  8
OBJECT
 62
     7
100
AcDbCircle
 10
43.581396
 20
41.515844
 30
0.0
 40
4.1
100
AcDbArc
 50
310.508488
 51
315.151982
  0
LINE
  5
1CE1
100
AcDbEntity
  8
OBJECT
 62
     7
100
AcDbLine
 10
45.764546
 20
38.536226
 30
0.0
 11
46.244595
 21
38.398574
 31
0.0
  0
ARC
  5
1CE7
100
AcDbEntity
  8
OBJECT
 62
     7
100
AcDbCircle
 10
43.656558
 20
45.064893
 30
0.0
 40
0.075161
100
AcDbArc
 50
89.48613
 51
177.216836
  0
POINT
  5
1CED
100
AcDbEntity
  8
DEFPOINTS
  6
BYBLOCK
 62
     7
100
AcDbPoint
 10
43.581396
 20
41.515844
 30
0.0
  0
POINT
  5
1CEE
100
AcDbEntity
  8
DEFPOINTS
  6
BYBLOCK
 62
     7
100
AcDbPoint
 10
43.581396
 20
41.515844
 30
0.0
  0
POINT
  5
1CEF
100
AcDbEntity
  8
DEFPOINTS
  6
BYBLOCK
 62
     7
100
AcDbPoint
 10
43.581396
 20
41.515844
 30
0.0
  0
ARC
  5
1CF0
100
AcDbEntity
  8
OBJECT
 62
     7
100
AcDbCircle
 10
43.831396
 20
38.213282
 30
0.0
 40
0.250137
100
AcDbArc
 50
270.0
 51
20.789035
  0
LINE
  5
1CF1
100
AcDbEntity
  8
OBJECT
 62
     7
100
AcDbLine
 10
43.581396
 20
37.968282
 30
0.0
 11
43.581396
 21
37.951349
 31
0.0
  0
ARC
  5
1CF5
100
AcDbEntity
  8
OBJECT
 62
     7
100
AcDbCircle
 10
43.641396
 20
37.951349
 30
0.0
 40
0.06
100
AcDbArc
 50
180.0
 51
270.96435
  0
LINE
  5
1CF6
100
AcDbEntity
  8
OBJECT
 62
     7
100
AcDbLine
 10
43.831396
 20
37.963146
 30
0.0
 11
43.58126
 21
37.963146
 31
0.0
  0
LINE
  5
1CF7
100
AcDbEntity
  8
CENTER
 62
     7
100
AcDbLine
 10
53.346144
 20
41.911086
 30
0.0
 11
53.346144
 21
42.2657
 31
0.0
  0
LINE
  5
1CF8
100
AcDbEntity
  8
OBJECT
 62
     7
100
AcDbLine
 10
53.096144
 20
45.152131
 30
0.0
 11
53.096144
 21
38.003718
 31
0.0
  0
LINE
  5
1CF9
100
AcDbEntity
  8
OBJECT
 62
     7
100
AcDbLine
 10
53.596144
 20
45.152131
 30
0.0
 11
53.596144
 21
38.003718
 31
0.0
  0
LINE
  5
1CFC
100
AcDbEntity
  8
OBJECT
 62
     7
100
AcDbLine
 10
53.136144
 20
37.963718
 30
0.0
 11
53.556144
 21
37.963718
 31
0.0
  0
ARC
  5
1CFD
100
AcDbEntity
  8
OBJECT
 62
     7
100
AcDbCircle
 10
53.136144
 20
38.003718
 30
0.0
 40
0.04
100
AcDbArc
 50
180.0
 51
270.0
  0
ARC
  5
1CFE
100
AcDbEntity
  8
OBJECT
 62
     7
100
AcDbCircle
 10
53.556144
 20
38.003718
 30
0.0
 40
0.04
100
AcDbArc
 50
270.0
 51
0.0
  0
LINE
  5
1CFF
100
AcDbEntity
  8
OBJECT
 62
     7
100
AcDbLine
 10
53.156144
 20
45.212131
 30
0.0
 11
53.536144
 21
45.212131
 31
0.0
  0
ARC
  5
1D05
100
AcDbEntity
  8
OBJECT
 62
     7
100
AcDbCircle
 10
43.831396
 20
44.818405
 30
0.0
 40
0.250137
100
AcDbArc
 50
339.210965
 51
90.0
  0
LINE
  5
1D0A
100
AcDbEntity
  8
OBJECT
 62
     7
100
AcDbLine
 10
43.831396
 20
45.068542
 30
0.0
 11
43.58126
 21
45.068542
 31
0.0
  0
LINE
  5
1D0F
100
AcDbEntity
  8
CENTER
 62
     7
100
AcDbLine
 10
46.044904
 20
43.813102
 30
0.0
 11
46.550384
 21
44.28447
 31
0.0
  0
TEXT
  5
1D14
100
AcDbEntity
  8
3
 62
     7
100
AcDbText
 10
5.747047
 20
36.094951
 30
0.0
 40
0.088891
  1

  7
ITALICC
100
AcDbText
  0
TEXT
  5
1D15
100
AcDbEntity
  8
3
 62
     7
100
AcDbText
 10
5.635933
 20
36.317179
 30
0.0
 40
0.088891
  1

  7
ITALICC
100
AcDbText
  0
TEXT
  5
1D16
100
AcDbEntity
  8
3
 62
     7
100
AcDbText
 10
5.702602
 20
36.206065
 30
0.0
 40
0.088891
  1

  7
ITALICC
100
AcDbText
  0
TEXT
  5
1D17
100
AcDbEntity
  8
3
 62
     7
100
AcDbText
 10
151.544647
 20
23.169644
 30
0.0
 40
0.088891
  1

  7
ITALICC
100
AcDbText
  0
TEXT
  5
1D18
100
AcDbEntity
  8
3
 62
     7
100
AcDbText
 10
151.433533
 20
23.391872
 30
0.0
 40
0.088891
  1

  7
ITALICC
100
AcDbText
  0
TEXT
  5
1D19
100
AcDbEntity
  8
3
 62
     7
100
AcDbText
 10
151.500202
 20
23.280758
 30
0.0
 40
0.088891
  1

  7
ITALICC
100
AcDbText
  0
TEXT
  5
1D1A
100
AcDbEntity
  8
3
 62
     7
100
AcDbText
 10
220.68457
 20
39.342419
 30
0.0
 40
0.088891
  1

  7
ITALICC
100
AcDbText
  0
TEXT
  5
1D1B
100
AcDbEntity
  8
3
 62
     7
100
AcDbText
 10
220.573456
 20
39.564647
 30
0.0
 40
0.088891
  1

  7
ITALICC
100
AcDbText
  0
TEXT
  5
1D1C
100
AcDbEntity
  8
3
 62
     7
100
AcDbText
 10
220.640125
 20
39.453533
 30
0.0
 40
0.088891
  1

  7
ITALICC
100
AcDbText
  0
TEXT
  5
1D1D
100
AcDbEntity
  8
3
 62
     7
100
AcDbText
 10
204.097063
 20
61.302984
 30
0.0
 40
0.088891
  1

  7
ITALICC
100
AcDbText
  0
TEXT
  5
1D1E
100
AcDbEntity
  8
3
 62
     7
100
AcDbText
 10
203.985949
 20
61.525212
 30
0.0
 40
0.088891
  1

  7
ITALICC
100
AcDbText
  0
TEXT
  5
1D1F
100
AcDbEntity
  8
3
 62
     7
100
AcDbText
 10
204.052617
 20
61.414098
 30
0.0
 40
0.088891
  1

  7
ITALICC
100
AcDbText
  0
TEXT
  5
1D3F
100
AcDbEntity
  8
3
 62
     7
100
AcDbText
 10
35.28322
 20
43.087462
 30
0.0
 40
0.177782
  1

  7
ITALICC
100
AcDbText
  0
TEXT
  5
1D40
100
AcDbEntity
  8
3
 62
     7
100
AcDbText
 10
35.060992
 20
43.531918
 30
0.0
 40
0.177782
  1

  7
ITALICC
100
AcDbText
  0
TEXT
  5
1D41
100
AcDbEntity
  8
3
 62
     7
100
AcDbText
 10
35.194329
 20
43.30969
 30
0.0
 40
0.177782
  1

  7
ITALICC
100
AcDbText
  0
LINE
  5
1D6E
100
AcDbEntity
  8
CENTER
 62
     7
 48
0.75
100
AcDbLine
 10
53.523831
 20
42.088393
 30
0.0
 11
53.168456
 21
42.088393
 31
0.0
  0
ELLIPSE
  5
1D70
100
AcDbEntity
  8
HID
 62
     7
100
AcDbEllipse
 10
53.346144
 20
42.088393
 30
0.0
 11
-0.2021882053936963
 21
0.0
 31
0.0
210
0.0
220
0.0
230
1.0
 40
0.997223
 41
0.0
 42
6.283185307179586
  0
ELLIPSE
  5
1D71
100
AcDbEntity
  8
OBJECT
 62
     7
100
AcDbEllipse
 10
53.346144
 20
42.088393
 30
0.0
 11
-0.1776873477484759
 21
0.0
 31
0.0
210
0.0
220
0.0
230
1.0
 40
0.997858
 41
0.0
 42
6.283185307179586
  0
ELLIPSE
  5
1DBC
100
AcDbEntity
  8
OBJECT
 62
     7
100
AcDbEllipse
 10
53.396144
 20
41.189005
 30
0.0
 11
-0.0444999999999993
 21
0.0
 31
0.0
210
0.0
220
0.0
230
1.0
 40
0.993232
 41
0.0
 42
6.283185307179586
  0
ELLIPSE
  5
1DBD
100
AcDbEntity
  8
OBJECT
 62
     7
100
AcDbEllipse
 10
53.396144
 20
40.052945
 30
0.0
 11
-0.0444999999999993
 21
0.0
 31
0.0
210
0.0
220
0.0
230
1.0
 40
0.908505
 41
0.0
 42
6.283185307179586
  0
ARC
  5
1DE3
100
AcDbEntity
  8
OBJECT
 62
     7
100
AcDbCircle
 10
53.536144
 20
45.152131
 30
0.0
 40
0.06
100
AcDbArc
 50
0.0
 51
90.0
  0
ARC
  5
1DE4
100
AcDbEntity
  8
OBJECT
 62
     7
100
AcDbCircle
 10
53.156144
 20
45.152131
 30
0.0
 40
0.06
100
AcDbArc
 50
90.0
 51
180.0
  0
TEXT
  5
23CD
100
AcDbEntity
  8
3
 62
     7
100
AcDbText
 10
50.95336
 20
15.030237
 30
0.0
 40
0.088891
  1

  7
ITALICC
100
AcDbText
  0
TEXT
  5
23E4
100
AcDbEntity
  8
3
 62
     7
100
AcDbText
 10
50.842246
 20
15.252464
 30
0.0
 40
0.088891
  1

  7
ITALICC
100
AcDbText
  0
TEXT
  5
23E5
100
AcDbEntity
  8
3
 62
     7
100
AcDbText
 10
50.908915
 20
15.141351
 30
0.0
 40
0.088891
  1

  7
ITALICC
100
AcDbText
  0
TEXT
  5
24A5
100
AcDbEntity
  8
3
 62
     7
100
AcDbText
 10
29.95336
 20
-0.969763
 30
0.0
 40
0.088891
  1

  7
ITALICC
100
AcDbText
  0
TEXT
  5
24A6
100
AcDbEntity
  8
3
 62
     7
100
AcDbText
 10
29.842246
 20
-0.747536
 30
0.0
 40
0.088891
  1

  7
ITALICC
100
AcDbText
  0
TEXT
  5
24A7
100
AcDbEntity
  8
3
 62
     7
100
AcDbText
 10
29.908915
 20
-0.858649
 30
0.0
 40
0.088891
  1

  7
ITALICC
100
AcDbText
  0
TEXT
  5
24A8
100
AcDbEntity
  8
3
 62
     7
100
AcDbText
 10
50.95336
 20
-0.969763
 30
0.0
 40
0.088891
  1

  7
ITALICC
100
AcDbText
  0
TEXT
  5
24A9
100
AcDbEntity
  8
3
 62
     7
100
AcDbText
 10
50.842246
 20
-0.747536
 30
0.0
 40
0.088891
  1

  7
ITALICC
100
AcDbText
  0
TEXT
  5
24AA
100
AcDbEntity
  8
3
 62
     7
100
AcDbText
 10
50.908915
 20
-0.858649
 30
0.0
 40
0.088891
  1

  7
ITALICC
100
AcDbText
  0
TEXT
  5
24BE
100
AcDbEntity
  8
3
 62
     7
100
AcDbText
 10
29.95336
 20
15.030237
 30
0.0
 40
0.088891
  1

  7
ITALICC
100
AcDbText
  0
TEXT
  5
24BF
100
AcDbEntity
  8
3
 62
     7
100
AcDbText
 10
29.842246
 20
15.252464
 30
0.0
 40
0.088891
  1

  7
ITALICC
100
AcDbText
  0
TEXT
  5
24C0
100
AcDbEntity
  8
3
 62
     7
100
AcDbText
 10
29.908915
 20
15.141351
 30
0.0
 40
0.088891
  1

  7
ITALICC
100
AcDbText
  0
TEXT
  5
25B1
100
AcDbEntity
  8
3
 62
     7
100
AcDbText
 10
13.408763
 20
34.725626
 30
0.0
 40
0.088891
  1

  7
ITALICC
100
AcDbText
  0
TEXT
  5
25B2
100
AcDbEntity
  8
3
 62
     7
100
AcDbText
 10
13.297649
 20
34.947854
 30
0.0
 40
0.088891
  1

  7
ITALICC
100
AcDbText
  0
TEXT
  5
25B3
100
AcDbEntity
  8
3
 62
     7
100
AcDbText
 10
13.364318
 20
34.83674
 30
0.0
 40
0.088891
  1

  7
ITALICC
100
AcDbText
  0
LINE
  5
286E
100
AcDbEntity
  8
0
  6
CONTINUOUS
 62
     7
100
AcDbLine
 10
55.088644
 20
40.275424
 30
0.0
 11
55.088644
 21
38.525424
 31
0.0
  0
LINE
  5
2870
100
AcDbEntity
  8
0
  6
CONTINUOUS
 62
     7
100
AcDbLine
 10
54.276144
 20
44.807924
 30
0.0
 11
54.276144
 21
42.397964
 31
0.0
  0
LINE
  5
2871
100
AcDbEntity
  8
0
  6
CONTINUOUS
 62
     7
100
AcDbLine
 10
54.557394
 20
38.400424
 30
0.0
 11
54.963644
 21
38.400424
 31
0.0
  0
LINE
  5
2872
100
AcDbEntity
  8
0
  6
CONTINUOUS
 62
     7
100
AcDbLine
 10
54.306144
 20
38.337924
 30
0.0
 11
54.276144
 21
38.367924
 31
0.0
  0
LINE
  5
2874
100
AcDbEntity
  8
0
  6
CONTINUOUS
 62
     7
100
AcDbLine
 10
54.557394
 20
38.712924
 30
0.0
 11
54.557394
 21
38.337924
 31
0.0
  0
LINE
  5
2875
100
AcDbEntity
  8
0
  6
CONTINUOUS
 62
     7
100
AcDbLine
 10
54.306144
 20
38.337924
 30
0.0
 11
54.557394
 21
38.337924
 31
0.0
  0
ARC
  5
2876
100
AcDbEntity
  8
0
  6
CONTINUOUS
 62
     7
100
AcDbCircle
 10
54.963644
 20
38.525424
 30
0.0
 40
0.125
100
AcDbArc
 50
270.0
 51
0.0
  0
LINE
  5
2888
100
AcDbEntity
  8
0
  6
CONTINUOUS
 62
     7
100
AcDbLine
 10
55.088644
 20
44.650424
 30
0.0
 11
55.088644
 21
42.900424
 31
0.0
  0
LINE
  5
2893
100
AcDbEntity
  8
0
  6
CONTINUOUS
 62
     7
100
AcDbLine
 10
54.557394
 20
44.775424
 30
0.0
 11
54.963644
 21
44.775424
 31
0.0
  0
LINE
  5
2894
100
AcDbEntity
  8
0
  6
CONTINUOUS
 62
     7
100
AcDbLine
 10
54.306144
 20
44.837924
 30
0.0
 11
54.276144
 21
44.807924
 31
0.0
  0
LINE
  5
2896
100
AcDbEntity
  8
0
  6
CONTINUOUS
 62
     7
100
AcDbLine
 10
54.306144
 20
44.837924
 30
0.0
 11
54.557394
 21
44.837924
 31
0.0
  0
LINE
  5
2898
100
AcDbEntity
  8
0
  6
CONTINUOUS
 62
     7
100
AcDbLine
 10
54.557394
 20
44.837924
 30
0.0
 11
54.557394
 21
44.462924
 31
0.0
  0
ARC
  5
2899
100
AcDbEntity
  8
0
  6
CONTINUOUS
 62
     7
100
AcDbCircle
 10
54.963644
 20
44.650424
 30
0.0
 40
0.125
100
AcDbArc
 50
0.0
 51
90.0
  0
LINE
  5
28CF
100
AcDbEntity
  8
0
  6
CONTINUOUS
 62
     7
100
AcDbLine
 10
51.603644
 20
40.275424
 30
0.0
 11
51.603644
 21
39.367924
 31
0.0
  0
LINE
  5
28D1
100
AcDbEntity
  8
0
  6
CONTINUOUS
 62
     7
100
AcDbLine
 10
52.416144
 20
44.807924
 30
0.0
 11
52.416144
 21
44.433342
 31
0.0
  0
LINE
  5
28D2
100
AcDbEntity
  8
0
  6
CONTINUOUS
 62
     7
100
AcDbLine
 10
52.134894
 20
38.400424
 30
0.0
 11
51.728644
 21
38.400424
 31
0.0
  0
LINE
  5
28D3
100
AcDbEntity
  8
0
  6
CONTINUOUS
 62
     7
100
AcDbLine
 10
52.386144
 20
38.337924
 30
0.0
 11
52.416144
 21
38.367924
 31
0.0
  0
LINE
  5
28D5
100
AcDbEntity
  8
0
  6
CONTINUOUS
 62
     7
100
AcDbLine
 10
52.134894
 20
38.712924
 30
0.0
 11
52.134894
 21
38.337924
 31
0.0
  0
LINE
  5
28D6
100
AcDbEntity
  8
0
  6
CONTINUOUS
 62
     7
100
AcDbLine
 10
52.386144
 20
38.337924
 30
0.0
 11
52.134894
 21
38.337924
 31
0.0
  0
ARC
  5
28D7
100
AcDbEntity
  8
0
  6
CONTINUOUS
 62
     7
100
AcDbCircle
 10
51.728644
 20
38.525424
 30
0.0
 40
0.125
100
AcDbArc
 50
180.0
 51
270.0
  0
LINE
  5
28E9
100
AcDbEntity
  8
0
  6
CONTINUOUS
 62
     7
100
AcDbLine
 10
51.603644
 20
44.650424
 30
0.0
 11
51.603644
 21
44.433342
 31
0.0
  0
LINE
  5
28F4
100
AcDbEntity
  8
0
  6
CONTINUOUS
 62
     7
100
AcDbLine
 10
52.134894
 20
44.775424
 30
0.0
 11
51.728644
 21
44.775424
 31
0.0
  0
LINE
  5
28F5
100
AcDbEntity
  8
0
  6
CONTINUOUS
 62
     7
100
AcDbLine
 10
52.386144
 20
44.837924
 30
0.0
 11
52.416144
 21
44.807924
 31
0.0
  0
LINE
  5
28F7
100
AcDbEntity
  8
0
  6
CONTINUOUS
 62
     7
100
AcDbLine
 10
52.386144
 20
44.837924
 30
0.0
 11
52.134894
 21
44.837924
 31
0.0
  0
LINE
  5
28F9
100
AcDbEntity
  8
0
  6
CONTINUOUS
 62
     7
100
AcDbLine
 10
52.134894
 20
44.837924
 30
0.0
 11
52.134894
 21
44.462924
 31
0.0
  0
ARC
  5
28FA
100
AcDbEntity
  8
0
  6
CONTINUOUS
 62
     7
100
AcDbCircle
 10
51.728644
 20
44.650424
 30
0.0
 40
0.125
100
AcDbArc
 50
90.0
 51
180.0
  0
LINE
  5
2915
100
AcDbEntity
  8
0
  6
CONTINUOUS
 62
     7
100
AcDbLine
 10
54.276144
 20
40.777884
 30
0.0
 11
54.276144
 21
38.367924
 31
0.0
  0
LINE
  5
2917
100
AcDbEntity
  8
0
  6
CONTINUOUS
 62
     7
100
AcDbLine
 10
52.416144
 20
40.777884
 30
0.0
 11
52.416144
 21
39.367924
 31
0.0
  0
ARC
  5
2959
100
AcDbEntity
  8
0
 62
     7
100
AcDbCircle
 10
42.050146
 20
44.168047
 30
0.0
 40
0.125
100
AcDbArc
 50
30.0
 51
210.0
  0
ARC
  5
295A
100
AcDbEntity
  8
0
 62
     7
100
AcDbCircle
 10
45.112646
 20
44.168047
 30
0.0
 40
0.125
100
AcDbArc
 50
330.0
 51
150.0
  0
LINE
  5
295B
100
AcDbEntity
  8
0
 62
     7
100
AcDbLine
 10
44.494771
 20
44.441639
 30
0.0
 11
44.041837
 21
42.751269
 31
0.0
  0
LINE
  5
295C
100
AcDbEntity
  8
0
 62
     7
100
AcDbLine
 10
44.253289
 20
44.506344
 30
0.0
 11
43.800356
 21
42.815974
 31
0.0
  0
LINE
  5
295D
100
AcDbEntity
  8
0
 62
     7
100
AcDbLine
 10
43.706396
 20
44.578344
 30
0.0
 11
43.706396
 21
42.828344
 31
0.0
  0
LINE
  5
295E
100
AcDbEntity
  8
0
 62
     7
100
AcDbLine
 10
43.456396
 20
44.578344
 30
0.0
 11
43.456396
 21
42.828344
 31
0.0
  0
LINE
  5
295F
100
AcDbEntity
  8
0
 62
     7
100
AcDbLine
 10
42.909504
 20
44.506344
 30
0.0
 11
43.362437
 21
42.815974
 31
0.0
  0
LINE
  5
2960
100
AcDbEntity
  8
0
 62
     7
100
AcDbLine
 10
42.668022
 20
44.441639
 30
0.0
 11
43.120956
 21
42.751269
 31
0.0
  0
ARC
  5
2961
100
AcDbEntity
  8
0
 62
     7
100
AcDbCircle
 10
43.581396
 20
41.515844
 30
0.0
 40
3.25
100
AcDbArc
 50
20.422203
 51
326.453467
  0
LINE
  5
2962
100
AcDbEntity
  8
0
  6
CENTER
 62
     7
100
AcDbLine
 10
43.581396
 20
40.765844
 30
0.0
 11
43.581396
 21
42.265844
 31
0.0
  0
ARC
  5
2963
100
AcDbEntity
  8
0
 62
     7
100
AcDbCircle
 10
43.581396
 20
44.578344
 30
0.0
 40
0.125
100
AcDbArc
 50
0.0
 51
180.0
  0
ARC
  5
2964
100
AcDbEntity
  8
0
 62
     7
100
AcDbCircle
 10
43.581396
 20
41.515844
 30
0.0
 40
2.875
100
AcDbArc
 50
77.491906
 51
87.508094
  0
ARC
  5
2965
100
AcDbEntity
  8
0
 62
     7
100
AcDbCircle
 10
44.37403
 20
44.473992
 30
0.0
 40
0.125
100
AcDbArc
 50
345.0
 51
165.0
  0
ARC
  5
2966
100
AcDbEntity
  8
0
 62
     7
100
AcDbCircle
 10
43.581396
 20
41.515844
 30
0.0
 40
2.875
100
AcDbArc
 50
92.491906
 51
102.508094
  0
ARC
  5
2967
100
AcDbEntity
  8
0
 62
     7
100
AcDbCircle
 10
42.788763
 20
44.473992
 30
0.0
 40
0.125
100
AcDbArc
 50
15.0
 51
195.0
  0
CIRCLE
  5
2968
100
AcDbEntity
  8
0
 62
     7
100
AcDbCircle
 10
43.581396
 20
42.483364
 30
0.0
 40
0.14764
  0
CIRCLE
  5
2969
100
AcDbEntity
  8
0
 62
     7
100
AcDbCircle
 10
43.581396
 20
40.548324
 30
0.0
 40
0.14764
  0
ARC
  5
296C
100
AcDbEntity
  8
0
 62
     7
100
AcDbCircle
 10
43.581396
 20
38.453344
 30
0.0
 40
0.125
100
AcDbArc
 50
180.0
 51
0.0
  0
ARC
  5
296D
100
AcDbEntity
  8
0
 62
     7
100
AcDbCircle
 10
43.581396
 20
40.203344
 30
0.0
 40
0.125
100
AcDbArc
 50
0.0
 51
180.0
  0
ARC
  5
296E
100
AcDbEntity
  8
0
 62
     7
100
AcDbCircle
 10
43.581396
 20
42.828344
 30
0.0
 40
0.125
100
AcDbArc
 50
180.0
 51
0.0
  0
ARC
  5
296F
100
AcDbEntity
  8
0
 62
     7
100
AcDbCircle
 10
43.581396
 20
41.515844
 30
0.0
 40
0.81004
100
AcDbArc
 50
200.303818
 51
159.696182
  0
LINE
  5
2970
100
AcDbEntity
  8
0
  6
CENTER
 62
     7
100
AcDbLine
 10
44.331396
 20
41.515844
 30
0.0
 11
42.831396
 21
41.515844
 31
0.0
  0
ARC
  5
2972
100
AcDbEntity
  8
0
 62
     7
100
AcDbCircle
 10
43.581396
 20
41.515844
 30
0.0
 40
1.3125
100
AcDbArc
 50
320.458805
 51
324.541195
  0
ARC
  5
2973
100
AcDbEntity
  8
0
 62
     7
100
AcDbCircle
 10
44.509474
 20
40.587766
 30
0.0
 40
0.125
100
AcDbArc
 50
45.0
 51
225.0
  0
LINE
  5
2975
100
AcDbEntity
  8
0
 62
     7
100
AcDbLine
 10
46.171099
 20
39.876341
 30
0.0
 11
44.655555
 21
40.751341
 31
0.0
  0
LINE
  5
2976
100
AcDbEntity
  8
0
 62
     7
100
AcDbLine
 10
44.989813
 20
40.847032
 30
0.0
 11
44.780555
 21
40.967847
 31
0.0
  0
LINE
  5
2977
100
AcDbEntity
  8
0
 62
     7
100
AcDbLine
 10
44.974381
 20
41.013185
 30
0.0
 11
44.816822
 21
41.055403
 31
0.0
  0
ARC
  5
2978
100
AcDbEntity
  8
0
 62
     7
100
AcDbCircle
 10
45.746911
 20
43.681358
 30
0.0
 40
0.125
100
AcDbArc
 50
315.0
 51
135.0
  0
ARC
  5
2979
100
AcDbEntity
  8
0
 62
     7
100
AcDbCircle
 10
43.581396
 20
41.515844
 30
0.0
 40
2.875
100
AcDbArc
 50
32.491906
 51
42.508094
  0
LINE
  5
297A
100
AcDbEntity
  8
0
 62
     7
100
AcDbLine
 10
45.054336
 20
41.250581
 30
0.0
 11
44.881527
 21
41.296885
 31
0.0
  0
LINE
  5
297B
100
AcDbEntity
  8
0
 62
     7
100
AcDbLine
 10
45.002594
 20
41.390844
 30
0.0
 11
44.893896
 21
41.390844
 31
0.0
  0
LINE
  5
297C
100
AcDbEntity
  8
0
 62
     7
100
AcDbLine
 10
44.9595
 20
41.640844
 30
0.0
 11
44.893896
 21
41.640844
 31
0.0
  0
LINE
  5
297D
100
AcDbEntity
  8
0
 62
     7
100
AcDbLine
 10
45.003552
 20
41.7675
 30
0.0
 11
44.881527
 21
41.734803
 31
0.0
  0
LINE
  5
297E
100
AcDbEntity
  8
0
 62
     7
100
AcDbLine
 10
45.434585
 20
42.141814
 30
0.0
 11
44.816822
 21
41.976285
 31
0.0
  0
LINE
  5
297F
100
AcDbEntity
  8
0
 62
     7
100
AcDbLine
 10
46.296099
 20
42.938841
 30
0.0
 11
44.780555
 21
42.063841
 31
0.0
  0
LINE
  5
2980
100
AcDbEntity
  8
0
 62
     7
100
AcDbLine
 10
46.171099
 20
43.155347
 30
0.0
 11
44.655555
 21
42.280347
 31
0.0
  0
ARC
  5
2981
100
AcDbEntity
  8
0
 62
     7
100
AcDbCircle
 10
43.581396
 20
41.515844
 30
0.0
 40
2.875
100
AcDbArc
 50
21.003519
 51
27.508094
  0
ARC
  5
2982
100
AcDbEntity
  8
0
 62
     7
100
AcDbCircle
 10
46.233599
 20
43.047094
 30
0.0
 40
0.125
100
AcDbArc
 50
300.0
 51
120.0
  0
ARC
  5
2987
100
AcDbEntity
  8
0
 62
     7
100
AcDbCircle
 10
44.237646
 20
42.652502
 30
0.0
 40
0.125
100
AcDbArc
 50
150.0
 51
330.0
  0
LINE
  5
2988
100
AcDbEntity
  8
0
 62
     7
100
AcDbLine
 10
45.835299
 20
43.59297
 30
0.0
 11
44.597862
 21
42.355533
 31
0.0
  0
ARC
  5
2989
100
AcDbEntity
  8
0
 62
     7
100
AcDbCircle
 10
44.509474
 20
42.443922
 30
0.0
 40
0.125
100
AcDbArc
 50
135.0
 51
315.0
  0
LINE
  5
298A
100
AcDbEntity
  8
0
 62
     7
100
AcDbLine
 10
45.658523
 20
43.769747
 30
0.0
 11
44.421086
 21
42.53231
 31
0.0
  0
LINE
  5
298B
100
AcDbEntity
  8
0
 62
     7
100
AcDbLine
 10
45.2209
 20
44.105547
 30
0.0
 11
44.3459
 21
42.590002
 31
0.0
  0
LINE
  5
298C
100
AcDbEntity
  8
0
 62
     7
100
AcDbLine
 10
45.004393
 20
44.230547
 30
0.0
 11
44.129393
 21
42.715002
 31
0.0
  0
ARC
  5
298D
100
AcDbEntity
  8
0
 62
     7
100
AcDbCircle
 10
43.581396
 20
41.515844
 30
0.0
 40
2.875
100
AcDbArc
 50
62.491906
 51
72.508094
  0
ARC
  5
298E
100
AcDbEntity
  8
0
 62
     7
100
AcDbCircle
 10
43.581396
 20
41.515844
 30
0.0
 40
2.875
100
AcDbArc
 50
47.491906
 51
57.508094
  0
ARC
  5
298F
100
AcDbEntity
  8
0
 62
     7
100
AcDbCircle
 10
43.581396
 20
41.515844
 30
0.0
 40
1.3125
100
AcDbArc
 50
50.458805
 51
54.541195
  0
ARC
  5
2990
100
AcDbEntity
  8
0
 62
     7
100
AcDbCircle
 10
43.921096
 20
42.783622
 30
0.0
 40
0.125
100
AcDbArc
 50
165.0
 51
345.0
  0
ARC
  5
2991
100
AcDbEntity
  8
0
 62
     7
100
AcDbCircle
 10
43.581396
 20
41.515844
 30
0.0
 40
1.3125
100
AcDbArc
 50
80.458805
 51
84.541195
  0
ARC
  5
2992
100
AcDbEntity
  8
0
 62
     7
100
AcDbCircle
 10
43.581396
 20
41.515844
 30
0.0
 40
1.3125
100
AcDbArc
 50
65.458805
 51
69.541195
  0
ARC
  5
2993
100
AcDbEntity
  8
0
 62
     7
100
AcDbCircle
 10
44.718055
 20
40.859594
 30
0.0
 40
0.125
100
AcDbArc
 50
60.0
 51
240.0
  0
ARC
  5
2994
100
AcDbEntity
  8
0
 62
     7
100
AcDbCircle
 10
44.849174
 20
41.176144
 30
0.0
 40
0.125
100
AcDbArc
 50
75.0
 51
255.0
  0
ARC
  5
2995
100
AcDbEntity
  8
0
 62
     7
100
AcDbCircle
 10
44.718055
 20
42.172094
 30
0.0
 40
0.125
100
AcDbArc
 50
120.0
 51
300.0
  0
ARC
  5
2996
100
AcDbEntity
  8
0
 62
     7
100
AcDbCircle
 10
44.849174
 20
41.855544
 30
0.0
 40
0.125
100
AcDbArc
 50
105.0
 51
285.0
  0
ARC
  5
2997
100
AcDbEntity
  8
0
 62
     7
100
AcDbCircle
 10
44.893896
 20
41.515844
 30
0.0
 40
0.125
100
AcDbArc
 50
90.0
 51
270.0
  0
ARC
  5
2998
100
AcDbEntity
  8
0
 62
     7
100
AcDbCircle
 10
43.581396
 20
41.515844
 30
0.0
 40
1.3125
100
AcDbArc
 50
5.458805
 51
9.541195
  0
ARC
  5
2999
100
AcDbEntity
  8
0
 62
     7
100
AcDbCircle
 10
43.581396
 20
41.515844
 30
0.0
 40
1.3125
100
AcDbArc
 50
20.458805
 51
24.541195
  0
ARC
  5
299A
100
AcDbEntity
  8
0
 62
     7
100
AcDbCircle
 10
43.581396
 20
41.515844
 30
0.0
 40
1.3125
100
AcDbArc
 50
335.458805
 51
339.541195
  0
ARC
  5
299B
100
AcDbEntity
  8
0
 62
     7
100
AcDbCircle
 10
43.581396
 20
41.515844
 30
0.0
 40
1.3125
100
AcDbArc
 50
350.458805
 51
354.541195
  0
CIRCLE
  5
299C
100
AcDbEntity
  8
0
 62
     7
100
AcDbCircle
 10
44.419293
 20
41.999604
 30
0.0
 40
0.14764
  0
ARC
  5
299E
100
AcDbEntity
  8
0
 62
     7
100
AcDbCircle
 10
43.581396
 20
41.515844
 30
0.0
 40
1.3125
100
AcDbArc
 50
35.458805
 51
39.541195
  0
CIRCLE
  5
299F
100
AcDbEntity
  8
0
 62
     7
100
AcDbCircle
 10
44.419293
 20
41.032084
 30
0.0
 40
0.14764
  0
ARC
  5
29A1
100
AcDbEntity
  8
0
 62
     7
100
AcDbCircle
 10
45.746911
 20
39.350329
 30
0.0
 40
0.125
100
AcDbArc
 50
225.0
 51
45.0
  0
ARC
  5
29A2
100
AcDbEntity
  8
0
 62
     7
100
AcDbCircle
 10
43.581396
 20
41.515844
 30
0.0
 40
2.875
100
AcDbArc
 50
317.491906
 51
327.508094
  0
ARC
  5
29A4
100
AcDbEntity
  8
0
 62
     7
100
AcDbCircle
 10
46.233599
 20
39.984594
 30
0.0
 40
0.125
100
AcDbArc
 50
240.0
 51
251.67102
  0
ARC
  5
29A5
100
AcDbEntity
  8
0
 62
     7
100
AcDbCircle
 10
45.112646
 20
38.863641
 30
0.0
 40
0.125
100
AcDbArc
 50
210.0
 51
30.0
  0
ARC
  5
29A6
100
AcDbEntity
  8
0
 62
     7
100
AcDbCircle
 10
43.581396
 20
41.515844
 30
0.0
 40
2.875
100
AcDbArc
 50
287.491906
 51
297.508094
  0
LINE
  5
29A7
100
AcDbEntity
  8
0
 62
     7
100
AcDbLine
 10
43.706396
 20
38.453344
 30
0.0
 11
43.706396
 21
40.203344
 31
0.0
  0
LINE
  5
29A8
100
AcDbEntity
  8
0
 62
     7
100
AcDbLine
 10
44.253289
 20
38.525344
 30
0.0
 11
43.800356
 21
40.215714
 31
0.0
  0
LINE
  5
29A9
100
AcDbEntity
  8
0
 62
     7
100
AcDbLine
 10
44.494771
 20
38.590048
 30
0.0
 11
44.041837
 21
40.280419
 31
0.0
  0
LINE
  5
29AA
100
AcDbEntity
  8
0
 62
     7
100
AcDbLine
 10
45.004393
 20
38.801141
 30
0.0
 11
44.129393
 21
40.316686
 31
0.0
  0
LINE
  5
29AB
100
AcDbEntity
  8
0
 62
     7
100
AcDbLine
 10
45.2209
 20
38.926141
 30
0.0
 11
44.3459
 21
40.441686
 31
0.0
  0
LINE
  5
29AC
100
AcDbEntity
  8
0
 62
     7
100
AcDbLine
 10
45.658523
 20
39.261941
 30
0.0
 11
44.421086
 21
40.499378
 31
0.0
  0
LINE
  5
29AD
100
AcDbEntity
  8
0
 62
     7
100
AcDbLine
 10
45.835299
 20
39.438718
 30
0.0
 11
44.597862
 21
40.676155
 31
0.0
  0
ARC
  5
29AE
100
AcDbEntity
  8
0
 62
     7
100
AcDbCircle
 10
43.581396
 20
41.515844
 30
0.0
 40
2.875
100
AcDbArc
 50
302.491906
 51
312.508094
  0
ARC
  5
29AF
100
AcDbEntity
  8
0
 62
     7
100
AcDbCircle
 10
44.237646
 20
40.379186
 30
0.0
 40
0.125
100
AcDbArc
 50
30.0
 51
210.0
  0
ARC
  5
29B0
100
AcDbEntity
  8
0
 62
     7
100
AcDbCircle
 10
43.581396
 20
41.515844
 30
0.0
 40
1.3125
100
AcDbArc
 50
305.458805
 51
309.541195
  0
ARC
  5
29B1
100
AcDbEntity
  8
0
 62
     7
100
AcDbCircle
 10
43.581396
 20
41.515844
 30
0.0
 40
1.3125
100
AcDbArc
 50
275.458805
 51
279.541195
  0
ARC
  5
29B2
100
AcDbEntity
  8
0
 62
     7
100
AcDbCircle
 10
43.921096
 20
40.248066
 30
0.0
 40
0.125
100
AcDbArc
 50
15.0
 51
195.0
  0
ARC
  5
29B3
100
AcDbEntity
  8
0
 62
     7
100
AcDbCircle
 10
43.581396
 20
41.515844
 30
0.0
 40
1.3125
100
AcDbArc
 50
290.458805
 51
294.541195
  0
ARC
  5
29B4
100
AcDbEntity
  8
0
 62
     7
100
AcDbCircle
 10
43.581396
 20
41.515844
 30
0.0
 40
2.875
100
AcDbArc
 50
272.491906
 51
282.508094
  0
ARC
  5
29B5
100
AcDbEntity
  8
0
 62
     7
100
AcDbCircle
 10
44.37403
 20
38.557696
 30
0.0
 40
0.125
100
AcDbArc
 50
195.0
 51
15.0
  0
ARC
  5
29B6
100
AcDbEntity
  8
0
 62
     7
100
AcDbCircle
 10
40.623249
 20
40.723211
 30
0.0
 40
0.125
100
AcDbArc
 50
105.0
 51
285.0
  0
ARC
  5
29B7
100
AcDbEntity
  8
0
 62
     7
100
AcDbCircle
 10
42.653319
 20
40.587766
 30
0.0
 40
0.125
100
AcDbArc
 50
315.0
 51
135.0
  0
ARC
  5
29B8
100
AcDbEntity
  8
0
 62
     7
100
AcDbCircle
 10
43.581396
 20
41.515844
 30
0.0
 40
1.3125
100
AcDbArc
 50
215.458805
 51
219.541195
  0
LINE
  5
29B9
100
AcDbEntity
  8
0
 62
     7
100
AcDbLine
 10
40.655601
 20
40.60247
 30
0.0
 11
42.345971
 21
41.055403
 31
0.0
  0
LINE
  5
29BA
100
AcDbEntity
  8
0
 62
     7
100
AcDbLine
 10
40.866694
 20
40.092847
 30
0.0
 11
42.382238
 21
40.967847
 31
0.0
  0
LINE
  5
29BB
100
AcDbEntity
  8
0
 62
     7
100
AcDbLine
 10
40.991694
 20
39.876341
 30
0.0
 11
42.507238
 21
40.751341
 31
0.0
  0
LINE
  5
29BC
100
AcDbEntity
  8
0
 62
     7
100
AcDbLine
 10
40.518896
 20
41.640844
 30
0.0
 11
42.268896
 21
41.640844
 31
0.0
  0
LINE
  5
29BD
100
AcDbEntity
  8
0
 62
     7
100
AcDbLine
 10
40.518896
 20
41.390844
 30
0.0
 11
42.268896
 21
41.390844
 31
0.0
  0
LINE
  5
29BE
100
AcDbEntity
  8
0
 62
     7
100
AcDbLine
 10
40.590896
 20
40.843951
 30
0.0
 11
42.281266
 21
41.296885
 31
0.0
  0
LINE
  5
29BF
100
AcDbEntity
  8
0
 62
     7
100
AcDbLine
 10
40.991694
 20
43.155347
 30
0.0
 11
42.507238
 21
42.280347
 31
0.0
  0
LINE
  5
29C0
100
AcDbEntity
  8
0
 62
     7
100
AcDbLine
 10
40.866694
 20
42.938841
 30
0.0
 11
42.382238
 21
42.063841
 31
0.0
  0
LINE
  5
29C1
100
AcDbEntity
  8
0
 62
     7
100
AcDbLine
 10
40.655601
 20
42.429218
 30
0.0
 11
42.345971
 21
41.976285
 31
0.0
  0
ARC
  5
29C2
100
AcDbEntity
  8
0
 62
     7
100
AcDbCircle
 10
43.581396
 20
41.515844
 30
0.0
 40
2.875
100
AcDbArc
 50
137.491906
 51
147.508094
  0
LINE
  5
29C3
100
AcDbEntity
  8
0
 62
     7
100
AcDbLine
 10
40.590896
 20
42.187737
 30
0.0
 11
42.281266
 21
41.734803
 31
0.0
  0
ARC
  5
29C4
100
AcDbEntity
  8
0
 62
     7
100
AcDbCircle
 10
42.653319
 20
42.443922
 30
0.0
 40
0.125
100
AcDbArc
 50
225.0
 51
45.0
  0
LINE
  5
29C5
100
AcDbEntity
  8
0
 62
     7
100
AcDbLine
 10
41.327494
 20
43.59297
 30
0.0
 11
42.56493
 21
42.355533
 31
0.0
  0
ARC
  5
29C6
100
AcDbEntity
  8
0
 62
     7
100
AcDbCircle
 10
42.925146
 20
42.652502
 30
0.0
 40
0.125
100
AcDbArc
 50
210.0
 51
30.0
  0
ARC
  5
29C7
100
AcDbEntity
  8
0
 62
     7
100
AcDbCircle
 10
43.581396
 20
41.515844
 30
0.0
 40
2.875
100
AcDbArc
 50
107.491906
 51
117.508094
  0
LINE
  5
29C8
100
AcDbEntity
  8
0
 62
     7
100
AcDbLine
 10
41.941893
 20
44.105547
 30
0.0
 11
42.816893
 21
42.590002
 31
0.0
  0
LINE
  5
29C9
100
AcDbEntity
  8
0
 62
     7
100
AcDbLine
 10
41.50427
 20
43.769747
 30
0.0
 11
42.741707
 21
42.53231
 31
0.0
  0
LINE
  5
29CA
100
AcDbEntity
  8
0
 62
     7
100
AcDbLine
 10
42.1584
 20
44.230547
 30
0.0
 11
43.0334
 21
42.715002
 31
0.0
  0
ARC
  5
29CB
100
AcDbEntity
  8
0
 62
     7
100
AcDbCircle
 10
43.581396
 20
41.515844
 30
0.0
 40
1.3125
100
AcDbArc
 50
110.458805
 51
114.541195
  0
ARC
  5
29CC
100
AcDbEntity
  8
0
 62
     7
100
AcDbCircle
 10
43.581396
 20
41.515844
 30
0.0
 40
1.3125
100
AcDbArc
 50
95.458805
 51
99.541195
  0
ARC
  5
29CD
100
AcDbEntity
  8
0
 62
     7
100
AcDbCircle
 10
43.241696
 20
42.783622
 30
0.0
 40
0.125
100
AcDbArc
 50
195.0
 51
15.0
  0
ARC
  5
29CE
100
AcDbEntity
  8
0
 62
     7
100
AcDbCircle
 10
43.581396
 20
41.515844
 30
0.0
 40
1.3125
100
AcDbArc
 50
125.458805
 51
129.541195
  0
ARC
  5
29CF
100
AcDbEntity
  8
0
 62
     7
100
AcDbCircle
 10
43.581396
 20
41.515844
 30
0.0
 40
2.875
100
AcDbArc
 50
122.491906
 51
132.508094
  0
ARC
  5
29D0
100
AcDbEntity
  8
0
 62
     7
100
AcDbCircle
 10
41.415882
 20
43.681358
 30
0.0
 40
0.125
100
AcDbArc
 50
45.0
 51
225.0
  0
ARC
  5
29D1
100
AcDbEntity
  8
0
 62
     7
100
AcDbCircle
 10
43.581396
 20
41.515844
 30
0.0
 40
1.3125
100
AcDbArc
 50
200.458805
 51
204.541195
  0
ARC
  5
29D2
100
AcDbEntity
  8
0
 62
     7
100
AcDbCircle
 10
42.268896
 20
41.515844
 30
0.0
 40
0.125
100
AcDbArc
 50
270.0
 51
90.0
  0
ARC
  5
29D3
100
AcDbEntity
  8
0
 62
     7
100
AcDbCircle
 10
42.313619
 20
41.176144
 30
0.0
 40
0.125
100
AcDbArc
 50
285.0
 51
105.0
  0
ARC
  5
29D4
100
AcDbEntity
  8
0
 62
     7
100
AcDbCircle
 10
43.581396
 20
41.515844
 30
0.0
 40
1.3125
100
AcDbArc
 50
155.458805
 51
159.541195
  0
ARC
  5
29D5
100
AcDbEntity
  8
0
 62
     7
100
AcDbCircle
 10
42.313619
 20
41.855544
 30
0.0
 40
0.125
100
AcDbArc
 50
255.0
 51
75.0
  0
ARC
  5
29D6
100
AcDbEntity
  8
0
 62
     7
100
AcDbCircle
 10
42.831396
 20
41.515844
 30
0.0
 40
0.28125
100
AcDbArc
 50
91.978259
 51
268.021741
  0
CIRCLE
  5
29D7
100
AcDbEntity
  8
0
 62
     7
100
AcDbCircle
 10
42.7435
 20
41.999604
 30
0.0
 40
0.14764
  0
ARC
  5
29D9
100
AcDbEntity
  8
0
 62
     7
100
AcDbCircle
 10
43.581396
 20
41.515844
 30
0.0
 40
1.3125
100
AcDbArc
 50
140.458805
 51
144.541195
  0
ARC
  5
29DA
100
AcDbEntity
  8
0
 62
     7
100
AcDbCircle
 10
42.444738
 20
42.172094
 30
0.0
 40
0.125
100
AcDbArc
 50
240.0
 51
60.0
  0
CIRCLE
  5
29DB
100
AcDbEntity
  8
0
 62
     7
100
AcDbCircle
 10
42.7435
 20
41.032084
 30
0.0
 40
0.14764
  0
ARC
  5
29DD
100
AcDbEntity
  8
0
 62
     7
100
AcDbCircle
 10
42.444738
 20
40.859594
 30
0.0
 40
0.125
100
AcDbArc
 50
300.0
 51
120.0
  0
ARC
  5
29DE
100
AcDbEntity
  8
0
 62
     7
100
AcDbCircle
 10
43.581396
 20
41.515844
 30
0.0
 40
1.3125
100
AcDbArc
 50
170.458805
 51
174.541195
  0
ARC
  5
29DF
100
AcDbEntity
  8
0
 62
     7
100
AcDbCircle
 10
43.581396
 20
41.515844
 30
0.0
 40
1.3125
100
AcDbArc
 50
185.458805
 51
189.541195
  0
ARC
  5
29E0
100
AcDbEntity
  8
0
 62
     7
100
AcDbCircle
 10
43.581396
 20
41.515844
 30
0.0
 40
2.875
100
AcDbArc
 50
152.491906
 51
162.508094
  0
ARC
  5
29E1
100
AcDbEntity
  8
0
 62
     7
100
AcDbCircle
 10
40.929194
 20
43.047094
 30
0.0
 40
0.125
100
AcDbArc
 50
60.0
 51
240.0
  0
ARC
  5
29E2
100
AcDbEntity
  8
0
 62
     7
100
AcDbCircle
 10
40.518896
 20
41.515844
 30
0.0
 40
0.125
100
AcDbArc
 50
90.0
 51
270.0
  0
ARC
  5
29E3
100
AcDbEntity
  8
0
 62
     7
100
AcDbCircle
 10
40.623249
 20
42.308477
 30
0.0
 40
0.125
100
AcDbArc
 50
75.0
 51
255.0
  0
ARC
  5
29E4
100
AcDbEntity
  8
0
 62
     7
100
AcDbCircle
 10
43.581396
 20
41.515844
 30
0.0
 40
2.875
100
AcDbArc
 50
167.491906
 51
177.508094
  0
ARC
  5
29E5
100
AcDbEntity
  8
0
 62
     7
100
AcDbCircle
 10
43.581396
 20
41.515844
 30
0.0
 40
2.875
100
AcDbArc
 50
182.491906
 51
192.508094
  0
ARC
  5
29E6
100
AcDbEntity
  8
0
 62
     7
100
AcDbCircle
 10
43.581396
 20
41.515844
 30
0.0
 40
2.875
100
AcDbArc
 50
212.491906
 51
222.508094
  0
ARC
  5
29E7
100
AcDbEntity
  8
0
 62
     7
100
AcDbCircle
 10
43.581396
 20
41.515844
 30
0.0
 40
2.875
100
AcDbArc
 50
242.491906
 51
252.508094
  0
ARC
  5
29E8
100
AcDbEntity
  8
0
 62
     7
100
AcDbCircle
 10
42.050146
 20
38.863641
 30
0.0
 40
0.125
100
AcDbArc
 50
150.0
 51
330.0
  0
LINE
  5
29E9
100
AcDbEntity
  8
0
 62
     7
100
AcDbLine
 10
43.456396
 20
38.453344
 30
0.0
 11
43.456396
 21
40.203344
 31
0.0
  0
LINE
  5
29EA
100
AcDbEntity
  8
0
 62
     7
100
AcDbLine
 10
42.1584
 20
38.801141
 30
0.0
 11
43.0334
 21
40.316686
 31
0.0
  0
LINE
  5
29EB
100
AcDbEntity
  8
0
 62
     7
100
AcDbLine
 10
42.668022
 20
38.590048
 30
0.0
 11
43.120956
 21
40.280419
 31
0.0
  0
LINE
  5
29EC
100
AcDbEntity
  8
0
 62
     7
100
AcDbLine
 10
42.909504
 20
38.525344
 30
0.0
 11
43.362437
 21
40.215714
 31
0.0
  0
LINE
  5
29ED
100
AcDbEntity
  8
0
 62
     7
100
AcDbLine
 10
41.327494
 20
39.438718
 30
0.0
 11
42.56493
 21
40.676155
 31
0.0
  0
LINE
  5
29EE
100
AcDbEntity
  8
0
 62
     7
100
AcDbLine
 10
41.50427
 20
39.261941
 30
0.0
 11
42.741707
 21
40.499378
 31
0.0
  0
LINE
  5
29EF
100
AcDbEntity
  8
0
 62
     7
100
AcDbLine
 10
41.941893
 20
38.926141
 30
0.0
 11
42.816893
 21
40.441686
 31
0.0
  0
ARC
  5
29F0
100
AcDbEntity
  8
0
 62
     7
100
AcDbCircle
 10
42.925146
 20
40.379186
 30
0.0
 40
0.125
100
AcDbArc
 50
330.0
 51
150.0
  0
ARC
  5
29F1
100
AcDbEntity
  8
0
 62
     7
100
AcDbCircle
 10
43.581396
 20
41.515844
 30
0.0
 40
1.3125
100
AcDbArc
 50
245.458805
 51
249.541195
  0
ARC
  5
29F2
100
AcDbEntity
  8
0
 62
     7
100
AcDbCircle
 10
43.581396
 20
41.515844
 30
0.0
 40
1.3125
100
AcDbArc
 50
260.458805
 51
264.541195
  0
ARC
  5
29F3
100
AcDbEntity
  8
0
 62
     7
100
AcDbCircle
 10
43.241696
 20
40.248066
 30
0.0
 40
0.125
100
AcDbArc
 50
345.0
 51
165.0
  0
ARC
  5
29F4
100
AcDbEntity
  8
0
 62
     7
100
AcDbCircle
 10
43.581396
 20
41.515844
 30
0.0
 40
1.3125
100
AcDbArc
 50
230.458805
 51
234.541195
  0
ARC
  5
29F5
100
AcDbEntity
  8
0
 62
     7
100
AcDbCircle
 10
43.581396
 20
41.515844
 30
0.0
 40
2.875
100
AcDbArc
 50
227.491906
 51
237.508094
  0
ARC
  5
29F6
100
AcDbEntity
  8
0
 62
     7
100
AcDbCircle
 10
41.415882
 20
39.350329
 30
0.0
 40
0.125
100
AcDbArc
 50
135.0
 51
315.0
  0
ARC
  5
29F7
100
AcDbEntity
  8
0
 62
     7
100
AcDbCircle
 10
43.581396
 20
41.515844
 30
0.0
 40
2.875
100
AcDbArc
 50
257.491906
 51
267.508094
  0
ARC
  5
29F8
100
AcDbEntity
  8
0
 62
     7
100
AcDbCircle
 10
42.788763
 20
38.557696
 30
0.0
 40
0.125
100
AcDbArc
 50
165.0
 51
345.0
  0
ARC
  5
29F9
100
AcDbEntity
  8
0
 62
     7
100
AcDbCircle
 10
43.581396
 20
41.515844
 30
0.0
 40
2.875
100
AcDbArc
 50
197.491906
 51
207.508094
  0
ARC
  5
29FA
100
AcDbEntity
  8
0
 62
     7
100
AcDbCircle
 10
40.929194
 20
39.984594
 30
0.0
 40
0.125
100
AcDbArc
 50
120.0
 51
300.0
  0
ARC
  5
2A01
100
AcDbEntity
  8
OBJECT
 62
     7
100
AcDbCircle
 10
43.581396
 20
41.515844
 30
0.0
 40
3.625
100
AcDbArc
 50
248.493197
 51
269.03565
  0
ARC
  5
2A0D
100
AcDbEntity
  8
OBJECT
 62
     7
100
AcDbCircle
 10
43.581396
 20
41.515844
 30
0.0
 40
3.625
100
AcDbArc
 50
91.198717
 51
111.506803
  0
ARC
  5
2A11
100
AcDbEntity
  8
OBJECT
 62
     7
100
AcDbCircle
 10
43.581396
 20
41.515844
 30
0.0
 40
3.625
100
AcDbArc
 50
148.629871
 51
171.506803
  0
LINE
  5
2A12
100
AcDbEntity
  8
OBJECT
 62
     7
100
AcDbLine
 10
40.486291
 20
43.40289
 30
0.0
 11
40.316674
 21
43.996083
 31
0.0
  0
ARC
  5
2A13
100
AcDbEntity
  8
OBJECT
 62
     7
100
AcDbCircle
 10
43.581396
 20
41.515844
 30
0.0
 40
4.1
100
AcDbArc
 50
130.511076
 51
135.151982
  0
ARC
  5
2A14
100
AcDbEntity
  8
CENTER
 62
     7
100
AcDbCircle
 10
43.581396
 20
41.515844
 30
0.0
 40
3.714
100
AcDbArc
 50
311.666848
 51
333.637974
  0
LINE
  5
2A16
100
AcDbEntity
  8
CENTER
 62
     7
100
AcDbLine
 10
41.117889
 20
43.813102
 30
0.0
 11
40.612409
 21
44.28447
 31
0.0
  0
LINE
  5
2A17
100
AcDbEntity
  8
OBJECT
 62
     7
100
AcDbLine
 10
41.397613
 20
44.495096
 30
0.0
 11
40.918057
 21
44.632994
 31
0.0
  0
LINE
  5
2A44
100
AcDbEntity
  8
OBJECT
 62
     7
100
AcDbLine
 10
40.285945
 20
39.076582
 30
0.0
 11
40.486694
 21
39.628136
 31
0.0
  0
ARC
  5
2A45
100
AcDbEntity
  8
OBJECT
 62
     7
100
AcDbCircle
 10
43.581396
 20
41.515844
 30
0.0
 40
4.1
100
AcDbArc
 50
216.508488
 51
221.151982
  0
LINE
  5
2A46
100
AcDbEntity
  8
CENTER
 62
     7
100
AcDbLine
 10
41.117867
 20
39.218566
 30
0.0
 11
40.612387
 21
38.747198
 31
0.0
  0
ARC
  5
2A47
100
AcDbEntity
  8
CENTER
 62
     7
100
AcDbCircle
 10
43.563934
 20
41.534442
 30
0.0
 40
3.714
100
AcDbArc
 50
218.060424
 51
228.726686
  0
LINE
  5
2A49
100
AcDbEntity
  8
OBJECT
 62
     7
100
AcDbLine
 10
41.398246
 20
38.536226
 30
0.0
 11
40.918198
 21
38.398574
 31
0.0
  0
ARC
  5
2A4F
100
AcDbEntity
  8
OBJECT
 62
     7
100
AcDbCircle
 10
43.506235
 20
45.064893
 30
0.0
 40
0.075161
100
AcDbArc
 50
2.783164
 51
90.51387
  0
LINE
  5
2A6B
100
AcDbEntity
  8
OBJECT
 62
     7
100
AcDbLine
 10
43.331396
 20
45.068542
 30
0.0
 11
43.581533
 21
45.068542
 31
0.0
  0
ARC
  5
2A6F
100
AcDbEntity
  8
OBJECT
 62
     7
100
AcDbCircle
 10
43.331396
 20
44.818405
 30
0.0
 40
0.250137
100
AcDbArc
 50
90.0
 51
200.789035
  0
LINE
  5
2A75
100
AcDbEntity
  8
OBJECT
 62
     7
100
AcDbLine
 10
43.581396
 20
37.968282
 30
0.0
 11
43.581396
 21
37.951349
 31
0.0
  0
POINT
  5
2A89
100
AcDbEntity
  8
DEFPOINTS
  6
BYBLOCK
 62
     7
100
AcDbPoint
 10
43.581396
 20
41.515844
 30
0.0
  0
POINT
  5
2A8A
100
AcDbEntity
  8
DEFPOINTS
  6
BYBLOCK
 62
     7
100
AcDbPoint
 10
43.581396
 20
41.515844
 30
0.0
  0
POINT
  5
2A8B
100
AcDbEntity
  8
DEFPOINTS
  6
BYBLOCK
 62
     7
100
AcDbPoint
 10
43.581396
 20
41.515844
 30
0.0
  0
ARC
  5
2A8F
100
AcDbEntity
  8
OBJECT
 62
     7
100
AcDbCircle
 10
43.521396
 20
37.951349
 30
0.0
 40
0.06
100
AcDbArc
 50
269.03565
 51
0.0
  0
LINE
  5
2AAC
100
AcDbEntity
  8
OBJECT
 62
     7
100
AcDbLine
 10
43.331396
 20
37.963146
 30
0.0
 11
43.581533
 21
37.963146
 31
0.0
  0
ARC
  5
2AB1
100
AcDbEntity
  8
OBJECT
 62
     7
100
AcDbCircle
 10
43.331396
 20
38.213282
 30
0.0
 40
0.250137
100
AcDbArc
 50
159.210965
 51
270.0
  0
LINE
  5
2C6D
100
AcDbEntity
  8
OBJECT
 62
     7
100
AcDbLine
 10
50.946144
 20
44.433342
 30
0.0
 11
50.946144
 21
43.813342
 31
0.0
  0
LINE
  5
2C6E
100
AcDbEntity
  8
OBJECT
 62
     7
100
AcDbLine
 10
50.946144
 20
43.813342
 30
0.0
 11
53.096144
 21
43.813342
 31
0.0
  0
LINE
  5
2C6F
100
AcDbEntity
  8
OBJECT
 62
     7
100
AcDbLine
 10
50.946144
 20
44.433342
 30
0.0
 11
53.096144
 21
44.433342
 31
0.0
  0
LINE
  5
2C70
100
AcDbEntity
  8
OBJECT
 62
     7
100
AcDbLine
 10
50.946144
 20
38.747924
 30
0.0
 11
53.096144
 21
38.747924
 31
0.0
  0
LINE
  5
2C71
100
AcDbEntity
  8
OBJECT
 62
     7
100
AcDbLine
 10
50.946144
 20
39.367924
 30
0.0
 11
53.096144
 21
39.367924
 31
0.0
  0
LINE
  5
2C72
100
AcDbEntity
  8
OBJECT
 62
     7
100
AcDbLine
 10
50.946144
 20
39.367924
 30
0.0
 11
50.946144
 21
38.747924
 31
0.0
  0
LINE
  5
3312
100
AcDbEntity
  8
BACKPL
 62
     7
100
AcDbLine
 10
45.850409
 20
38.585799
 30
0.0
 11
44.984384
 21
38.085799
 31
0.0
  0
TEXT
  5
3325
100
AcDbEntity
  8
3
 62
     7
100
AcDbText
 10
36.738333
 20
43.368057
 30
0.0
 40
0.088891
  1

  7
ITALICC
100
AcDbText
  0
TEXT
  5
3326
100
AcDbEntity
  8
3
 62
     7
100
AcDbText
 10
36.627219
 20
43.590285
 30
0.0
 40
0.088891
  1

  7
ITALICC
100
AcDbText
  0
TEXT
  5
3327
100
AcDbEntity
  8
3
 62
     7
100
AcDbText
 10
36.693887
 20
43.479171
 30
0.0
 40
0.088891
  1

  7
ITALICC
100
AcDbText
  0
TEXT
  5
3328
100
AcDbEntity
  8
3
 62
     7
100
AcDbText
 10
37.19367
 20
58.860799
 30
0.0
 40
0.088891
  1

  7
ITALICC
100
AcDbText
  0
TEXT
  5
3329
100
AcDbEntity
  8
3
 62
     7
100
AcDbText
 10
37.082556
 20
59.083027
 30
0.0
 40
0.088891
  1

  7
ITALICC
100
AcDbText
  0
TEXT
  5
332A
100
AcDbEntity
  8
3
 62
     7
100
AcDbText
 10
37.149224
 20
58.971913
 30
0.0
 40
0.088891
  1

  7
ITALICC
100
AcDbText
  0
TEXT
  5
332C
100
AcDbEntity
  8
DIM
100
AcDbText
 10
33.713676
 20
52.726198
 30
0.0
 40
0.18
  1

  7
ROMANS
100
AcDbText
  0
TEXT
  5
332D
100
AcDbEntity
  8
DIM
100
AcDbText
 10
33.713676
 20
52.370022
 30
0.0
 40
0.18
  1

  7
ROMANS
100
AcDbText
  0
TEXT
  5
332E
100
AcDbEntity
  8
DIM
100
AcDbText
 10
33.713676
 20
51.286654
 30
0.0
 40
0.18
  1

  7
ROMANS
100
AcDbText
  0
TEXT
  5
332F
100
AcDbEntity
  8
DIM
100
AcDbText
 10
33.713676
 20
50.930478
 30
0.0
 40
0.18
  1

  7
ROMANS
100
AcDbText
  0
TEXT
  5
37F3
100
AcDbEntity
  8
3
 62
     7
100
AcDbText
 10
62.075495
 20
48.277507
 30
0.0
 40
0.088891
  1

  7
ITALICC
100
AcDbText
  0
TEXT
  5
37F4
100
AcDbEntity
  8
3
 62
     7
100
AcDbText
 10
61.964381
 20
48.499735
 30
0.0
 40
0.088891
  1

  7
ITALICC
100
AcDbText
  0
TEXT
  5
37F5
100
AcDbEntity
  8
3
 62
     7
100
AcDbText
 10
62.031049
 20
48.388621
 30
0.0
 40
0.088891
  1

  7
ITALICC
100
AcDbText
  0
CIRCLE
  5
37F8
100
AcDbEntity
  8
BACKPL
 62
     7
100
AcDbCircle
 10
45.299896
 20
38.539315
 30
0.0
 40
0.165
  0
LINE
  5
37FA
100
AcDbEntity
  8
BACKPL
 62
     7
100
AcDbLine
 10
45.777155
 20
39.119775
 30
0.0
 11
45.850409
 21
38.585799
 31
0.0
  0
LINE
  5
37FB
100
AcDbEntity
  8
BACKPL
 62
     7
100
AcDbLine
 10
44.984384
 20
38.085799
 30
0.0
 11
44.558573
 21
38.416227
 31
0.0
  0
LINE
  5
393B
100
AcDbEntity
  8
BACKPL
 62
     7
100
AcDbLine
 10
44.558573
 20
44.615461
 30
0.0
 11
44.984384
 21
44.945889
 31
0.0
  0
LINE
  5
393D
100
AcDbEntity
  8
BACKPL
 62
     7
100
AcDbLine
 10
45.850409
 20
44.445889
 30
0.0
 11
45.777155
 21
43.911912
 31
0.0
  0
LINE
  5
3941
100
AcDbEntity
  8
BACKPL
 62
     7
100
AcDbLine
 10
44.984384
 20
44.945889
 30
0.0
 11
45.850409
 21
44.445889
 31
0.0
  0
CIRCLE
  5
3943
100
AcDbEntity
  8
BACKPL
 62
     7
100
AcDbCircle
 10
45.299896
 20
44.492373
 30
0.0
 40
0.165
  0
LINE
  5
3945
100
AcDbEntity
  8
BACKPL
 62
     7
100
AcDbLine
 10
46.209053
 20
42.44179
 30
0.0
 11
47.253396
 21
42.015844
 31
0.0
  0
ARC
  5
3946
100
AcDbEntity
  8
PAD
 62
     7
100
AcDbCircle
 10
45.831396
 20
41.515844
 30
0.0
 40
1.0
100
AcDbArc
 50
210.632689
 51
81.189319
  0
LINE
  5
3947
100
AcDbEntity
  8
BACKPL
 62
     7
100
AcDbLine
 10
47.253396
 20
41.015844
 30
0.0
 11
46.209053
 21
40.589898
 31
0.0
  0
LINE
  5
3949
100
AcDbEntity
  8
PAD
 62
     7
100
AcDbLine
 10
45.010396
 20
41.680844
 30
0.0
 11
44.973413
 21
41.680844
 31
0.0
  0
ARC
  5
394A
100
AcDbEntity
  8
PAD
 62
     7
100
AcDbCircle
 10
45.010396
 20
41.515844
 30
0.0
 40
0.165
100
AcDbArc
 50
272.39677
 51
90.0
  0
LINE
  5
394B
100
AcDbEntity
  8
BACKPL
 62
     7
100
AcDbLine
 10
47.253396
 20
42.015844
 30
0.0
 11
47.253396
 21
41.015844
 31
0.0
  0
CIRCLE
  5
394D
100
AcDbEntity
  8
BACKPL
 62
     7
100
AcDbCircle
 10
47.018396
 20
41.515844
 30
0.0
 40
0.165
  0
LINE
  5
3950
100
AcDbEntity
  8
BACKPL
 62
     7
100
AcDbLine
 10
41.312384
 20
38.585799
 30
0.0
 11
42.178409
 21
38.085799
 31
0.0
  0
LINE
  5
3951
100
AcDbEntity
  8
BACKPL
 62
     7
100
AcDbLine
 10
42.178409
 20
38.085799
 30
0.0
 11
42.604219
 21
38.416227
 31
0.0
  0
LINE
  5
3952
100
AcDbEntity
  8
BACKPL
 62
     7
100
AcDbLine
 10
41.385638
 20
39.119775
 30
0.0
 11
41.312384
 21
38.585799
 31
0.0
  0
CIRCLE
  5
3953
100
AcDbEntity
  8
BACKPL
 62
     7
100
AcDbCircle
 10
41.862896
 20
38.539315
 30
0.0
 40
0.165
  0
LINE
  5
3959
100
AcDbEntity
  8
BACKPL
 62
     7
100
AcDbLine
 10
39.909396
 20
41.015844
 30
0.0
 11
40.408461
 21
40.812296
 31
0.0
  0
LINE
  5
395A
100
AcDbEntity
  8
BACKPL
 62
     7
100
AcDbLine
 10
39.909396
 20
42.015844
 30
0.0
 11
39.909396
 21
41.015844
 31
0.0
  0
LINE
  5
395B
100
AcDbEntity
  8
BACKPL
 62
     7
100
AcDbLine
 10
40.408461
 20
42.219392
 30
0.0
 11
39.909396
 21
42.015844
 31
0.0
  0
LINE
  5
395C
100
AcDbEntity
  8
BACKPL
 62
     7
100
AcDbLine
 10
41.312384
 20
44.445889
 30
0.0
 11
41.385638
 21
43.911912
 31
0.0
  0
LINE
  5
395D
100
AcDbEntity
  8
BACKPL
 62
     7
100
AcDbLine
 10
42.178409
 20
44.945889
 30
0.0
 11
41.312384
 21
44.445889
 31
0.0
  0
CIRCLE
  5
395E
100
AcDbEntity
  8
BACKPL
 62
     7
100
AcDbCircle
 10
41.862896
 20
44.492373
 30
0.0
 40
0.165
  0
LINE
  5
395F
100
AcDbEntity
  8
BACKPL
 62
     7
100
AcDbLine
 10
42.604219
 20
44.615461
 30
0.0
 11
42.178409
 21
44.945889
 31
0.0
  0
CIRCLE
  5
3964
100
AcDbEntity
  8
BACKPL
 62
     7
100
AcDbCircle
 10
40.144396
 20
41.515844
 30
0.0
 40
0.165
  0
ARC
  5
3A36
100
AcDbEntity
  8
IDTAG
 62
     7
100
AcDbCircle
 10
43.581396
 20
41.515844
 30
0.0
 40
3.645
100
AcDbArc
 50
188.306847
 51
211.406633
  0
LINE
  5
3A3B
100
AcDbEntity
  8
IDTAG
 62
     7
100
AcDbLine
 10
40.485852
 20
39.625824
 30
0.0
 11
40.470424
 21
39.616404
 31
0.0
  0
ARC
  5
3A42
100
AcDbEntity
  8
25DRVSRW
 62
     7
100
AcDbCircle
 10
40.279553
 20
39.972511
 30
0.0
 40
0.08171
100
AcDbArc
 50
115.052117
 51
295.052117
  0
LINE
  5
3A45
100
AcDbEntity
  8
25DRVSRW
 62
     7
100
AcDbLine
 10
40.244954
 20
40.046534
 30
0.0
 11
40.314153
 21
39.898488
 31
0.0
  0
ARC
  5
3A47
100
AcDbEntity
  8
25DRVSRW
 62
     7
100
AcDbCircle
 10
39.958805
 20
41.114753
 30
0.0
 40
0.08171
100
AcDbArc
 50
127.205422
 51
232.794578
  0
LINE
  5
3A61
100
AcDbEntity
  8
OBJECT
 62
     7
100
AcDbLine
 10
53.981144
 20
38.639367
 30
0.0
 11
53.981144
 21
38.757972
 31
0.0
  0
LINE
  5
3A62
100
AcDbEntity
  8
OBJECT
 62
     7
100
AcDbLine
 10
52.711144
 20
38.639367
 30
0.0
 11
52.711144
 21
38.747924
 31
0.0
  0
LINE
  5
3A66
100
AcDbEntity
  8
BACKPL
 62
     7
100
AcDbLine
 10
52.711144
 20
44.51797
 30
0.0
 11
52.651144
 21
44.51797
 31
0.0
  0
LINE
  5
3A68
100
AcDbEntity
  8
OBJECT
 62
     7
100
AcDbLine
 10
52.711144
 20
42.587924
 30
0.0
 11
52.711144
 21
40.587924
 31
0.0
  0
LINE
  5
3A69
100
AcDbEntity
  8
OBJECT
 62
     7
100
AcDbLine
 10
53.981144
 20
42.587924
 30
0.0
 11
53.981144
 21
40.587924
 31
0.0
  0
LINE
  5
3A6A
100
AcDbEntity
  8
OBJECT
 62
     7
100
AcDbLine
 10
53.081144
 20
42.587924
 30
0.0
 11
52.711144
 21
42.587924
 31
0.0
  0
LINE
  5
3A6B
100
AcDbEntity
  8
OBJECT
 62
     7
100
AcDbLine
 10
53.981144
 20
42.587924
 30
0.0
 11
53.611144
 21
42.587924
 31
0.0
  0
LINE
  5
3A6C
100
AcDbEntity
  8
OBJECT
 62
     7
100
AcDbLine
 10
53.081144
 20
40.587924
 30
0.0
 11
52.711144
 21
40.587924
 31
0.0
  0
LINE
  5
3A6D
100
AcDbEntity
  8
OBJECT
 62
     7
100
AcDbLine
 10
53.981144
 20
40.587924
 30
0.0
 11
53.611144
 21
40.587924
 31
0.0
  0
LINE
  5
3A78
100
AcDbEntity
  8
PAD
 62
     7
100
AcDbLine
 10
52.461144
 20
44.529628
 30
0.0
 11
52.461144
 21
44.433342
 31
0.0
  0
LINE
  5
3A79
100
AcDbEntity
  8
BACKPL
 62
     7
100
AcDbLine
 10
52.711144
 20
45.01797
 30
0.0
 11
52.711144
 21
44.433342
 31
0.0
  0
LINE
  5
3A7A
100
AcDbEntity
  8
BACKPL
 62
     7
100
AcDbLine
 10
52.651144
 20
45.01797
 30
0.0
 11
52.651144
 21
44.433342
 31
0.0
  0
LINE
  5
3A7B
100
AcDbEntity
  8
BACKPL
 62
     7
100
AcDbLine
 10
52.651144
 20
42.587924
 30
0.0
 11
52.711144
 21
42.587924
 31
0.0
  0
LINE
  5
3A7D
100
AcDbEntity
  8
PAD
 62
     7
100
AcDbLine
 10
52.461144
 20
42.587924
 30
0.0
 11
52.651144
 21
42.587924
 31
0.0
  0
LINE
  5
3A7F
100
AcDbEntity
  8
BACKPL
 62
     7
100
AcDbLine
 10
52.651144
 20
45.01797
 30
0.0
 11
52.711144
 21
45.01797
 31
0.0
  0
LINE
  5
3A80
100
AcDbEntity
  8
PAD
 62
     7
100
AcDbLine
 10
52.461144
 20
44.529628
 30
0.0
 11
52.464144
 21
44.529628
 31
0.0
  0
LINE
  5
3A83
100
AcDbEntity
  8
BACKPL
 62
     7
100
AcDbLine
 10
53.981144
 20
45.01797
 30
0.0
 11
53.981144
 21
44.416926
 31
0.0
  0
LINE
  5
3A84
100
AcDbEntity
  8
BACKPL
 62
     7
100
AcDbLine
 10
54.041144
 20
45.01797
 30
0.0
 11
54.041144
 21
42.587924
 31
0.0
  0
LINE
  5
3A85
100
AcDbEntity
  8
BACKPL
 62
     7
100
AcDbLine
 10
54.041144
 20
45.01797
 30
0.0
 11
53.981144
 21
45.01797
 31
0.0
  0
LINE
  5
3A86
100
AcDbEntity
  8
BACKPL
 62
     7
100
AcDbLine
 10
53.981144
 20
44.51797
 30
0.0
 11
54.041144
 21
44.51797
 31
0.0
  0
LINE
  5
3A87
100
AcDbEntity
  8
PAD
 62
     7
100
AcDbLine
 10
54.231144
 20
44.529628
 30
0.0
 11
54.231144
 21
42.587924
 31
0.0
  0
LINE
  5
3A88
100
AcDbEntity
  8
PAD
 62
     7
100
AcDbLine
 10
54.231144
 20
44.529628
 30
0.0
 11
54.228144
 21
44.529628
 31
0.0
  0
LINE
  5
3A89
100
AcDbEntity
  8
PAD
 62
     7
100
AcDbLine
 10
54.231144
 20
42.587924
 30
0.0
 11
54.041144
 21
42.587924
 31
0.0
  0
LINE
  5
3A8A
100
AcDbEntity
  8
BACKPL
 62
     7
100
AcDbLine
 10
54.041144
 20
42.587924
 30
0.0
 11
53.981144
 21
42.587924
 31
0.0
  0
LINE
  5
3A8C
100
AcDbEntity
  8
PAD
 62
     7
100
AcDbLine
 10
52.461144
 20
43.813342
 30
0.0
 11
52.461144
 21
42.587924
 31
0.0
  0
LINE
  5
3A8D
100
AcDbEntity
  8
BACKPL
 62
     7
100
AcDbLine
 10
52.651144
 20
43.813342
 30
0.0
 11
52.651144
 21
42.587924
 31
0.0
  0
LINE
  5
3A8F
100
AcDbEntity
  8
OBJECT
 62
     7
100
AcDbLine
 10
52.711144
 20
43.813342
 30
0.0
 11
52.711144
 21
42.587924
 31
0.0
  0
LINE
  5
3A90
100
AcDbEntity
  8
0
  6
CONTINUOUS
 62
     7
100
AcDbLine
 10
51.603644
 20
43.813342
 30
0.0
 11
51.603644
 21
42.900424
 31
0.0
  0
LINE
  5
3A91
100
AcDbEntity
  8
0
  6
CONTINUOUS
 62
     7
100
AcDbLine
 10
52.416144
 20
43.813342
 30
0.0
 11
52.416144
 21
42.397964
 31
0.0
  0
LINE
  5
3A93
100
AcDbEntity
  8
OBJECT
 62
     7
100
AcDbLine
 10
52.711144
 20
39.367924
 30
0.0
 11
52.711144
 21
40.587924
 31
0.0
  0
LINE
  5
3A94
100
AcDbEntity
  8
0
  6
CONTINUOUS
 62
     7
100
AcDbLine
 10
51.603644
 20
38.747924
 30
0.0
 11
51.603644
 21
38.525424
 31
0.0
  0
LINE
  5
3A95
100
AcDbEntity
  8
0
  6
CONTINUOUS
 62
     7
100
AcDbLine
 10
52.416144
 20
38.747924
 30
0.0
 11
52.416144
 21
38.367924
 31
0.0
  0
TEXT
  5
3F05
100
AcDbEntity
  8
3
 62
     7
100
AcDbText
 10
41.781244
 20
48.124117
 30
0.0
 40
0.011111
  1

  7
ITALICC
100
AcDbText
  0
TEXT
  5
3F1C
100
AcDbEntity
  8
3
 62
     7
100
AcDbText
 10
41.767354
 20
48.151895
 30
0.0
 40
0.011111
  1

  7
ITALICC
100
AcDbText
  0
TEXT
  5
3F1D
100
AcDbEntity
  8
3
 62
     7
100
AcDbText
 10
41.775688
 20
48.138006
 30
0.0
 40
0.011111
  1

  7
ITALICC
100
AcDbText
  0
TEXT
  5
4073
100
AcDbEntity
  8
3
 62
     7
100
AcDbText
 10
45.109514
 20
48.205238
 30
0.0
 40
0.011111
  1

  7
ITALICC
100
AcDbText
  0
TEXT
  5
408A
100
AcDbEntity
  8
3
 62
     7
100
AcDbText
 10
45.095624
 20
48.233017
 30
0.0
 40
0.011111
  1

  7
ITALICC
100
AcDbText
  0
TEXT
  5
408B
100
AcDbEntity
  8
3
 62
     7
100
AcDbText
 10
45.103958
 20
48.219128
 30
0.0
 40
0.011111
  1

  7
ITALICC
100
AcDbText
  0
LINE
  5
41A9
100
AcDbEntity
  8
OBJECT
 62
     7
100
AcDbLine
 10
52.719144
 20
44.689454
 30
0.0
 11
52.719144
 21
44.536482
 31
0.0
  0
LINE
  5
41AF
100
AcDbEntity
  8
OBJECT
 62
     7
100
AcDbLine
 10
52.719144
 20
44.689454
 30
0.0
 11
52.719144
 21
44.433342
 31
0.0
  0
LINE
  5
41B0
100
AcDbEntity
  8
OBJECT
 62
     7
100
AcDbLine
 10
53.973144
 20
44.689454
 30
0.0
 11
53.973144
 21
44.429326
 31
0.0
  0
LINE
  5
41B2
100
AcDbEntity
  8
OBJECT
 62
     7
100
AcDbLine
 10
53.973144
 20
44.689454
 30
0.0
 11
53.596144
 21
44.689454
 31
0.0
  0
LINE
  5
41B3
100
AcDbEntity
  8
OBJECT
 62
     7
100
AcDbLine
 10
53.081144
 20
43.813342
 30
0.0
 11
53.081144
 21
42.587924
 31
0.0
  0
LINE
  5
41B4
100
AcDbEntity
  8
OBJECT
 62
     7
100
AcDbLine
 10
53.611144
 20
43.713462
 30
0.0
 11
53.611144
 21
42.587924
 31
0.0
  0
LINE
  5
41B8
100
AcDbEntity
  8
OBJECT
 62
     7
100
AcDbLine
 10
53.081144
 20
42.587924
 30
0.0
 11
53.096144
 21
42.587924
 31
0.0
  0
LINE
  5
41B9
100
AcDbEntity
  8
OBJECT
 62
     7
100
AcDbLine
 10
53.596144
 20
42.587924
 30
0.0
 11
53.611144
 21
42.587924
 31
0.0
  0
LINE
  5
41BC
100
AcDbEntity
  8
OBJECT
 62
     7
100
AcDbLine
 10
53.611144
 20
39.461449
 30
0.0
 11
53.611144
 21
40.587924
 31
0.0
  0
LINE
  5
41BD
100
AcDbEntity
  8
OBJECT
 62
     7
100
AcDbLine
 10
53.081144
 20
38.747924
 30
0.0
 11
53.081144
 21
40.587924
 31
0.0
  0
LINE
  5
41BE
100
AcDbEntity
  8
OBJECT
 62
     7
100
AcDbLine
 10
53.081144
 20
40.587924
 30
0.0
 11
53.096144
 21
40.587924
 31
0.0
  0
LINE
  5
41BF
100
AcDbEntity
  8
OBJECT
 62
     7
100
AcDbLine
 10
53.596144
 20
40.587924
 30
0.0
 11
53.611144
 21
40.587924
 31
0.0
  0
LINE
  5
41C0
100
AcDbEntity
  8
OBJECT
 62
     7
100
AcDbLine
 10
53.973144
 20
44.714454
 30
0.0
 11
53.973144
 21
44.536482
 31
0.0
  0
LINE
  5
41C1
100
AcDbEntity
  8
OBJECT
 62
     7
100
AcDbLine
 10
54.228144
 20
44.714454
 30
0.0
 11
54.228144
 21
44.414454
 31
0.0
  0
LINE
  5
41C2
100
AcDbEntity
  8
OBJECT
 62
     7
100
AcDbLine
 10
54.228144
 20
44.414454
 30
0.0
 11
54.041144
 21
44.414454
 31
0.0
  0
LINE
  5
41C3
100
AcDbEntity
  8
OBJECT
 62
     7
100
AcDbLine
 10
54.228144
 20
44.714454
 30
0.0
 11
54.041144
 21
44.714454
 31
0.0
  0
LINE
  5
41D1
100
AcDbEntity
  8
OBJECT
 62
     7
100
AcDbLine
 10
52.464144
 20
44.714454
 30
0.0
 11
52.651144
 21
44.714454
 31
0.0
  0
LINE
  5
41D2
100
AcDbEntity
  8
OBJECT
 62
     7
100
AcDbLine
 10
52.464144
 20
44.714454
 30
0.0
 11
52.464144
 21
44.433342
 31
0.0
  0
LINE
  5
41D3
100
AcDbEntity
  8
OBJECT
 62
     7
100
AcDbLine
 10
52.719144
 20
44.714454
 30
0.0
 11
52.719144
 21
44.536482
 31
0.0
  0
CIRCLE
  5
41D4
100
AcDbEntity
  8
OBJECT
 62
     7
100
AcDbCircle
 10
45.299896
 20
38.539315
 30
0.0
 40
0.15
  0
CIRCLE
  5
41D5
100
AcDbEntity
  8
OBJECT
 62
     7
100
AcDbCircle
 10
45.299896
 20
38.539315
 30
0.0
 40
0.116275
  0
CIRCLE
  5
41D8
100
AcDbEntity
  8
OBJECT
 62
     7
100
AcDbCircle
 10
41.862896
 20
38.539315
 30
0.0
 40
0.15
  0
CIRCLE
  5
41D9
100
AcDbEntity
  8
OBJECT
 62
     7
100
AcDbCircle
 10
41.862896
 20
38.539315
 30
0.0
 40
0.116275
  0
CIRCLE
  5
41DB
100
AcDbEntity
  8
OBJECT
 62
     7
100
AcDbCircle
 10
40.144396
 20
41.515844
 30
0.0
 40
0.15
  0
CIRCLE
  5
41DC
100
AcDbEntity
  8
OBJECT
 62
     7
100
AcDbCircle
 10
40.144396
 20
41.515844
 30
0.0
 40
0.116275
  0
CIRCLE
  5
41DE
100
AcDbEntity
  8
OBJECT
 62
     7
100
AcDbCircle
 10
41.862896
 20
44.492373
 30
0.0
 40
0.15
  0
CIRCLE
  5
41DF
100
AcDbEntity
  8
OBJECT
 62
     7
100
AcDbCircle
 10
41.862896
 20
44.492373
 30
0.0
 40
0.116275
  0
CIRCLE
  5
41E1
100
AcDbEntity
  8
OBJECT
 62
     7
100
AcDbCircle
 10
45.299896
 20
44.492373
 30
0.0
 40
0.15
  0
CIRCLE
  5
41E2
100
AcDbEntity
  8
OBJECT
 62
     7
100
AcDbCircle
 10
45.299896
 20
44.492373
 30
0.0
 40
0.116275
  0
CIRCLE
  5
41E4
100
AcDbEntity
  8
OBJECT
 62
     7
100
AcDbCircle
 10
47.018396
 20
41.515844
 30
0.0
 40
0.15
  0
CIRCLE
  5
41E5
100
AcDbEntity
  8
OBJECT
 62
     7
100
AcDbCircle
 10
47.018396
 20
41.515844
 30
0.0
 40
0.116275
  0
LINE
  5
41E7
100
AcDbEntity
  8
OBJECT
 62
     7
100
AcDbLine
 10
53.981144
 20
44.714454
 30
0.0
 11
53.973144
 21
44.714454
 31
0.0
  0
LINE
  5
41E9
100
AcDbEntity
  8
OBJECT
 62
     7
100
AcDbLine
 10
52.711144
 20
44.714454
 30
0.0
 11
52.719144
 21
44.714454
 31
0.0
  0
LINE
  5
41EB
100
AcDbEntity
  8
OBJECT
 62
     7
100
AcDbLine
 10
53.096144
 20
44.689454
 30
0.0
 11
52.719144
 21
44.689454
 31
0.0
  0
LINE
  5
41EF
100
AcDbEntity
  8
OBJ
 62
     7
100
AcDbLine
 10
54.231144
 20
40.462924
 30
0.0
 11
54.276144
 21
40.462924
 31
0.0
  0
LINE
  5
41FA
100
AcDbEntity
  8
OBJ
 62
     7
100
AcDbLine
 10
54.231144
 20
42.712924
 30
0.0
 11
54.276144
 21
42.712924
 31
0.0
  0
LINE
  5
41FC
100
AcDbEntity
  8
OBJECT
 62
     7
100
AcDbLine
 10
53.081144
 20
42.587924
 30
0.0
 11
53.081144
 21
41.712924
 31
0.0
  0
LINE
  5
41FD
100
AcDbEntity
  8
OBJECT
 62
     7
100
AcDbLine
 10
53.611144
 20
42.587924
 30
0.0
 11
53.611144
 21
41.712924
 31
0.0
  0
LINE
  5
41FE
100
AcDbEntity
  8
BACKPL
 62
     7
100
AcDbLine
 10
52.651144
 20
38.157879
 30
0.0
 11
52.651144
 21
38.747924
 31
0.0
  0
LINE
  5
41FF
100
AcDbEntity
  8
BACKPL
 62
     7
100
AcDbLine
 10
52.711144
 20
38.157879
 30
0.0
 11
52.711144
 21
38.742507
 31
0.0
  0
LINE
  5
4200
100
AcDbEntity
  8
BACKPL
 62
     7
100
AcDbLine
 10
52.651144
 20
38.157879
 30
0.0
 11
52.711144
 21
38.157879
 31
0.0
  0
LINE
  5
4201
100
AcDbEntity
  8
BACKPL
 62
     7
100
AcDbLine
 10
53.981144
 20
38.157879
 30
0.0
 11
53.981144
 21
38.757972
 31
0.0
  0
LINE
  5
4202
100
AcDbEntity
  8
BACKPL
 62
     7
100
AcDbLine
 10
54.041144
 20
38.157879
 30
0.0
 11
54.041144
 21
40.587924
 31
0.0
  0
LINE
  5
4203
100
AcDbEntity
  8
BACKPL
 62
     7
100
AcDbLine
 10
54.041144
 20
38.157879
 30
0.0
 11
53.981144
 21
38.157879
 31
0.0
  0
LINE
  5
4204
100
AcDbEntity
  8
OBJECT
 62
     7
100
AcDbLine
 10
54.228144
 20
38.761395
 30
0.0
 11
54.041144
 21
38.761395
 31
0.0
  0
LINE
  5
4205
100
AcDbEntity
  8
OBJECT
 62
     7
100
AcDbLine
 10
54.228144
 20
38.461395
 30
0.0
 11
54.041144
 21
38.461395
 31
0.0
  0
LINE
  5
4206
100
AcDbEntity
  8
PAD
 62
     7
100
AcDbLine
 10
54.231144
 20
38.646221
 30
0.0
 11
54.228144
 21
38.646221
 31
0.0
  0
LINE
  5
4207
100
AcDbEntity
  8
OBJECT
 62
     7
100
AcDbLine
 10
54.228144
 20
38.461395
 30
0.0
 11
54.228144
 21
38.761395
 31
0.0
  0
LINE
  5
4208
100
AcDbEntity
  8
BACKPL
 62
     7
100
AcDbLine
 10
53.981144
 20
38.657879
 30
0.0
 11
54.041144
 21
38.657879
 31
0.0
  0
LINE
  5
4209
100
AcDbEntity
  8
PAD
 62
     7
100
AcDbLine
 10
54.231144
 20
38.646221
 30
0.0
 11
54.231144
 21
40.587924
 31
0.0
  0
LINE
  5
420A
100
AcDbEntity
  8
OBJECT
 62
     7
100
AcDbLine
 10
52.464144
 20
38.461395
 30
0.0
 11
52.464144
 21
38.747924
 31
0.0
  0
LINE
  5
420B
100
AcDbEntity
  8
OBJECT
 62
     7
100
AcDbLine
 10
52.464144
 20
38.461395
 30
0.0
 11
52.651144
 21
38.461395
 31
0.0
  0
LINE
  5
420C
100
AcDbEntity
  8
PAD
 62
     7
100
AcDbLine
 10
52.461144
 20
38.646221
 30
0.0
 11
52.464144
 21
38.646221
 31
0.0
  0
LINE
  5
420D
100
AcDbEntity
  8
BACKPL
 62
     7
100
AcDbLine
 10
52.711144
 20
38.657879
 30
0.0
 11
52.651144
 21
38.657879
 31
0.0
  0
LINE
  5
420E
100
AcDbEntity
  8
PAD
 62
     7
100
AcDbLine
 10
52.461144
 20
38.646221
 30
0.0
 11
52.461144
 21
38.747924
 31
0.0
  0
LINE
  5
420F
100
AcDbEntity
  8
OBJECT
 62
     7
100
AcDbLine
 10
53.096144
 20
38.486395
 30
0.0
 11
52.719144
 21
38.486395
 31
0.0
  0
LINE
  5
4210
100
AcDbEntity
  8
OBJECT
 62
     7
100
AcDbLine
 10
53.973144
 20
38.486395
 30
0.0
 11
53.596144
 21
38.486395
 31
0.0
  0
LINE
  5
4211
100
AcDbEntity
  8
OBJECT
 62
     7
100
AcDbLine
 10
53.973144
 20
38.486395
 30
0.0
 11
53.973144
 21
38.639367
 31
0.0
  0
LINE
  5
4212
100
AcDbEntity
  8
OBJECT
 62
     7
100
AcDbLine
 10
53.973144
 20
38.461395
 30
0.0
 11
53.973144
 21
38.745578
 31
0.0
  0
LINE
  5
4213
100
AcDbEntity
  8
OBJECT
 62
     7
100
AcDbLine
 10
53.981144
 20
38.461395
 30
0.0
 11
53.973144
 21
38.461395
 31
0.0
  0
LINE
  5
4214
100
AcDbEntity
  8
OBJECT
 62
     7
100
AcDbLine
 10
52.719144
 20
38.486395
 30
0.0
 11
52.719144
 21
38.639367
 31
0.0
  0
LINE
  5
4215
100
AcDbEntity
  8
OBJECT
 62
     7
100
AcDbLine
 10
52.719144
 20
38.486395
 30
0.0
 11
52.719144
 21
38.639367
 31
0.0
  0
LINE
  5
4216
100
AcDbEntity
  8
OBJECT
 62
     7
100
AcDbLine
 10
52.719144
 20
38.461395
 30
0.0
 11
52.719144
 21
38.747924
 31
0.0
  0
LINE
  5
4217
100
AcDbEntity
  8
OBJECT
 62
     7
100
AcDbLine
 10
52.711144
 20
38.461395
 30
0.0
 11
52.719144
 21
38.461395
 31
0.0
  0
LINE
  5
4218
100
AcDbEntity
  8
PAD
 62
     7
100
AcDbLine
 10
52.461144
 20
39.367924
 30
0.0
 11
52.461144
 21
40.587924
 31
0.0
  0
LINE
  5
4219
100
AcDbEntity
  8
BACKPL
 62
     7
100
AcDbLine
 10
52.651144
 20
39.367924
 30
0.0
 11
52.651144
 21
40.587924
 31
0.0
  0
LINE
  5
421A
100
AcDbEntity
  8
OBJECT
 62
     7
100
AcDbLine
 10
52.711144
 20
39.367924
 30
0.0
 11
52.711144
 21
40.587924
 31
0.0
  0
LINE
  5
421B
100
AcDbEntity
  8
PAD
 62
     7
100
AcDbLine
 10
54.231144
 20
40.587924
 30
0.0
 11
54.041144
 21
40.587924
 31
0.0
  0
LINE
  5
421C
100
AcDbEntity
  8
BACKPL
 62
     7
100
AcDbLine
 10
54.041144
 20
40.587924
 30
0.0
 11
53.981144
 21
40.587924
 31
0.0
  0
LINE
  5
421D
100
AcDbEntity
  8
PAD
 62
     7
100
AcDbLine
 10
52.461144
 20
40.587924
 30
0.0
 11
52.651144
 21
40.587924
 31
0.0
  0
LINE
  5
421E
100
AcDbEntity
  8
BACKPL
 62
     7
100
AcDbLine
 10
52.651144
 20
40.587924
 30
0.0
 11
52.711144
 21
40.587924
 31
0.0
  0
LINE
  5
421F
100
AcDbEntity
  8
BACKPL
 62
     7
100
AcDbLine
 10
54.041144
 20
42.087924
 30
0.0
 11
53.981144
 21
42.087924
 31
0.0
  0
LINE
  5
4220
100
AcDbEntity
  8
BACKPL
 62
     7
100
AcDbLine
 10
54.041144
 20
41.087924
 30
0.0
 11
53.981144
 21
41.087924
 31
0.0
  0
LINE
  5
4222
100
AcDbEntity
  8
BACKPL
 62
     7
100
AcDbLine
 10
54.041144
 20
42.587924
 30
0.0
 11
54.041144
 21
40.587924
 31
0.0
  0
LINE
  5
4223
100
AcDbEntity
  8
BACKPL
 62
     7
100
AcDbLine
 10
52.651144
 20
42.587924
 30
0.0
 11
52.651144
 21
40.587924
 31
0.0
  0
LINE
  5
4224
100
AcDbEntity
  8
PAD
 62
     7
100
AcDbLine
 10
54.231144
 20
42.587924
 30
0.0
 11
54.231144
 21
40.587924
 31
0.0
  0
LINE
  5
4225
100
AcDbEntity
  8
PAD
 62
     7
100
AcDbLine
 10
52.461144
 20
42.587924
 30
0.0
 11
52.461144
 21
40.587924
 31
0.0
  0
LINE
  5
4226
100
AcDbEntity
  8
BACKPL
 62
     7
100
AcDbLine
 10
52.711144
 20
42.087924
 30
0.0
 11
52.651144
 21
42.087924
 31
0.0
  0
LINE
  5
4227
100
AcDbEntity
  8
BACKPL
 62
     7
100
AcDbLine
 10
52.711144
 20
41.087924
 30
0.0
 11
52.651144
 21
41.087924
 31
0.0
  0
LINE
  5
422E
100
AcDbEntity
  8
OBJECT
 62
     7
100
AcDbLine
 10
53.973144
 20
41.712924
 30
0.0
 11
53.973144
 21
41.462924
 31
0.0
  0
LINE
  5
422F
100
AcDbEntity
  8
OBJECT
 62
     7
100
AcDbLine
 10
53.973144
 20
41.462924
 30
0.0
 11
53.596144
 21
41.462924
 31
0.0
  0
LINE
  5
4230
100
AcDbEntity
  8
OBJECT
 62
     7
100
AcDbLine
 10
53.973144
 20
41.712924
 30
0.0
 11
53.596144
 21
41.712924
 31
0.0
  0
LINE
  5
4236
100
AcDbEntity
  8
OBJECT
 62
     7
100
AcDbLine
 10
52.719144
 20
41.712924
 30
0.0
 11
52.719144
 21
41.462924
 31
0.0
  0
LINE
  5
4237
100
AcDbEntity
  8
OBJECT
 62
     7
100
AcDbLine
 10
52.719144
 20
41.712924
 30
0.0
 11
52.719144
 21
41.462924
 31
0.0
  0
LINE
  5
423A
100
AcDbEntity
  8
OBJECT
 62
     7
100
AcDbLine
 10
53.973144
 20
41.737924
 30
0.0
 11
53.973144
 21
41.437924
 31
0.0
  0
LINE
  5
423B
100
AcDbEntity
  8
OBJECT
 62
     7
100
AcDbLine
 10
54.228144
 20
41.737924
 30
0.0
 11
54.228144
 21
41.437924
 31
0.0
  0
LINE
  5
423C
100
AcDbEntity
  8
OBJECT
 62
     7
100
AcDbLine
 10
54.228144
 20
41.437924
 30
0.0
 11
54.041144
 21
41.437924
 31
0.0
  0
LINE
  5
4241
100
AcDbEntity
  8
OBJECT
 62
     7
100
AcDbLine
 10
54.228144
 20
41.737924
 30
0.0
 11
54.041144
 21
41.737924
 31
0.0
  0
LINE
  5
4242
100
AcDbEntity
  8
OBJECT
 62
     7
100
AcDbLine
 10
53.981144
 20
41.437924
 30
0.0
 11
53.973144
 21
41.437924
 31
0.0
  0
LINE
  5
4243
100
AcDbEntity
  8
OBJECT
 62
     7
100
AcDbLine
 10
53.981144
 20
41.737924
 30
0.0
 11
53.973144
 21
41.737924
 31
0.0
  0
LINE
  5
4244
100
AcDbEntity
  8
OBJECT
 62
     7
100
AcDbLine
 10
52.719144
 20
41.737924
 30
0.0
 11
52.719144
 21
41.437924
 31
0.0
  0
LINE
  5
4245
100
AcDbEntity
  8
OBJECT
 62
     7
100
AcDbLine
 10
52.464144
 20
41.737924
 30
0.0
 11
52.651144
 21
41.737924
 31
0.0
  0
LINE
  5
4246
100
AcDbEntity
  8
OBJECT
 62
     7
100
AcDbLine
 10
52.464144
 20
41.737924
 30
0.0
 11
52.464144
 21
41.437924
 31
0.0
  0
LINE
  5
4247
100
AcDbEntity
  8
OBJECT
 62
     7
100
AcDbLine
 10
52.464144
 20
41.437924
 30
0.0
 11
52.651144
 21
41.437924
 31
0.0
  0
LINE
  5
4248
100
AcDbEntity
  8
OBJECT
 62
     7
100
AcDbLine
 10
52.711144
 20
41.437924
 30
0.0
 11
52.719144
 21
41.437924
 31
0.0
  0
LINE
  5
4249
100
AcDbEntity
  8
OBJECT
 62
     7
100
AcDbLine
 10
52.711144
 20
41.737924
 30
0.0
 11
52.719144
 21
41.737924
 31
0.0
  0
LINE
  5
424A
100
AcDbEntity
  8
OBJECT
 62
     7
100
AcDbLine
 10
53.096144
 20
41.462924
 30
0.0
 11
52.719144
 21
41.462924
 31
0.0
  0
LINE
  5
424B
100
AcDbEntity
  8
OBJECT
 62
     7
100
AcDbLine
 10
53.096144
 20
41.712924
 30
0.0
 11
52.719144
 21
41.712924
 31
0.0
  0
LINE
  5
424C
100
AcDbEntity
  8
OBJECT
 62
     7
100
AcDbLine
 10
53.611144
 20
41.462924
 30
0.0
 11
53.611144
 21
40.587924
 31
0.0
  0
LINE
  5
424D
100
AcDbEntity
  8
OBJECT
 62
     7
100
AcDbLine
 10
53.081144
 20
41.462924
 30
0.0
 11
53.081144
 21
40.587924
 31
0.0
  0
LINE
  5
424F
100
AcDbEntity
  8
OBJECT
 62
     7
100
AcDbLine
 10
53.973144
 20
44.439454
 30
0.0
 11
53.964638
 21
44.439454
 31
0.0
  0
LINE
  5
4250
100
AcDbEntity
  8
OBJECT
 62
     7
100
AcDbLine
 10
53.096144
 20
44.439454
 30
0.0
 11
52.719144
 21
44.439454
 31
0.0
  0
LINE
  5
4254
100
AcDbEntity
  8
OBJECT
 62
     7
100
AcDbLine
 10
53.973144
 20
38.736395
 30
0.0
 11
53.965518
 21
38.736395
 31
0.0
  0
LINE
  5
4255
100
AcDbEntity
  8
OBJECT
 62
     7
100
AcDbLine
 10
53.096144
 20
38.736395
 30
0.0
 11
52.719144
 21
38.736395
 31
0.0
  0
ARC
  5
425A
100
AcDbEntity
  8
OBJECT
 62
     7
100
AcDbCircle
 10
45.009896
 20
41.515844
 30
0.0
 40
0.15
100
AcDbArc
 50
270.731728
 51
107.055861
  0
ARC
  5
425C
100
AcDbEntity
  8
OBJECT
 62
     7
100
AcDbCircle
 10
45.009896
 20
41.515844
 30
0.0
 40
0.116275
100
AcDbArc
 50
264.718646
 51
120.509225
  0
ARC
  5
4266
100
AcDbEntity
  8
OBJECT
 62
     7
100
AcDbCircle
 10
43.581396
 20
41.515844
 30
0.0
 40
3.625
100
AcDbArc
 50
188.493197
 51
211.382371
  0
ARC
  5
4267
100
AcDbEntity
  8
OBJECT
 62
     7
100
AcDbCircle
 10
43.581396
 20
41.515844
 30
0.0
 40
3.625
100
AcDbArc
 50
8.493197
 51
31.370129
  0
LWPOLYLINE
  5
4269
100
AcDbEntity
  8
0
 62
     7
100
AcDbPolyline
 90
       16
 70
     0
 43
0.0
 10
46.627124
 20
42.649883
 10
46.381213
 20
42.65205
 10
46.242619
 20
42.525544
 10
46.049827
 20
42.56926
 10
45.897942
 20
42.417478
 10
45.566556
 20
42.293293
 10
45.332083
 20
42.02416
 10
45.028054
 20
41.837947
 10
44.935659
 20
41.572297
 10
45.070777
 20
41.20601
 10
44.959016
 20
40.982449
 10
45.028054
 20
40.678885
 10
45.442287
 20
40.485708
 10
45.635595
 20
40.209741
 10
46.077442
 20
40.044161
 10
46.290068
 20
39.719848
  0
ARC
  5
4275
100
AcDbEntity
  8
0
 62
     7
100
AcDbCircle
 10
43.831396
 20
38.213282
 30
0.0
 40
0.245
100
AcDbArc
 50
270.0
 51
21.050504
  0
ARC
  5
4278
100
AcDbEntity
  8
0
 62
     7
100
AcDbCircle
 10
43.331396
 20
38.213282
 30
0.0
 40
0.245
100
AcDbArc
 50
158.949496
 51
270.0
  0
LINE
  5
4279
100
AcDbEntity
  8
0
 62
     7
100
AcDbLine
 10
43.831396
 20
37.968282
 30
0.0
 11
43.331396
 21
37.968282
 31
0.0
  0
LINE
  5
4285
100
AcDbEntity
  8
0
 62
     7
100
AcDbLine
 10
54.557394
 20
44.462924
 30
0.0
 11
54.557394
 21
38.712924
 31
0.0
  0
LINE
  5
4286
100
AcDbEntity
  8
0
 62
     7
100
AcDbLine
 10
55.088644
 20
42.900424
 30
0.0
 11
55.088644
 21
40.275424
 31
0.0
  0
LINE
  5
4287
100
AcDbEntity
  8
0
 62
     7
100
AcDbLine
 10
54.276144
 20
42.397964
 30
0.0
 11
54.276144
 21
40.777884
 31
0.0
  0
ARC
  5
4DCF
100
AcDbEntity
  8
M4-PHIL
 62
     7
100
AcDbCircle
 10
53.318233
 20
44.890486
 30
0.0
 40
0.431214
100
AcDbArc
 50
3.341176
 51
26.851618
  0
LINE
  5
4DD0
100
AcDbEntity
  8
M4-PHIL
 62
     7
100
AcDbLine
 10
53.735111
 20
44.865354
 30
0.0
 11
53.735111
 21
44.915618
 31
0.0
  0
LINE
  5
4DD1
100
AcDbEntity
  8
M4-PHIL
 62
     7
100
AcDbLine
 10
53.748715
 20
44.865354
 30
0.0
 11
53.735111
 21
44.865354
 31
0.0
  0
LINE
  5
4DD2
100
AcDbEntity
  8
M4-PHIL
 62
     7
100
AcDbLine
 10
53.748715
 20
44.915618
 30
0.0
 11
53.735111
 21
44.915618
 31
0.0
  0
LINE
  5
4DD3
100
AcDbEntity
  8
M4-PHIL
 62
     7
100
AcDbLine
 10
43.806265
 20
38.103017
 30
0.0
 11
43.856528
 21
38.103017
 31
0.0
  0
LINE
  5
4DD4
100
AcDbEntity
  8
M4-PHIL
 62
     7
100
AcDbLine
 10
43.721131
 20
38.238414
 30
0.0
 11
43.721131
 21
38.188151
 31
0.0
  0
LINE
  5
4DD6
100
AcDbEntity
  8
M4-PHIL
 62
     7
100
AcDbLine
 10
43.941662
 20
38.188151
 30
0.0
 11
43.941662
 21
38.238414
 31
0.0
  0
ARC
  5
4DD7
100
AcDbEntity
  8
M4-PHIL
 62
     7
100
AcDbCircle
 10
43.869094
 20
38.25098
 30
0.0
 40
0.012566
100
AcDbArc
 50
180.0
 51
270.0
  0
ARC
  5
4DD8
100
AcDbEntity
  8
M4-PHIL
 62
     7
100
AcDbCircle
 10
43.793699
 20
38.25098
 30
0.0
 40
0.012566
100
AcDbArc
 50
270.0
 51
0.0
  0
ARC
  5
4DD9
100
AcDbEntity
  8
M4-PHIL
 62
     7
100
AcDbCircle
 10
43.793699
 20
38.175585
 30
0.0
 40
0.012566
100
AcDbArc
 50
0.0
 51
90.0
  0
ARC
  5
4DDA
100
AcDbEntity
  8
M4-PHIL
 62
     7
100
AcDbCircle
 10
43.869094
 20
38.175585
 30
0.0
 40
0.012566
100
AcDbArc
 50
90.0
 51
180.0
  0
LINE
  5
4DDB
100
AcDbEntity
  8
M4-PHIL
 62
     7
100
AcDbLine
 10
43.806265
 20
38.175585
 30
0.0
 11
43.806265
 21
38.103017
 31
0.0
  0
LINE
  5
4DDC
100
AcDbEntity
  8
M4-PHIL
 62
     7
100
AcDbLine
 10
43.793699
 20
38.238414
 30
0.0
 11
43.721131
 21
38.238414
 31
0.0
  0
LINE
  5
4DDD
100
AcDbEntity
  8
M4-PHIL
 62
     7
100
AcDbLine
 10
43.793699
 20
38.188151
 30
0.0
 11
43.721131
 21
38.188151
 31
0.0
  0
LINE
  5
4DDE
100
AcDbEntity
  8
M4-PHIL
 62
     7
100
AcDbLine
 10
43.856528
 20
38.175585
 30
0.0
 11
43.856528
 21
38.103017
 31
0.0
  0
LINE
  5
4DDF
100
AcDbEntity
  8
M4-PHIL
 62
     7
100
AcDbLine
 10
43.806265
 20
38.273633
 30
0.0
 11
43.806265
 21
38.25098
 31
0.0
  0
LINE
  5
4DE0
100
AcDbEntity
  8
M4-PHIL
 62
     7
100
AcDbLine
 10
43.856528
 20
38.277511
 30
0.0
 11
43.856528
 21
38.25098
 31
0.0
  0
LINE
  5
4DE1
100
AcDbEntity
  8
M4-PHIL
 62
     7
100
AcDbLine
 10
43.941662
 20
38.238414
 30
0.0
 11
43.869094
 21
38.238414
 31
0.0
  0
LINE
  5
4DE2
100
AcDbEntity
  8
M4-PHIL
 62
     7
100
AcDbLine
 10
43.941662
 20
38.188151
 30
0.0
 11
43.869094
 21
38.188151
 31
0.0
  0
ARC
  5
4DE3
100
AcDbEntity
  8
M4-PHIL
 62
     7
100
AcDbCircle
 10
43.831396
 20
38.213282
 30
0.0
 40
0.194772
100
AcDbArc
 50
164.159506
 51
24.498428
  0
LINE
  5
4DE4
100
AcDbEntity
  8
M4-PHIL
 62
     7
100
AcDbLine
 10
53.702954
 20
45.085258
 30
0.0
 11
53.702954
 21
44.695714
 31
0.0
  0
ARC
  5
4DE5
100
AcDbEntity
  8
M4-PHIL
 62
     7
100
AcDbCircle
 10
53.318233
 20
44.890486
 30
0.0
 40
0.431214
100
AcDbArc
 50
333.148382
 51
356.658824
  0
LINE
  5
4DEF
100
AcDbEntity
  8
M4-PHIL
 62
     7
100
AcDbLine
 10
53.596144
 20
45.085258
 30
0.0
 11
53.702954
 21
45.085258
 31
0.0
  0
LINE
  5
4DF0
100
AcDbEntity
  8
M4-PHIL
 62
     7
100
AcDbLine
 10
53.596144
 20
44.695714
 30
0.0
 11
53.702954
 21
44.695714
 31
0.0
  0
LINE
  5
4DF1
100
AcDbEntity
  8
M4-PHIL
 62
     7
100
AcDbLine
 10
53.596144
 20
45.085258
 30
0.0
 11
53.596144
 21
44.695714
 31
0.0
  0
ARC
  5
4DFB
100
AcDbEntity
  8
M4-PHIL
 62
     7
100
AcDbCircle
 10
43.331396
 20
38.213282
 30
0.0
 40
0.194772
100
AcDbArc
 50
155.501572
 51
15.840494
  0
LINE
  5
4DFC
100
AcDbEntity
  8
M4-PHIL
 62
     7
100
AcDbLine
 10
43.306265
 20
38.103017
 30
0.0
 11
43.356528
 21
38.103017
 31
0.0
  0
LINE
  5
4DFD
100
AcDbEntity
  8
M4-PHIL
 62
     7
100
AcDbLine
 10
43.221131
 20
38.238414
 30
0.0
 11
43.221131
 21
38.188151
 31
0.0
  0
LINE
  5
4DFE
100
AcDbEntity
  8
M4-PHIL
 62
     7
100
AcDbLine
 10
43.441662
 20
38.188151
 30
0.0
 11
43.441662
 21
38.238414
 31
0.0
  0
ARC
  5
4DFF
100
AcDbEntity
  8
M4-PHIL
 62
     7
100
AcDbCircle
 10
43.369094
 20
38.25098
 30
0.0
 40
0.012566
100
AcDbArc
 50
180.0
 51
270.0
  0
ARC
  5
4E00
100
AcDbEntity
  8
M4-PHIL
 62
     7
100
AcDbCircle
 10
43.293699
 20
38.25098
 30
0.0
 40
0.012566
100
AcDbArc
 50
270.0
 51
0.0
  0
ARC
  5
4E01
100
AcDbEntity
  8
M4-PHIL
 62
     7
100
AcDbCircle
 10
43.293699
 20
38.175585
 30
0.0
 40
0.012566
100
AcDbArc
 50
0.0
 51
90.0
  0
ARC
  5
4E02
100
AcDbEntity
  8
M4-PHIL
 62
     7
100
AcDbCircle
 10
43.369094
 20
38.175585
 30
0.0
 40
0.012566
100
AcDbArc
 50
90.0
 51
180.0
  0
LINE
  5
4E03
100
AcDbEntity
  8
M4-PHIL
 62
     7
100
AcDbLine
 10
43.306265
 20
38.175585
 30
0.0
 11
43.306265
 21
38.103017
 31
0.0
  0
LINE
  5
4E04
100
AcDbEntity
  8
M4-PHIL
 62
     7
100
AcDbLine
 10
43.293699
 20
38.238414
 30
0.0
 11
43.221131
 21
38.238414
 31
0.0
  0
LINE
  5
4E05
100
AcDbEntity
  8
M4-PHIL
 62
     7
100
AcDbLine
 10
43.293699
 20
38.188151
 30
0.0
 11
43.221131
 21
38.188151
 31
0.0
  0
LINE
  5
4E06
100
AcDbEntity
  8
M4-PHIL
 62
     7
100
AcDbLine
 10
43.356528
 20
38.175585
 30
0.0
 11
43.356528
 21
38.103017
 31
0.0
  0
LINE
  5
4E07
100
AcDbEntity
  8
M4-PHIL
 62
     7
100
AcDbLine
 10
43.306265
 20
38.277511
 30
0.0
 11
43.306265
 21
38.25098
 31
0.0
  0
LINE
  5
4E08
100
AcDbEntity
  8
M4-PHIL
 62
     7
100
AcDbLine
 10
43.356528
 20
38.273633
 30
0.0
 11
43.356528
 21
38.25098
 31
0.0
  0
LINE
  5
4E09
100
AcDbEntity
  8
M4-PHIL
 62
     7
100
AcDbLine
 10
43.441662
 20
38.238414
 30
0.0
 11
43.369094
 21
38.238414
 31
0.0
  0
LINE
  5
4E0A
100
AcDbEntity
  8
M4-PHIL
 62
     7
100
AcDbLine
 10
43.441662
 20
38.188151
 30
0.0
 11
43.369094
 21
38.188151
 31
0.0
  0
LINE
  5
4E34
100
AcDbEntity
  8
M4-PHIL
 62
     7
100
AcDbLine
 10
52.956251
 20
38.283389
 30
0.0
 11
52.956251
 21
38.233125
 31
0.0
  0
LINE
  5
4E35
100
AcDbEntity
  8
M4-PHIL
 62
     7
100
AcDbLine
 10
52.942648
 20
38.283389
 30
0.0
 11
52.956251
 21
38.283389
 31
0.0
  0
LINE
  5
4E36
100
AcDbEntity
  8
M4-PHIL
 62
     7
100
AcDbLine
 10
52.942648
 20
38.233125
 30
0.0
 11
52.956251
 21
38.233125
 31
0.0
  0
ARC
  5
4E37
100
AcDbEntity
  8
M4-PHIL
 62
     7
100
AcDbCircle
 10
53.373129
 20
38.258257
 30
0.0
 40
0.431214
100
AcDbArc
 50
153.148382
 51
176.658824
  0
ARC
  5
4E38
100
AcDbEntity
  8
M4-PHIL
 62
     7
100
AcDbCircle
 10
53.373129
 20
38.258257
 30
0.0
 40
0.431214
100
AcDbArc
 50
183.341176
 51
206.851618
  0
LINE
  5
4E39
100
AcDbEntity
  8
M4-PHIL
 62
     7
100
AcDbLine
 10
52.988409
 20
38.063485
 30
0.0
 11
52.988409
 21
38.453028
 31
0.0
  0
LINE
  5
4E3A
100
AcDbEntity
  8
M4-PHIL
 62
     7
100
AcDbLine
 10
53.095219
 20
38.063485
 30
0.0
 11
53.095219
 21
38.453028
 31
0.0
  0
LINE
  5
4E3B
100
AcDbEntity
  8
M4-PHIL
 62
     7
100
AcDbLine
 10
53.095219
 20
38.063485
 30
0.0
 11
52.988409
 21
38.063485
 31
0.0
  0
LINE
  5
4E3C
100
AcDbEntity
  8
M4-PHIL
 62
     7
100
AcDbLine
 10
53.095219
 20
38.453028
 30
0.0
 11
52.988409
 21
38.453028
 31
0.0
  0
LINE
  5
4E3F
100
AcDbEntity
  8
0
 62
     7
100
AcDbLine
 10
52.134894
 20
44.462924
 30
0.0
 11
52.134894
 21
44.433342
 31
0.0
  0
LINE
  5
4E40
100
AcDbEntity
  8
0
 62
     7
100
AcDbLine
 10
52.134894
 20
43.813342
 30
0.0
 11
52.134894
 21
39.367924
 31
0.0
  0
LINE
  5
4E41
100
AcDbEntity
  8
0
 62
     7
100
AcDbLine
 10
52.134894
 20
38.747924
 30
0.0
 11
52.134894
 21
38.712924
 31
0.0
  0
LINE
  5
4E42
100
AcDbEntity
  8
0
 62
     7
100
AcDbLine
 10
51.603644
 20
42.900424
 30
0.0
 11
51.603644
 21
40.275424
 31
0.0
  0
LINE
  5
4E43
100
AcDbEntity
  8
0
 62
     7
100
AcDbLine
 10
52.416144
 20
42.397964
 30
0.0
 11
52.416144
 21
40.777884
 31
0.0
  0
ARC
  5
4E46
100
AcDbEntity
  8
0
 62
     7
100
AcDbCircle
 10
45.009896
 20
41.515844
 30
0.0
 40
0.10825
100
AcDbArc
 50
262.672063
 51
125.812141
  0
CIRCLE
  5
4E47
100
AcDbEntity
  8
0
 62
     7
100
AcDbCircle
 10
47.018396
 20
41.515844
 30
0.0
 40
0.10825
  0
LWPOLYLINE
  5
4E48
100
AcDbEntity
  8
0
 62
     7
100
AcDbPolyline
 90
        6
 70
     1
 43
0.0
 10
47.046802
 20
41.466644
 10
47.075208
 20
41.515844
 10
47.046802
 20
41.565044
 10
46.989991
 20
41.565044
 10
46.961585
 20
41.515844
 10
46.989991
 20
41.466644
  0
LWPOLYLINE
  5
4E49
100
AcDbEntity
  8
0
 62
     7
100
AcDbPolyline
 90
        7
 70
     0
 43
0.0
 10
44.968657
 20
41.482842
 10
45.009896
 20
41.459033
 10
45.059096
 20
41.487438
 10
45.059096
 20
41.54425
 10
45.009896
 20
41.572655
 10
44.960696
 20
41.54425
 10
44.960696
 20
41.504423
  0
LWPOLYLINE
  5
4E4A
100
AcDbEntity
  8
0
 62
     7
100
AcDbPolyline
 90
        6
 70
     1
 43
0.0
 10
45.356708
 20
44.492373
 10
45.328302
 20
44.541573
 10
45.271491
 20
44.541573
 10
45.243085
 20
44.492373
 10
45.271491
 20
44.443173
 10
45.328302
 20
44.443173
  0
CIRCLE
  5
4E4B
100
AcDbEntity
  8
0
 62
     7
100
AcDbCircle
 10
45.299896
 20
44.492373
 30
0.0
 40
0.10825
  0
LWPOLYLINE
  5
4E4C
100
AcDbEntity
  8
0
 62
     7
100
AcDbPolyline
 90
        6
 70
     1
 43
0.0
 10
41.891302
 20
44.541573
 10
41.834491
 20
44.541573
 10
41.806085
 20
44.492373
 10
41.834491
 20
44.443173
 10
41.891302
 20
44.443173
 10
41.919708
 20
44.492373
  0
CIRCLE
  5
4E4D
100
AcDbEntity
  8
0
 62
     7
100
AcDbCircle
 10
41.862896
 20
44.492373
 30
0.0
 40
0.10825
  0
LWPOLYLINE
  5
4E4E
100
AcDbEntity
  8
0
 62
     7
100
AcDbPolyline
 90
        6
 70
     1
 43
0.0
 10
40.115991
 20
41.565044
 10
40.087585
 20
41.515844
 10
40.115991
 20
41.466644
 10
40.172802
 20
41.466644
 10
40.201208
 20
41.515844
 10
40.172802
 20
41.565044
  0
CIRCLE
  5
4E4F
100
AcDbEntity
  8
0
 62
     7
100
AcDbCircle
 10
40.144396
 20
41.515844
 30
0.0
 40
0.10825
  0
LWPOLYLINE
  5
4E50
100
AcDbEntity
  8
0
 62
     7
100
AcDbPolyline
 90
        6
 70
     1
 43
0.0
 10
41.806085
 20
38.539315
 10
41.834491
 20
38.490115
 10
41.891302
 20
38.490115
 10
41.919708
 20
38.539315
 10
41.891302
 20
38.588515
 10
41.834491
 20
38.588515
  0
CIRCLE
  5
4E51
100
AcDbEntity
  8
0
 62
     7
100
AcDbCircle
 10
41.862896
 20
38.539315
 30
0.0
 40
0.10825
  0
LWPOLYLINE
  5
4E52
100
AcDbEntity
  8
0
 62
     7
100
AcDbPolyline
 90
        6
 70
     1
 43
0.0
 10
45.271491
 20
38.490115
 10
45.328302
 20
38.490115
 10
45.356708
 20
38.539315
 10
45.328302
 20
38.588515
 10
45.271491
 20
38.588515
 10
45.243085
 20
38.539315
  0
CIRCLE
  5
4E53
100
AcDbEntity
  8
0
 62
     7
100
AcDbCircle
 10
45.299896
 20
38.539315
 30
0.0
 40
0.10825
  0
CIRCLE
  5
4E5E
100
AcDbEntity
  8
OBJ
 62
     7
100
AcDbCircle
 10
43.581396
 20
40.548324
 30
0.0
 40
0.137795
  0
LWPOLYLINE
  5
4E5F
100
AcDbEntity
  8
OBJ
 62
     7
100
AcDbPolyline
 90
        6
 70
     1
 43
0.0
 10
43.61546
 20
40.489324
 10
43.649524
 20
40.548324
 10
43.61546
 20
40.607324
 10
43.547333
 20
40.607324
 10
43.513269
 20
40.548324
 10
43.547333
 20
40.489324
  0
LWPOLYLINE
  5
4E60
100
AcDbEntity
  8
OBJ
 62
     7
100
AcDbPolyline
 90
        6
 70
     1
 43
0.0
 10
44.487421
 20
41.032084
 10
44.453357
 20
41.091084
 10
44.38523
 20
41.091084
 10
44.351166
 20
41.032084
 10
44.38523
 20
40.973084
 10
44.453357
 20
40.973084
  0
CIRCLE
  5
4E61
100
AcDbEntity
  8
OBJ
 62
     7
100
AcDbCircle
 10
44.419293
 20
41.032084
 30
0.0
 40
0.137795
  0
LWPOLYLINE
  5
4E62
100
AcDbEntity
  8
OBJ
 62
     7
100
AcDbPolyline
 90
        6
 70
     1
 43
0.0
 10
44.453357
 20
42.058604
 10
44.38523
 20
42.058604
 10
44.351166
 20
41.999604
 10
44.38523
 20
41.940604
 10
44.453357
 20
41.940604
 10
44.487421
 20
41.999604
  0
CIRCLE
  5
4E63
100
AcDbEntity
  8
OBJ
 62
     7
100
AcDbCircle
 10
44.419293
 20
41.999604
 30
0.0
 40
0.137795
  0
LWPOLYLINE
  5
4E64
100
AcDbEntity
  8
OBJ
 62
     7
100
AcDbPolyline
 90
        6
 70
     1
 43
0.0
 10
43.547333
 20
42.542364
 10
43.513269
 20
42.483364
 10
43.547333
 20
42.424364
 10
43.61546
 20
42.424364
 10
43.649524
 20
42.483364
 10
43.61546
 20
42.542364
  0
CIRCLE
  5
4E65
100
AcDbEntity
  8
OBJ
 62
     7
100
AcDbCircle
 10
43.581396
 20
42.483364
 30
0.0
 40
0.137795
  0
LWPOLYLINE
  5
4E66
100
AcDbEntity
  8
OBJ
 62
     7
100
AcDbPolyline
 90
        6
 70
     1
 43
0.0
 10
42.675372
 20
41.999604
 10
42.709436
 20
41.940604
 10
42.777563
 20
41.940604
 10
42.811627
 20
41.999604
 10
42.777563
 20
42.058604
 10
42.709436
 20
42.058604
  0
CIRCLE
  5
4E67
100
AcDbEntity
  8
OBJ
 62
     7
100
AcDbCircle
 10
42.7435
 20
41.999604
 30
0.0
 40
0.137795
  0
LWPOLYLINE
  5
4E68
100
AcDbEntity
  8
OBJ
 62
     7
100
AcDbPolyline
 90
        6
 70
     1
 43
0.0
 10
42.709436
 20
40.973084
 10
42.777563
 20
40.973084
 10
42.811627
 20
41.032084
 10
42.777563
 20
41.091084
 10
42.709436
 20
41.091084
 10
42.675372
 20
41.032084
  0
CIRCLE
  5
4E69
100
AcDbEntity
  8
OBJ
 62
     7
100
AcDbCircle
 10
42.7435
 20
41.032084
 30
0.0
 40
0.137795
  0
LWPOLYLINE
  5
4F4B
100
AcDbEntity
  8
0
 62
     7
100
AcDbPolyline
 90
        6
 70
     1
 43
0.0
 10
46.016624
 20
38.820645
 10
46.297624
 20
38.658409
 10
46.578624
 20
38.820645
 10
46.578624
 20
39.145116
 10
46.297624
 20
39.307351
 10
46.016624
 20
39.145116
  0
LWPOLYLINE
  5
4F4C
100
AcDbEntity
  8
0
 62
     7
100
AcDbPolyline
 90
        6
 70
     1
 43
0.0
 10
46.016602
 20
43.886549
 10
46.297602
 20
43.724314
 10
46.578602
 20
43.886549
 10
46.578602
 20
44.21102
 10
46.297602
 20
44.373255
 10
46.016602
 20
44.21102
  0
LWPOLYLINE
  5
4F4D
100
AcDbEntity
  8
0
 62
     7
100
AcDbPolyline
 90
        6
 70
     1
 43
0.0
 10
40.584107
 20
43.886549
 10
40.865107
 20
43.724314
 10
41.146107
 20
43.886549
 10
41.146107
 20
44.21102
 10
40.865107
 20
44.373255
 10
40.584107
 20
44.21102
  0
LWPOLYLINE
  5
4F4E
100
AcDbEntity
  8
0
 62
     7
100
AcDbPolyline
 90
        6
 70
     1
 43
0.0
 10
40.584085
 20
38.820645
 10
40.865085
 20
38.658409
 10
41.146085
 20
38.820645
 10
41.146085
 20
39.145116
 10
40.865085
 20
39.307351
 10
40.584085
 20
39.145116
  0
LINE
  5
4FE9
100
AcDbEntity
  8
0
 62
     7
100
AcDbLine
 10
51.603644
 20
42.337924
 30
0.0
 11
50.778288
 21
42.337924
 31
0.0
  0
LINE
  5
4FEA
100
AcDbEntity
  8
0
 62
     7
100
AcDbLine
 10
51.603644
 20
40.837924
 30
0.0
 11
50.778288
 21
40.837924
 31
0.0
  0
LINE
  5
4FEB
100
AcDbEntity
  8
0
 62
     7
100
AcDbLine
 10
50.946144
 20
43.936492
 30
0.0
 11
50.259394
 21
43.936492
 31
0.0
  0
LINE
  5
4FEC
100
AcDbEntity
  8
HID
 62
     7
100
AcDbLine
 10
50.946144
 20
43.973742
 30
0.0
 11
50.222144
 21
43.973742
 31
0.0
  0
LINE
  5
4FEE
100
AcDbEntity
  8
0
 62
     7
100
AcDbLine
 10
50.946144
 20
44.310192
 30
0.0
 11
50.259394
 21
44.310192
 31
0.0
  0
LINE
  5
4FEF
100
AcDbEntity
  8
HID
 62
     7
100
AcDbLine
 10
50.946144
 20
44.272942
 30
0.0
 11
50.222144
 21
44.272942
 31
0.0
  0
LINE
  5
4FF0
100
AcDbEntity
  8
0
 62
     7
100
AcDbLine
 10
50.946144
 20
38.871074
 30
0.0
 11
50.259394
 21
38.871074
 31
0.0
  0
LINE
  5
4FF1
100
AcDbEntity
  8
HID
 62
     7
100
AcDbLine
 10
50.946144
 20
38.908324
 30
0.0
 11
50.222144
 21
38.908324
 31
0.0
  0
LINE
  5
4FF3
100
AcDbEntity
  8
0
 62
     7
100
AcDbLine
 10
50.946144
 20
39.244774
 30
0.0
 11
50.259394
 21
39.244774
 31
0.0
  0
LINE
  5
4FF4
100
AcDbEntity
  8
HID
 62
     7
100
AcDbLine
 10
50.946144
 20
39.207524
 30
0.0
 11
50.222144
 21
39.207524
 31
0.0
  0
ARC
  5
500F
100
AcDbEntity
  8
0
 62
     7
100
AcDbCircle
 10
53.866642
 20
39.298802
 30
0.0
 40
0.111494
100
AcDbArc
 50
133.318449
 51
226.681551
  0
ARC
  5
5010
100
AcDbEntity
  8
0
 62
     7
100
AcDbCircle
 10
54.14857
 20
39.055449
 30
0.0
 40
0.393426
100
AcDbArc
 50
155.646489
 51
204.353511
  0
LINE
  5
5011
100
AcDbEntity
  8
0
 62
     7
100
AcDbLine
 10
53.960151
 20
39.37992
 30
0.0
 11
53.790151
 21
39.37992
 31
0.0
  0
LINE
  5
5012
100
AcDbEntity
  8
0
 62
     7
100
AcDbLine
 10
53.960151
 20
39.217684
 30
0.0
 11
53.790151
 21
39.217684
 31
0.0
  0
LINE
  5
5013
100
AcDbEntity
  8
0
 62
     7
100
AcDbLine
 10
53.995151
 20
39.299655
 30
0.0
 11
53.995151
 21
38.810322
 31
0.0
  0
ARC
  5
5014
100
AcDbEntity
  8
0
 62
     7
100
AcDbCircle
 10
53.88366
 20
39.298802
 30
0.0
 40
0.111494
100
AcDbArc
 50
313.318449
 51
46.681551
  0
ARC
  5
5015
100
AcDbEntity
  8
0
 62
     7
100
AcDbCircle
 10
53.601733
 20
39.055449
 30
0.0
 40
0.393426
100
AcDbArc
 50
335.646489
 51
24.353511
  0
ARC
  5
5016
100
AcDbEntity
  8
0
 62
     7
100
AcDbCircle
 10
53.866608
 20
38.812096
 30
0.0
 40
0.11147
100
AcDbArc
 50
133.305525
 51
226.694475
  0
LINE
  5
5017
100
AcDbEntity
  8
0
 62
     7
100
AcDbLine
 10
53.960151
 20
38.730978
 30
0.0
 11
53.790151
 21
38.730978
 31
0.0
  0
LINE
  5
5018
100
AcDbEntity
  8
0
 62
     7
100
AcDbLine
 10
53.960151
 20
38.893214
 30
0.0
 11
53.790151
 21
38.893214
 31
0.0
  0
ARC
  5
5019
100
AcDbEntity
  8
0
 62
     7
100
AcDbCircle
 10
53.883695
 20
38.812096
 30
0.0
 40
0.11147
100
AcDbArc
 50
313.305525
 51
46.694475
  0
LINE
  5
501C
100
AcDbEntity
  8
0
 62
     7
100
AcDbLine
 10
53.790151
 20
39.217684
 30
0.0
 11
53.790151
 21
38.893214
 31
0.0
  0
LINE
  5
501D
100
AcDbEntity
  8
0
 62
     7
100
AcDbLine
 10
50.222144
 20
44.272942
 30
0.0
 11
50.222144
 21
43.973742
 31
0.0
  0
LINE
  5
501E
100
AcDbEntity
  8
0
 62
     7
100
AcDbLine
 10
50.222144
 20
39.207524
 30
0.0
 11
50.222144
 21
38.908324
 31
0.0
  0
LINE
  5
5020
100
AcDbEntity
  8
0
 62
     7
100
AcDbLine
 10
50.222144
 20
44.272942
 30
0.0
 11
50.259394
 21
44.310192
 31
0.0
  0
LINE
  5
5021
100
AcDbEntity
  8
0
 62
     7
100
AcDbLine
 10
50.259394
 20
44.310192
 30
0.0
 11
50.259394
 21
43.936492
 31
0.0
  0
LINE
  5
5022
100
AcDbEntity
  8
0
 62
     7
100
AcDbLine
 10
50.222144
 20
43.973742
 30
0.0
 11
50.259394
 21
43.936492
 31
0.0
  0
LINE
  5
5023
100
AcDbEntity
  8
0
 62
     7
100
AcDbLine
 10
50.222144
 20
39.207524
 30
0.0
 11
50.259394
 21
39.244774
 31
0.0
  0
LINE
  5
5024
100
AcDbEntity
  8
0
 62
     7
100
AcDbLine
 10
50.259394
 20
39.244774
 30
0.0
 11
50.259394
 21
38.871074
 31
0.0
  0
LINE
  5
5025
100
AcDbEntity
  8
0
 62
     7
100
AcDbLine
 10
50.222144
 20
38.908324
 30
0.0
 11
50.259394
 21
38.871074
 31
0.0
  0
ELLIPSE
  5
69AE
102
{ACAD_REACTORS
330
69B9
102
}
100
AcDbEntity
  8
0
 62
     7
100
AcDbEllipse
 10
50.778288
 20
41.962924
 30
0.0
 11
0.0
 21
-0.375
 31
0.0
210
0.0
220
0.0
230
1.0
 40
0.498011
 41
0.0
 42
6.283185307179586
  0
ELLIPSE
  5
69AF
100
AcDbEntity
  8
0
 62
     7
100
AcDbEllipse
 10
50.778288
 20
41.212924
 30
0.0
 11
0.0
 21
-0.375
 31
0.0
210
0.0
220
0.0
230
1.0
 40
0.498011
 41
3.141592653589793
 42
6.283185307179586
  0
HATCH
  5
69B9
100
AcDbEntity
  8
0
 62
     7
100
AcDbHatch
 10
0.0
 20
0.0
 30
0.0
210
0.0
220
0.0
230
1.0
  2
ANSI37
 70
     0
 71
     1
 91
        1
 92
        5
 93
        1
 72
     3
 10
50.778288
 20
41.962924
 11
0.0
 21
-0.375
 40
0.498011
 50
0.0
 51
360.0
 73
     1
 97
        1
330
69AE
 75
     0
 76
     1
 52
0.0
 41
0.5
 77
     0
 78
     2
 53
45.0
 43
11.694053
 44
0.0
 45
-0.0441941738241592
 46
0.0441941738241592
 79
     0
 53
135.0
 43
11.694053
 44
0.0
 45
-0.0441941738241592
 46
-0.0441941738241592
 79
     0
 47
0.005588
 98
        1
 10
50.84874
 20
41.97975
  0
DIMENSION
  5
69BA
100
AcDbEntity
  8
DIM
 62
     7
100
AcDbDimension
  2
*D0
 10
49.885832
 20
42.337924
 30
0.0
 11
49.885832
 21
41.587924
 31
0.0
 12
11.694053
 22
0.0
 32
0.0
 70
    32
  1
0.625MIN\P1.375MAX
  3
STANDARD
100
AcDbAlignedDimension
 13
50.778288
 23
40.837924
 33
0.0
 14
51.603644
 24
42.337924
 34
0.0
 50
90.0
100
AcDbRotatedDimension
1001
ACAD
1000
DSTYLE
1002
{
1070
   140
1040
0.2
1070
   272
1070
     3
1070
     3
1000
%%C<>
1070
   287
1070
     5
1070
   271
1070
     3
1002
}
  0
LWPOLYLINE
  5
6FFD
100
AcDbEntity
  8
BORDER
 62
     7
100
AcDbPolyline
 90
        3
 70
     0
 43
0.01
 10
37.402434
 20
46.331525
 10
40.513625
 20
46.331525
 10
40.513625
 20
47.220437
  0
TEXT
  5
6FFE
100
AcDbEntity
  8
BORDER
 62
     7
100
AcDbText
 10
37.46721
 20
46.864872
 30
0.0
 40
0.042668
  1
IS THE CONFIDENTIAL PROPERTY OF DOVER FLEXO ELECTRONICS, NONE OF WHICH SHALL
 41
0.95
100
AcDbText
  0
TEXT
  5
6FFF
100
AcDbEntity
  8
BORDER
 62
     7
100
AcDbText
 10
37.46721
 20
46.775981
 30
0.0
 40
0.042668
  1
BE COPIED, REPRODUCED, DISCLOSED TO OTHERS, PUBLISHED OR USED IN WHOLE OR IN
 41
0.95
100
AcDbText
  0
TEXT
  5
7000
100
AcDbEntity
  8
BORDER
 62
     7
100
AcDbText
 10
37.46721
 20
46.68709
 30
0.0
 40
0.042668
  1
PART, FOR ANY PURPOSE OTHER THAN THAT FOR WHICH IT IS BEING MADE AVAILABLE
 41
0.95
100
AcDbText
  0
TEXT
  5
7001
100
AcDbEntity
  8
BORDER
 62
     7
100
AcDbText
 10
37.46721
 20
46.598199
 30
0.0
 40
0.042668
  1
WITHOUT THE EXPRESS ADVANCE WRITTEN PERMISSION OF A DULY AUTHORIZED AGENT
 41
0.95
100
AcDbText
  0
TEXT
  5
7002
100
AcDbEntity
  8
BORDER
 62
     7
100
AcDbText
 10
37.46721
 20
46.509307
 30
0.0
 40
0.042668
  1
OF THE COMPANY. THIS DOCUMENT IS THE PROPERTY OF DFE AND
 41
0.95
100
AcDbText
  0
TEXT
  5
7003
100
AcDbEntity
  8
BORDER
 62
     7
100
AcDbText
 10
37.46721
 20
46.420416
 30
0.0
 40
0.042668
  1
IS TO BE RETURNED TO THE COMPANY ON DEMAND.
 41
0.95
100
AcDbText
  0
TEXT
  5
7004
100
AcDbEntity
  8
BORDER
 62
     7
100
AcDbText
 10
37.46721
 20
46.953763
 30
0.0
 40
0.042668
  1
THE SUBJECT MATTER DISCLOSED HEREIN EMBODIES PROPRIETARY INFORMATION WHICH
 41
0.95
100
AcDbText
  0
TEXT
  5
7005
100
AcDbEntity
  8
BORDER
 62
     7
100
AcDbText
 10
38.235789
 20
47.098215
 30
0.0
 40
0.060446
  1
COMPANY CONFIDENTIAL
 41
1.25
100
AcDbText
  0
LINE
  5
7006
100
AcDbEntity
  8
BORDER
 62
     7
100
AcDbLine
 10
38.202455
 20
47.075992
 30
0.0
 11
39.713604
 21
47.075992
 31
0.0
  0
LINE
  5
7007
100
AcDbEntity
  8
BORDER
 62
     7
100
AcDbLine
 10
40.519181
 20
46.325971
 30
0.0
 11
40.519181
 21
47.220437
 31
0.0
  0
LINE
  5
7008
100
AcDbEntity
  8
BORDER
  6
CONTINUOUS
 62
     7
100
AcDbLine
 10
51.892555
 20
47.978651
 30
0.0
 11
51.892555
 21
47.233597
 31
0.0
  0
LINE
  5
7009
100
AcDbEntity
  8
BORDER
  6
CONTINUOUS
 62
     7
100
AcDbLine
 10
41.892555
 20
47.978651
 30
0.0
 11
41.892555
 21
47.233597
 31
0.0
  0
LINE
  5
700A
100
AcDbEntity
  8
BORDER
  6
CONTINUOUS
 62
     7
100
AcDbLine
 10
36.892555
 20
44.233597
 30
0.0
 11
37.392555
 21
44.233597
 31
0.0
  0
LINE
  5
700B
100
AcDbEntity
  8
BORDER
  6
CONTINUOUS
 62
     7
100
AcDbLine
 10
36.892555
 20
36.733597
 30
0.0
 11
37.392555
 21
36.733597
 31
0.0
  0
LINE
  5
700C
100
AcDbEntity
  8
BORDER
  6
CONTINUOUS
 62
     7
100
AcDbLine
 10
56.392555
 20
44.233597
 30
0.0
 11
56.892555
 21
44.233597
 31
0.0
  0
LINE
  5
700D
100
AcDbEntity
  8
BORDER
  6
CONTINUOUS
 62
     7
100
AcDbLine
 10
56.392555
 20
36.733597
 30
0.0
 11
56.892555
 21
36.733597
 31
0.0
  0
LINE
  5
700E
100
AcDbEntity
  8
BORDER
  6
CONTINUOUS
 62
     7
100
AcDbLine
 10
41.892555
 20
33.733597
 30
0.0
 11
41.892555
 21
32.993794
 31
0.0
  0
LINE
  5
700F
100
AcDbEntity
  8
BORDER
  6
CONTINUOUS
 62
     7
100
AcDbLine
 10
51.892555
 20
33.733597
 30
0.0
 11
51.892555
 21
32.993794
 31
0.0
  0
TEXT
  5
7010
100
AcDbEntity
  8
BORDER
  6
CONTINUOUS
 62
     7
100
AcDbText
 10
56.606945
 20
34.725288
 30
0.0
 40
0.18
  1
A
  7
TXT
 72
     1
 11
56.666945
 21
34.725288
 31
0.0
100
AcDbText
  0
TEXT
  5
7011
100
AcDbEntity
  8
BORDER
  6
CONTINUOUS
 62
     7
100
AcDbText
 10
56.606945
 20
38.393544
 30
0.0
 40
0.18
  1
B
  7
TXT
 72
     1
 11
56.666945
 21
38.393544
 31
0.0
100
AcDbText
  0
TEXT
  5
7012
100
AcDbEntity
  8
BORDER
  6
CONTINUOUS
 62
     7
100
AcDbText
 10
56.606945
 20
42.275071
 30
0.0
 40
0.18
  1
C
  7
TXT
 72
     1
 11
56.666945
 21
42.275071
 31
0.0
100
AcDbText
  0
TEXT
  5
7013
100
AcDbEntity
  8
BORDER
  6
CONTINUOUS
 62
     7
100
AcDbText
 10
56.606945
 20
46.113943
 30
0.0
 40
0.18
  1
D
  7
TXT
 72
     1
 11
56.666945
 21
46.113943
 31
0.0
100
AcDbText
  0
TEXT
  5
7014
100
AcDbEntity
  8
BORDER
  6
CONTINUOUS
 62
     7
100
AcDbText
 10
54.588165
 20
33.263486
 30
0.0
 40
0.18
  1
1
  7
TXT
 72
     1
 11
54.618165
 21
33.263486
 31
0.0
100
AcDbText
  0
TEXT
  5
7015
100
AcDbEntity
  8
BORDER
  6
CONTINUOUS
 62
     7
100
AcDbText
 10
49.478897
 20
33.263486
 30
0.0
 40
0.18
  1
2
  7
TXT
 72
     1
 11
49.538897
 21
33.263486
 31
0.0
100
AcDbText
  0
TEXT
  5
7016
100
AcDbEntity
  8
BORDER
  6
CONTINUOUS
 62
     7
100
AcDbText
 10
44.399628
 20
33.263486
 30
0.0
 40
0.18
  1
3
  7
TXT
 72
     1
 11
44.459628
 21
33.263486
 31
0.0
100
AcDbText
  0
TEXT
  5
7017
100
AcDbEntity
  8
BORDER
  6
CONTINUOUS
 62
     7
100
AcDbText
 10
39.405726
 20
33.263486
 30
0.0
 40
0.18
  1
4
  7
TXT
 72
     1
 11
39.465726
 21
33.263486
 31
0.0
100
AcDbText
  0
TEXT
  5
7018
100
AcDbEntity
  8
BORDER
  6
CONTINUOUS
 62
     7
100
AcDbText
 10
37.058165
 20
46.113943
 30
0.0
 40
0.18
  1
D
  7
TXT
 72
     1
 11
37.118165
 21
46.113943
 31
0.0
100
AcDbText
  0
TEXT
  5
7019
100
AcDbEntity
  8
BORDER
  6
CONTINUOUS
 62
     7
100
AcDbText
 10
37.058165
 20
42.275071
 30
0.0
 40
0.18
  1
C
  7
TXT
 72
     1
 11
37.118165
 21
42.275071
 31
0.0
100
AcDbText
  0
TEXT
  5
701A
100
AcDbEntity
  8
BORDER
  6
CONTINUOUS
 62
     7
100
AcDbText
 10
37.058165
 20
38.393544
 30
0.0
 40
0.18
  1
B
  7
TXT
 72
     1
 11
37.118165
 21
38.393544
 31
0.0
100
AcDbText
  0
TEXT
  5
701B
100
AcDbEntity
  8
BORDER
  6
CONTINUOUS
 62
     7
100
AcDbText
 10
37.058165
 20
34.725288
 30
0.0
 40
0.18
  1
A
  7
TXT
 72
     1
 11
37.118165
 21
34.725288
 31
0.0
100
AcDbText
  0
TEXT
  5
701C
100
AcDbEntity
  8
BORDER
  6
CONTINUOUS
 62
     7
100
AcDbText
 10
39.405726
 20
47.52153
 30
0.0
 40
0.18
  1
4
  7
TXT
 72
     1
 11
39.465726
 21
47.52153
 31
0.0
100
AcDbText
  0
TEXT
  5
701D
100
AcDbEntity
  8
BORDER
  6
CONTINUOUS
 62
     7
100
AcDbText
 10
44.399628
 20
47.52153
 30
0.0
 40
0.18
  1
3
  7
TXT
 72
     1
 11
44.459628
 21
47.52153
 31
0.0
100
AcDbText
  0
TEXT
  5
701E
100
AcDbEntity
  8
BORDER
  6
CONTINUOUS
 62
     7
100
AcDbText
 10
49.478897
 20
47.52153
 30
0.0
 40
0.18
  1
2
  7
TXT
 72
     1
 11
49.538897
 21
47.52153
 31
0.0
100
AcDbText
  0
TEXT
  5
701F
100
AcDbEntity
  8
BORDER
  6
CONTINUOUS
 62
     7
100
AcDbText
 10
54.618165
 20
47.52153
 30
0.0
 40
0.18
  1
1
  7
TXT
100
AcDbText
  0
LWPOLYLINE
  5
7021
100
AcDbEntity
  8
BORDER
  6
CONTINUOUS
 62
     7
100
AcDbPolyline
 90
        4
 70
     1
 43
0.01
 10
56.886805
 20
32.993794
 10
36.898329
 20
32.993794
 10
36.898329
 20
47.978651
 10
56.886805
 20
47.978651
  0
TEXT
  5
7022
100
AcDbEntity
  8
BORDER
 62
     7
100
AcDbText
 10
52.891639
 20
35.342882
 30
0.0
 40
0.1
  1
G.J.T.
 41
0.77
  7
ROMANS
 72
     1
 11
53.041972
 21
35.342882
 31
0.0
100
AcDbText
  0
TEXT
  5
7023
100
AcDbEntity
  8
BORDER
 62
     7
100
AcDbText
 10
49.937301
 20
35.526698
 30
0.0
 40
0.140581
  1
8231212A.DWG
  7
ROMANS
 72
     1
 11
50.720538
 21
35.526698
 31
0.0
100
AcDbText
  0
LINE
  5
7024
100
AcDbEntity
  8
BORDER
 62
     7
100
AcDbLine
 10
48.712894
 20
34.289311
 30
0.0
 11
50.157376
 21
34.289311
 31
0.0
  0
TEXT
  5
7025
100
AcDbEntity
  8
BORDER
 62
     7
100
AcDbText
 10
48.690672
 20
33.800409
 30
0.0
 40
0.060446
  1
ERANCING" ANSI Y14.5, 1982
 41
1.1
100
AcDbText
  0
TEXT
  5
7026
100
AcDbEntity
  8
BORDER
 62
     7
100
AcDbText
 10
48.868454
 20
34.311533
 30
0.0
 40
0.04409
  1
THIRD ANGLE PROJECTION
 41
1.25
100
AcDbText
  0
TEXT
  5
7027
100
AcDbEntity
  8
BORDER
 62
     7
100
AcDbText
 10
48.779563
 20
33.978191
 30
0.0
 40
0.060446
  1
SYMBOLS ARE IN ACCORDANCE
 41
0.95
100
AcDbText
  0
TEXT
  5
7028
100
AcDbEntity
  8
BORDER
 62
     7
100
AcDbText
 10
48.735117
 20
33.8893
 30
0.0
 40
0.060446
  1
WITH "DIMENSIONING & TOL-
100
AcDbText
  0
TEXT
  5
7029
100
AcDbEntity
  8
BORDER
 62
     7
100
AcDbText
 10
48.760554
 20
34.758055
 30
0.0
 40
0.060446
  1
SURFACE QUALITY SHALL BE
 41
0.95
100
AcDbText
  0
TEXT
  5
702A
100
AcDbEntity
  8
BORDER
 62
     7
100
AcDbText
 10
48.734648
 20
34.858799
 30
0.0
 40
0.060446
  1
UNLESS OTHERWISE SPECIFIED
 41
0.95
100
AcDbText
  0
TEXT
  5
702B
100
AcDbEntity
  8
BORDER
 62
     7
100
AcDbText
 10
48.724009
 20
35.199939
 30
0.0
 40
0.060446
  1
WORKMANSHIP SPECIFICATION
100
AcDbText
  0
TEXT
  5
702C
100
AcDbEntity
  8
BORDER
 62
     7
100
AcDbText
 10
48.724009
 20
35.299942
 30
0.0
 40
0.060446
  1
THIS ITEM SHALL CONFORM TO
 41
0.95
100
AcDbText
  0
LINE
  5
702D
100
AcDbEntity
  8
BORDER
 62
     7
100
AcDbLine
 10
49.357355
 20
34.412039
 30
0.0
 11
49.509743
 21
34.678713
 31
0.0
  0
TEXT
  5
702E
100
AcDbEntity
  8
BORDER
 62
     7
100
AcDbText
 10
48.557335
 20
34.607515
 30
0.0
 40
0.088891
  1
DATE
 50
90.0
 41
1.25
 72
     1
 11
48.557335
 21
34.811224
 31
0.0
100
AcDbText
  0
TEXT
  5
702F
100
AcDbEntity
  8
BORDER
 62
     7
100
AcDbText
 10
48.557335
 20
33.921618
 30
0.0
 40
0.088891
  1
ECO
 50
90.0
 41
1.25
 72
     1
 11
48.557335
 21
34.06977
 31
0.0
100
AcDbText
  0
LINE
  5
7030
100
AcDbEntity
  8
BORDER
 62
     7
100
AcDbLine
 10
49.101797
 20
34.178197
 30
0.0
 11
49.029567
 21
34.178197
 31
0.0
  0
LINE
  5
7031
100
AcDbEntity
  8
BORDER
 62
     7
100
AcDbLine
 10
49.124019
 20
34.155974
 30
0.0
 11
49.124019
 21
34.08375
 31
0.0
  0
LINE
  5
7032
100
AcDbEntity
  8
BORDER
 62
     7
100
AcDbLine
 10
49.146242
 20
34.178197
 30
0.0
 11
49.218465
 21
34.178197
 31
0.0
  0
LINE
  5
7033
100
AcDbEntity
  8
BORDER
 62
     7
100
AcDbLine
 10
49.124019
 20
34.200419
 30
0.0
 11
49.124019
 21
34.272644
 31
0.0
  0
LINE
  5
7034
100
AcDbEntity
  8
BORDER
 62
     7
100
AcDbLine
 10
49.124019
 20
34.167085
 30
0.0
 11
49.124019
 21
34.189308
 31
0.0
  0
LINE
  5
7035
100
AcDbEntity
  8
BORDER
 62
     7
100
AcDbLine
 10
49.112905
 20
34.178197
 30
0.0
 11
49.135127
 21
34.178197
 31
0.0
  0
CIRCLE
  5
7036
100
AcDbEntity
  8
BORDER
 62
     7
100
AcDbCircle
 10
49.124019
 20
34.178197
 30
0.0
 40
0.070275
  0
CIRCLE
  5
7037
100
AcDbEntity
  8
BORDER
 62
     7
100
AcDbCircle
 10
49.124019
 20
34.178197
 30
0.0
 40
0.031428
  0
LINE
  5
7038
100
AcDbEntity
  8
BORDER
 62
     7
100
AcDbLine
 10
49.546252
 20
34.178197
 30
0.0
 11
49.701812
 21
34.178197
 31
0.0
  0
LINE
  5
7039
100
AcDbEntity
  8
BORDER
 62
     7
100
AcDbLine
 10
49.346247
 20
34.178197
 30
0.0
 11
49.490692
 21
34.178197
 31
0.0
  0
LINE
  5
703A
100
AcDbEntity
  8
BORDER
 62
     7
100
AcDbLine
 10
49.412916
 20
34.144862
 30
0.0
 11
49.624029
 21
34.111528
 31
0.0
  0
LINE
  5
703B
100
AcDbEntity
  8
BORDER
 62
     7
100
AcDbLine
 10
49.412916
 20
34.211531
 30
0.0
 11
49.624029
 21
34.244865
 31
0.0
  0
LINE
  5
703C
100
AcDbEntity
  8
BORDER
 62
     7
100
AcDbLine
 10
49.412916
 20
34.211531
 30
0.0
 11
49.412916
 21
34.144862
 31
0.0
  0
LINE
  5
703D
100
AcDbEntity
  8
BORDER
 62
     7
100
AcDbLine
 10
49.507361
 20
34.178197
 30
0.0
 11
49.529584
 21
34.178197
 31
0.0
  0
LINE
  5
703E
100
AcDbEntity
  8
BORDER
 62
     7
100
AcDbLine
 10
49.624029
 20
34.244865
 30
0.0
 11
49.624029
 21
34.111528
 31
0.0
  0
TEXT
  5
703F
100
AcDbEntity
  8
BORDER
 62
     7
100
AcDbText
 10
49.305643
 20
34.517563
 30
0.0
 40
0.063
  1
32
  7
TXT
 72
     1
 11
49.358143
 21
34.517563
 31
0.0
100
AcDbText
  0
LINE
  5
7040
100
AcDbEntity
  8
BORDER
 62
     7
100
AcDbLine
 10
49.357355
 20
34.412039
 30
0.0
 11
49.281165
 21
34.545376
 31
0.0
  0
TEXT
  5
7041
100
AcDbEntity
  8
BORDER
 62
     7
100
AcDbText
 10
49.001791
 20
35.088825
 30
0.0
 40
0.071113
  1
821-0338
 41
1.25
100
AcDbText
  0
TEXT
  5
7042
100
AcDbEntity
  8
BORDER
 62
     7
100
AcDbText
 10
48.735117
 20
35.622678
 30
0.0
 40
0.060446
  1
FILE STORAGE NAME:
100
AcDbText
  0
TEXT
  5
7043
100
AcDbEntity
  8
BORDER
 62
     7
100
AcDbText
 10
48.557335
 20
35.322823
 30
0.0
 40
0.088891
  1
REV
 50
90.0
 41
1.25
 72
     1
 11
48.557335
 21
35.489494
 31
0.0
100
AcDbText
  0
LINE
  5
7044
100
AcDbEntity
  8
BORDER
 62
     7
100
AcDbLine
 10
49.576411
 20
34.678713
 30
0.0
 11
49.443075
 21
34.678713
 31
0.0
  0
TEXT
  5
7045
100
AcDbEntity
  8
BORDER
 62
     7
100
AcDbText
 10
50.309764
 20
35.144147
 30
0.0
 40
0.060446
  1
SPECIFIED TOLERANCES ARE
 41
0.95
100
AcDbText
  0
TEXT
  5
7046
100
AcDbEntity
  8
BORDER
 62
     7
100
AcDbText
 10
50.290712
 20
33.978191
 30
0.0
 40
0.060446
  1
DIMENSIONS ARE IN INCHES
100
AcDbText
  0
TEXT
  5
7047
100
AcDbEntity
  8
BORDER
 62
     7
100
AcDbText
 10
50.312935
 20
34.111528
 30
0.0
 40
0.04409
  1
APPLY AFTER PLATING OR COATING
100
AcDbText
  0
LINE
  5
7048
100
AcDbEntity
  8
BORDER
 62
     7
100
AcDbLine
 10
50.938974
 20
34.993527
 30
0.0
 11
50.938974
 21
34.608096
 31
0.0
  0
TEXT
  5
7049
100
AcDbEntity
  8
BORDER
 62
     7
100
AcDbText
 10
51.321898
 20
34.613266
 30
0.0
 40
0.063
  1
.10
  7
TXT
100
AcDbText
  0
TEXT
  5
704A
100
AcDbEntity
  8
BORDER
 62
     7
100
AcDbText
 10
50.698482
 20
34.613266
 30
0.0
 40
0.063
  1
.005
  7
TXT
100
AcDbText
  0
TEXT
  5
704B
100
AcDbEntity
  8
BORDER
 62
     7
100
AcDbText
 10
50.312935
 20
34.61491
 30
0.0
 40
0.066846
  1
.XXX
100
AcDbText
  0
TEXT
  5
704C
100
AcDbEntity
  8
BORDER
 62
     7
100
AcDbText
 10
50.446272
 20
33.800409
 30
0.0
 40
0.060446
  1
DO NOT SCALE PRINT.
100
AcDbText
  0
TEXT
  5
704D
100
AcDbEntity
  8
BORDER
 62
     7
100
AcDbText
 10
50.601831
 20
33.8893
 30
0.0
 40
0.060446
  1
AND / OR (MM).
100
AcDbText
  0
TEXT
  5
704E
100
AcDbEntity
  8
BORDER
 62
     7
100
AcDbText
 10
50.357381
 20
34.200419
 30
0.0
 40
0.04409
  1
SURFACE TEXTURE DESIGNATIONS
100
AcDbText
  0
TEXT
  5
704F
100
AcDbEntity
  8
BORDER
 62
     7
100
AcDbText
 10
50.468495
 20
34.289311
 30
0.0
 40
0.04409
  1
DIMENSIONAL LIMITS AND
100
AcDbText
  0
ARC
  5
7050
100
AcDbEntity
  8
BORDER
 62
     7
100
AcDbCircle
 10
50.334852
 20
34.459621
 30
0.0
 40
0.074056
100
AcDbArc
 50
345.5425
 51
56.88544
  0
LINE
  5
7051
100
AcDbEntity
  8
BORDER
 62
     7
100
AcDbLine
 10
50.309671
 20
34.450175
 30
0.0
 11
50.423985
 21
34.526383
 31
0.0
  0
LINE
  5
7052
100
AcDbEntity
  8
BORDER
 62
     7
100
AcDbLine
 10
50.309671
 20
34.450175
 30
0.0
 11
50.443008
 21
34.450175
 31
0.0
  0
LINE
  5
7053
100
AcDbEntity
  8
BORDER
 62
     7
100
AcDbLine
 10
50.557386
 20
34.626021
 30
0.0
 11
50.624054
 21
34.626021
 31
0.0
  0
TEXT
  5
7054
100
AcDbEntity
  8
BORDER
 62
     7
100
AcDbText
 10
50.899476
 20
34.45344
 30
0.0
 40
0.063
  1
1.0
  7
TXT
100
AcDbText
  0
LINE
  5
7055
100
AcDbEntity
  8
BORDER
 62
     7
100
AcDbLine
 10
50.798331
 20
34.461286
 30
0.0
 11
50.864999
 21
34.461286
 31
0.0
  0
LINE
  5
7056
100
AcDbEntity
  8
BORDER
 62
     7
100
AcDbLine
 10
50.831662
 20
34.472397
 30
0.0
 11
50.831662
 21
34.516843
 31
0.0
  0
LINE
  5
7057
100
AcDbEntity
  8
BORDER
 62
     7
100
AcDbLine
 10
50.798331
 20
34.49462
 30
0.0
 11
50.864999
 21
34.49462
 31
0.0
  0
TEXT
  5
7058
100
AcDbEntity
  8
BORDER
 62
     7
100
AcDbText
 10
51.05941
 20
34.521937
 30
0.0
 40
0.063
  1
o
  7
TXT
100
AcDbText
  0
LINE
  5
7059
100
AcDbEntity
  8
BORDER
 62
     7
100
AcDbLine
 10
51.090733
 20
34.626021
 30
0.0
 11
51.157401
 21
34.626021
 31
0.0
  0
TEXT
  5
705A
100
AcDbEntity
  8
BORDER
 62
     7
100
AcDbText
 10
50.698482
 20
34.756783
 30
0.0
 40
0.063
  1
.02
  7
TXT
100
AcDbText
  0
TEXT
  5
705B
100
AcDbEntity
  8
BORDER
 62
     7
100
AcDbText
 10
50.698482
 20
34.900301
 30
0.0
 40
0.063
  1
.04
  7
TXT
100
AcDbText
  0
TEXT
  5
705C
100
AcDbEntity
  8
BORDER
 62
     7
100
AcDbText
 10
50.523003
 20
35.046714
 30
0.0
 40
0.060446
  1
INCHES
100
AcDbText
  0
TEXT
  5
705D
100
AcDbEntity
  8
BORDER
 62
     7
100
AcDbText
 10
50.517001
 20
35.244891
 30
0.0
 40
0.060446
  1
UNLESS OTHERWISE
 41
0.95
100
AcDbText
  0
TEXT
  5
705E
100
AcDbEntity
  8
BORDER
 62
     7
100
AcDbText
 10
50.312935
 20
34.760075
 30
0.0
 40
0.066846
  1
.XX
100
AcDbText
  0
TEXT
  5
705F
100
AcDbEntity
  8
BORDER
 62
     7
100
AcDbText
 10
50.312935
 20
34.903592
 30
0.0
 40
0.066846
  1
.X
100
AcDbText
  0
LINE
  5
7060
100
AcDbEntity
  8
BORDER
 62
     7
100
AcDbLine
 10
50.557386
 20
34.914703
 30
0.0
 11
50.624054
 21
34.914703
 31
0.0
  0
LINE
  5
7061
100
AcDbEntity
  8
BORDER
 62
     7
100
AcDbLine
 10
50.557386
 20
34.659355
 30
0.0
 11
50.624054
 21
34.659355
 31
0.0
  0
LINE
  5
7062
100
AcDbEntity
  8
BORDER
 62
     7
100
AcDbLine
 10
50.557386
 20
34.80452
 30
0.0
 11
50.624054
 21
34.80452
 31
0.0
  0
LINE
  5
7063
100
AcDbEntity
  8
BORDER
 62
     7
100
AcDbLine
 10
50.557386
 20
34.771186
 30
0.0
 11
50.624054
 21
34.771186
 31
0.0
  0
LINE
  5
7064
100
AcDbEntity
  8
BORDER
 62
     7
100
AcDbLine
 10
50.590724
 20
34.637133
 30
0.0
 11
50.590724
 21
34.681578
 31
0.0
  0
LINE
  5
7065
100
AcDbEntity
  8
BORDER
 62
     7
100
AcDbLine
 10
50.590724
 20
34.782297
 30
0.0
 11
50.590724
 21
34.826743
 31
0.0
  0
LINE
  5
7066
100
AcDbEntity
  8
BORDER
 62
     7
100
AcDbLine
 10
50.557386
 20
34.948038
 30
0.0
 11
50.624054
 21
34.948038
 31
0.0
  0
LINE
  5
7067
100
AcDbEntity
  8
BORDER
 62
     7
100
AcDbLine
 10
50.590724
 20
34.925815
 30
0.0
 11
50.590724
 21
34.97026
 31
0.0
  0
LINE
  5
7068
100
AcDbEntity
  8
BORDER
 62
     7
100
AcDbLine
 10
51.090733
 20
34.914703
 30
0.0
 11
51.157401
 21
34.914703
 31
0.0
  0
LINE
  5
7069
100
AcDbEntity
  8
BORDER
 62
     7
100
AcDbLine
 10
51.124071
 20
34.637133
 30
0.0
 11
51.124071
 21
34.681578
 31
0.0
  0
LINE
  5
706A
100
AcDbEntity
  8
BORDER
 62
     7
100
AcDbLine
 10
51.124071
 20
34.782297
 30
0.0
 11
51.124071
 21
34.826743
 31
0.0
  0
LINE
  5
706B
100
AcDbEntity
  8
BORDER
 62
     7
100
AcDbLine
 10
51.090733
 20
34.659355
 30
0.0
 11
51.157401
 21
34.659355
 31
0.0
  0
LINE
  5
706C
100
AcDbEntity
  8
BORDER
 62
     7
100
AcDbLine
 10
51.090733
 20
34.771186
 30
0.0
 11
51.157401
 21
34.771186
 31
0.0
  0
LINE
  5
706D
100
AcDbEntity
  8
BORDER
 62
     7
100
AcDbLine
 10
51.090733
 20
34.80452
 30
0.0
 11
51.157401
 21
34.80452
 31
0.0
  0
LINE
  5
706E
100
AcDbEntity
  8
BORDER
 62
     7
100
AcDbLine
 10
51.090733
 20
34.948038
 30
0.0
 11
51.157401
 21
34.948038
 31
0.0
  0
LINE
  5
706F
100
AcDbEntity
  8
BORDER
 62
     7
100
AcDbLine
 10
51.124071
 20
34.925815
 30
0.0
 11
51.124071
 21
34.97026
 31
0.0
  0
TEXT
  5
7070
100
AcDbEntity
  8
BORDER
 62
     7
100
AcDbText
 10
51.321898
 20
34.900301
 30
0.0
 40
0.063
  1
1.0
  7
TXT
100
AcDbText
  0
TEXT
  5
7071
100
AcDbEntity
  8
BORDER
 62
     7
100
AcDbText
 10
51.321898
 20
34.756783
 30
0.0
 40
0.063
  1
.50
  7
TXT
100
AcDbText
  0
TEXT
  5
7072
100
AcDbEntity
  8
BORDER
 62
     7
100
AcDbText
 10
51.304655
 20
35.046714
 30
0.0
 40
0.060446
  1
(mm)
100
AcDbText
  0
TEXT
  5
7073
100
AcDbEntity
  8
BORDER
 62
     7
100
AcDbText
 10
51.717496
 20
33.937811
 30
0.0
 40
0.060446
  1
REF.
100
AcDbText
  0
TEXT
  5
7074
100
AcDbEntity
  8
BORDER
 62
     7
100
AcDbText
 10
52.712997
 20
34.067083
 30
0.0
 40
0.060446
  1
FINISH
100
AcDbText
  0
TEXT
  5
7075
100
AcDbEntity
  8
BORDER
 62
     7
100
AcDbText
 10
52.712997
 20
34.467093
 30
0.0
 40
0.060446
  1
MAT'L
100
AcDbText
  0
TEXT
  5
7076
100
AcDbEntity
  8
BORDER
 62
     7
100
AcDbText
 10
51.982482
 20
35.360191
 30
0.0
 40
0.060446
  1
USED ON
100
AcDbText
  0
TEXT
  5
7077
100
AcDbEntity
  8
BORDER
 62
     7
100
AcDbText
 10
52.712997
 20
35.213779
 30
0.0
 40
0.060446
  1
CHK
100
AcDbText
  0
TEXT
  5
7078
100
AcDbEntity
  8
BORDER
 62
     7
100
AcDbText
 10
52.801888
 20
34.644875
 30
0.0
 40
0.071113
  1
APP'D
 50
90.0
 41
1.25
100
AcDbText
  0
TEXT
  5
7079
100
AcDbEntity
  8
BORDER
 62
     7
100
AcDbText
 10
52.868556
 20
34.653764
 30
0.0
 40
0.060446
  1
REL
100
AcDbText
  0
TEXT
  5
707A
100
AcDbEntity
  8
BORDER
 62
     7
100
AcDbText
 10
52.868556
 20
34.840436
 30
0.0
 40
0.060446
  1
MFG
100
AcDbText
  0
TEXT
  5
707B
100
AcDbEntity
  8
BORDER
 62
     7
100
AcDbText
 10
52.868556
 20
35.027107
 30
0.0
 40
0.060446
  1
ENG
100
AcDbText
  0
TEXT
  5
707C
100
AcDbEntity
  8
BORDER
 62
     7
100
AcDbText
 10
52.712997
 20
35.40045
 30
0.0
 40
0.060446
  1
DR
100
AcDbText
  0
TEXT
  5
707D
100
AcDbEntity
  8
BORDER
 62
     7
100
AcDbText
 10
56.195562
 20
34.080163
 30
0.0
 40
0.15
  1
1
 41
0.77
  7
ROMANS
 72
     1
 11
56.242312
 21
34.080163
 31
0.0
100
AcDbText
  0
TEXT
  5
707E
100
AcDbEntity
  8
BORDER
 62
     7
100
AcDbText
 10
56.036921
 20
33.918958
 30
0.0
 40
0.053335
  1
REV
 41
1.5
100
AcDbText
  0
TEXT
  5
707F
100
AcDbEntity
  8
BORDER
 62
     7
100
AcDbText
 10
54.399813
 20
33.806084
 30
0.0
 40
0.15
  1
823-1212
 41
1.253536
  7
ROMANS
 72
     5
 11
55.859287
 21
33.806084
 31
0.0
100
AcDbText
  0
TEXT
  5
7080
100
AcDbEntity
  8
BORDER
 62
     7
100
AcDbText
 10
54.133393
 20
35.211989
 30
0.0
 40
0.044446
  1
217 PICKERING RD.
 41
0.9
100
AcDbText
  0
TEXT
  5
7081
100
AcDbEntity
  8
BORDER
 62
     7
100
AcDbText
 10
54.481901
 20
34.173969
 30
0.0
 40
0.069807
  1
SCALE:
  7
ROMANS
100
AcDbText
  0
TEXT
  5
7082
100
AcDbEntity
  8
BORDER
 62
     7
100
AcDbText
 10
54.128587
 20
35.342627
 30
0.0
 40
0.106669
  1
DOVER FLEXO ELECTRONICS
 41
0.9
  7
ROMANC
100
AcDbText
  0
TEXT
  5
7083
100
AcDbEntity
  8
BORDER
 62
     7
100
AcDbText
 10
54.104463
 20
33.908844
 30
0.0
 40
0.060446
  1
DWG
100
AcDbText
  0
TEXT
  5
7084
100
AcDbEntity
  8
BORDER
 62
     7
100
AcDbText
 10
54.136123
 20
33.808101
 30
0.0
 40
0.060446
  1
NO
100
AcDbText
  0
TEXT
  5
7085
100
AcDbEntity
  8
BORDER
 62
     7
100
AcDbText
 10
54.141176
 20
34.211531
 30
0.0
 40
0.053335
  1
SIZE
 41
1.25
100
AcDbText
  0
TEXT
  5
7086
100
AcDbEntity
  8
BORDER
 62
     7
100
AcDbText
 10
54.185765
 20
34.067205
 30
0.0
 40
0.1
  1
C
  7
ROMANT
100
AcDbText
  0
TEXT
  5
7087
100
AcDbEntity
  8
BORDER
 62
     7
100
AcDbText
 10
53.351734
 20
35.342882
 30
0.0
 40
0.1
  1
01/12/00
 41
0.856009
  7
ROMANS
 72
     5
 11
54.008008
 21
35.342882
 31
0.0
100
AcDbText
  0
TEXT
  5
7088
100
AcDbEntity
  8
BORDER
 62
     7
100
AcDbText
 10
54.09081
 20
35.067108
 30
0.0
 40
0.060446
  1
TITLE
100
AcDbText
  0
TEXT
  5
7089
100
AcDbEntity
  8
BORDER
 62
     4
100
AcDbText
 10
56.162471
 20
33.782824
 30
0.0
 40
0.105
  1

 41
0.77
  7
ROMANS
 72
     1
 11
56.162471
 21
33.782824
 31
0.0
100
AcDbText
  0
TEXT
  5
708A
100
AcDbEntity
  8
BORDER
 62
     7
100
AcDbText
 10
55.593286
 20
34.212729
 30
0.0
 40
0.060446
  1
SH
100
AcDbText
  0
TEXT
  5
708B
100
AcDbEntity
  8
BORDER
 62
     7
100
AcDbText
 10
55.789571
 20
34.080163
 30
0.0
 40
0.15
  1
1
 41
0.77
  7
ROMANS
 72
     1
 11
55.836321
 21
34.080163
 31
0.0
100
AcDbText
  0
TEXT
  5
708C
100
AcDbEntity
  8
BORDER
 62
     7
100
AcDbText
 10
56.045977
 20
34.212729
 30
0.0
 40
0.060446
  1
OF
100
AcDbText
  0
TEXT
  5
708D
100
AcDbEntity
  8
BORDER
 62
     7
100
AcDbText
 10
55.089421
 20
35.211701
 30
0.0
 40
0.044446
  1
ROCHESTER, N.H. 03867-4630  U.S.A.
 41
0.9
100
AcDbText
  0
LWPOLYLINE
  5
708E
100
AcDbEntity
  8
BORDER
 62
     7
100
AcDbPolyline
 90
        2
 70
     0
 43
0.01
 10
56.386805
 20
33.743794
 10
48.201652
 20
33.743794
  0
LWPOLYLINE
  5
708F
100
AcDbEntity
  8
BORDER
 62
     7
100
AcDbPolyline
 90
        2
 70
     0
 43
0.01
 10
56.386805
 20
33.743794
 10
56.386805
 20
35.868156
  0
LWPOLYLINE
  5
7090
100
AcDbEntity
  8
BORDER
 62
     7
100
AcDbPolyline
 90
        2
 70
     0
 43
0.01
 10
55.933414
 20
33.743794
 10
55.933414
 20
34.01143
  0
LWPOLYLINE
  5
7091
100
AcDbEntity
  8
BORDER
 62
     7
100
AcDbPolyline
 90
        2
 70
     0
 43
0.01
 10
55.512358
 20
34.295793
 10
55.512358
 20
34.01143
  0
LWPOLYLINE
  5
7092
100
AcDbEntity
  8
BORDER
 62
     7
100
AcDbPolyline
 90
        2
 70
     0
 43
0.01
 10
56.386805
 20
34.01143
 10
54.043407
 20
34.01143
  0
LWPOLYLINE
  5
7093
100
AcDbEntity
  8
BORDER
 62
     7
100
AcDbPolyline
 90
        2
 70
     0
 43
0.01
 10
56.386805
 20
34.295793
 10
54.043407
 20
34.295793
  0
LWPOLYLINE
  5
7094
100
AcDbEntity
  8
BORDER
 62
     7
100
AcDbPolyline
 90
        2
 70
     0
 43
0.01
 10
56.386805
 20
35.182338
 10
54.043407
 20
35.182338
  0
LWPOLYLINE
  5
7095
100
AcDbEntity
  8
BORDER
 62
     7
100
AcDbPolyline
 90
        2
 70
     0
 43
0.01
 10
54.445133
 20
34.295793
 10
54.445133
 20
34.01143
  0
LWPOLYLINE
  5
7096
100
AcDbEntity
  8
BORDER
 62
     7
100
AcDbPolyline
 90
        2
 70
     0
 43
0.01
 10
52.687585
 20
33.743794
 10
52.687585
 20
35.483429
  0
LWPOLYLINE
  5
7097
100
AcDbEntity
  8
BORDER
 62
     7
100
AcDbPolyline
 90
        2
 70
     0
 43
0.01
 10
51.666533
 20
35.115429
 10
54.043407
 20
35.115429
  0
LWPOLYLINE
  5
7098
100
AcDbEntity
  8
BORDER
 62
     7
100
AcDbPolyline
 90
        2
 70
     0
 43
0.01
 10
54.043407
 20
34.563429
 10
51.666533
 20
34.563429
  0
LWPOLYLINE
  5
7099
100
AcDbEntity
  8
BORDER
 62
     7
100
AcDbPolyline
 90
        2
 70
     0
 43
0.01
 10
52.687585
 20
34.228884
 10
51.666533
 20
34.228884
  0
LWPOLYLINE
  5
709A
100
AcDbEntity
  8
BORDER
 62
     7
100
AcDbPolyline
 90
        2
 70
     0
 43
0.01
 10
51.666533
 20
35.299429
 10
54.043407
 20
35.299429
  0
LWPOLYLINE
  5
709B
100
AcDbEntity
  8
BORDER
 62
     7
100
AcDbPolyline
 90
        2
 70
     0
 43
0.01
 10
53.311763
 20
34.563429
 10
53.311763
 20
35.483429
  0
LWPOLYLINE
  5
709C
100
AcDbEntity
  8
BORDER
 62
     7
100
AcDbPolyline
 90
        2
 70
     0
 43
0.01
 10
50.243756
 20
33.743794
 10
50.243756
 20
35.483429
  0
LWPOLYLINE
  5
709D
100
AcDbEntity
  8
BORDER
 62
     7
100
AcDbPolyline
 90
        2
 70
     0
 43
0.01
 10
56.386805
 20
35.483429
 10
48.645475
 20
35.483429
  0
LWPOLYLINE
  5
709E
100
AcDbEntity
  8
BORDER
 62
     7
100
AcDbPolyline
 90
        2
 70
     0
 43
0.01
 10
48.653593
 20
34.958974
 10
50.243756
 20
34.958974
  0
LWPOLYLINE
  5
709F
100
AcDbEntity
  8
BORDER
 62
     7
100
AcDbPolyline
 90
        2
 70
     0
 43
0.01
 10
56.386805
 20
35.715439
 10
47.990229
 20
35.715439
  0
LWPOLYLINE
  5
70A0
100
AcDbEntity
  8
BORDER
 62
     7
100
AcDbPolyline
 90
        2
 70
     0
 43
0.01
 10
47.990229
 20
34.37943
 10
51.666533
 20
34.37943
  0
LWPOLYLINE
  5
70A1
100
AcDbEntity
  8
BORDER
 62
     7
100
AcDbPolyline
 90
        2
 70
     0
 43
0.01
 10
47.990229
 20
35.264914
 10
48.645475
 20
35.264914
  0
LWPOLYLINE
  5
70A2
100
AcDbEntity
  8
BORDER
 62
     7
100
AcDbPolyline
 90
        2
 70
     0
 43
0.01
 10
52.848178
 20
34.563429
 10
52.848178
 20
35.115429
  0
LWPOLYLINE
  5
70A3
100
AcDbEntity
  8
BORDER
 62
     7
100
AcDbPolyline
 90
        2
 70
     0
 43
0.01
 10
54.043407
 20
34.747429
 10
52.848178
 20
34.747429
  0
LWPOLYLINE
  5
70A4
100
AcDbEntity
  8
BORDER
 62
     7
100
AcDbPolyline
 90
        2
 70
     0
 43
0.01
 10
54.043407
 20
34.931429
 10
52.848178
 20
34.931429
  0
LWPOLYLINE
  5
70A5
100
AcDbEntity
  8
BORDER
 62
     7
100
AcDbPolyline
 90
        2
 70
     0
 43
0.01
 10
52.687585
 20
34.931429
 10
51.666533
 20
34.931429
  0
LWPOLYLINE
  5
70A6
100
AcDbEntity
  8
BORDER
 62
     7
100
AcDbPolyline
 90
        2
 70
     0
 43
0.01
 10
54.043407
 20
34.165369
 10
52.687585
 20
34.165369
  0
LWPOLYLINE
  5
70A7
100
AcDbEntity
  8
BORDER
 62
     7
100
AcDbPolyline
 90
        2
 70
     0
 43
0.01
 10
52.687585
 20
34.399793
 10
51.666533
 20
34.399793
  0
LWPOLYLINE
  5
70A8
100
AcDbEntity
  8
BORDER
 62
     7
100
AcDbPolyline
 90
        2
 70
     0
 43
0.01
 10
52.687585
 20
34.044884
 10
51.666533
 20
34.044884
  0
LWPOLYLINE
  5
70A9
100
AcDbEntity
  8
BORDER
 62
     7
100
AcDbPolyline
 90
        2
 70
     0
 43
0.01
 10
48.645475
 20
34.074265
 10
51.666533
 20
34.074265
  0
TEXT
  5
70AA
100
AcDbEntity
  8
BORDER
 62
     7
100
AcDbText
 10
54.961908
 20
34.080163
 30
0.0
 40
0.15
  1
FULL
 41
0.77
  7
ROMANS
 72
     1
 11
55.173658
 21
34.080163
 31
0.0
100
AcDbText
  0
TEXT
  5
70AB
100
AcDbEntity
  8
BORDER
 62
     7
100
AcDbText
 10
54.824636
 20
34.385404
 30
0.0
 40
0.15
  1
BRAKES
 41
0.77
  7
ROMANS
 72
     1
 11
55.157386
 21
34.385404
 31
0.0
100
AcDbText
  0
TEXT
  5
70AC
100
AcDbEntity
  8
BORDER
 62
     7
100
AcDbText
 10
54.554659
 20
34.599072
 30
0.0
 40
0.15
  1
60 - SERIES
 41
0.77
  7
ROMANS
 72
     1
 11
55.148659
 21
34.599072
 31
0.0
100
AcDbText
  0
TEXT
  5
70AD
100
AcDbEntity
  8
BORDER
 62
     7
100
AcDbText
 10
54.368795
 20
34.812741
 30
0.0
 40
0.15
  1
OUTLINE DRAWING
 41
0.77
  7
ROMANS
 72
     1
 11
55.144295
 21
34.812741
 31
0.0
100
AcDbText
  0
LWPOLYLINE
  5
70AE
100
AcDbEntity
  8
BORDER
 62
     7
100
AcDbPolyline
 90
        2
 70
     0
 43
0.01
 10
48.645475
 20
35.715439
 10
48.645475
 20
33.743794
  0
LWPOLYLINE
  5
70AF
100
AcDbEntity
  8
BORDER
 62
     7
100
AcDbPolyline
 90
        2
 70
     0
 43
0.01
 10
48.385776
 20
35.715439
 10
48.385776
 20
33.743794
  0
TEXT
  5
70B0
100
AcDbEntity
  8
BORDER
 62
     7
100
AcDbText
 10
53.336431
 20
34.277103
 30
0.0
 40
0.15
  1
X
 41
0.77
  7
ROMANS
 72
     1
 11
53.391431
 21
34.277103
 31
0.0
100
AcDbText
  0
TEXT
  5
70B1
100
AcDbEntity
  8
BORDER
 62
     7
100
AcDbText
 10
53.254099
 20
33.883223
 30
0.0
 40
0.15
  1
N/A
 41
0.77
  7
ROMANS
 72
     1
 11
53.432849
 21
33.883223
 31
0.0
100
AcDbText
  0
LWPOLYLINE
  5
70B2
100
AcDbEntity
  8
BORDER
 62
     7
100
AcDbPolyline
 90
        2
 70
     0
 43
0.02
 10
46.894793
 20
47.4825
 10
46.894793
 20
47.3825
  0
SOLID
  5
70B3
100
AcDbEntity
  8
BORDER
 62
     7
100
AcDbTrace
 10
46.744793
 20
47.3825
 30
0.0
 11
47.044793
 21
47.3825
 31
0.0
 12
46.894793
 22
47.2325
 32
0.0
 13
46.894793
 23
47.2325
 33
0.0
  0
LWPOLYLINE
  5
70B4
100
AcDbEntity
  8
BORDER
 62
     7
100
AcDbPolyline
 90
        2
 70
     0
 43
0.02
 10
46.894305
 20
33.492062
 10
46.894305
 20
33.592062
  0
SOLID
  5
70B5
100
AcDbEntity
  8
BORDER
 62
     7
100
AcDbTrace
 10
46.744305
 20
33.592062
 30
0.0
 11
47.044305
 21
33.592062
 31
0.0
 12
46.894305
 22
33.742062
 32
0.0
 13
46.894305
 23
33.742062
 33
0.0
  0
SOLID
  5
70B6
100
AcDbEntity
  8
BORDER
 62
     7
100
AcDbTrace
 10
37.243892
 20
40.332804
 30
0.0
 11
37.243892
 21
40.632804
 31
0.0
 12
37.393892
 22
40.482804
 32
0.0
 13
37.393892
 23
40.482804
 33
0.0
  0
LWPOLYLINE
  5
70B7
100
AcDbEntity
  8
BORDER
 62
     7
100
AcDbPolyline
 90
        2
 70
     0
 43
0.02
 10
37.143892
 20
40.482804
 10
37.243892
 20
40.482804
  0
SOLID
  5
70B8
100
AcDbEntity
  8
BORDER
 62
     7
100
AcDbTrace
 10
56.536945
 20
40.334035
 30
0.0
 11
56.536945
 21
40.634035
 31
0.0
 12
56.386945
 22
40.484035
 32
0.0
 13
56.386945
 23
40.484035
 33
0.0
  0
LWPOLYLINE
  5
70B9
100
AcDbEntity
  8
BORDER
 62
     7
100
AcDbPolyline
 90
        2
 70
     0
 43
0.02
 10
56.636945
 20
40.484035
 10
56.536945
 20
40.484035
  0
LWPOLYLINE
  5
70BA
100
AcDbEntity
  8
BORDER
 62
     7
100
AcDbPolyline
 90
        2
 70
     0
 43
0.01
 10
51.666533
 20
35.715439
 10
51.666533
 20
33.743794
  0
LWPOLYLINE
  5
70BB
100
AcDbEntity
  8
BORDER
 62
     7
100
AcDbPolyline
 90
        2
 70
     0
 43
0.01
 10
54.043407
 20
35.715439
 10
54.043407
 20
33.743794
  0
TEXT
  5
70BC
100
AcDbEntity
  8
BORDER
 62
     4
100
AcDbText
 10
51.694124
 20
33.798274
 30
0.0
 40
0.1
  1

 41
1.447421
  7
ROMANS
 72
     5
 11
52.659071
 21
33.798274
 31
0.0
100
AcDbText
  0
TEXT
  5
70BD
100
AcDbEntity
  8
BORDER
 62
     4
100
AcDbText
 10
51.694124
 20
34.088016
 30
0.0
 40
0.1
  1

 41
0.776395
  7
ROMANS
 72
     5
 11
52.659071
 21
34.088016
 31
0.0
100
AcDbText
  0
TEXT
  5
70BE
100
AcDbEntity
  8
BORDER
 62
     4
100
AcDbText
 10
51.694124
 20
35.157064
 30
0.0
 40
0.1
  1

 41
0.750515
  7
ROMANS
 72
     5
 11
52.659071
 21
35.157064
 31
0.0
100
AcDbText
  0
LINE
  5
70BF
100
AcDbEntity
  8
BORDER
 62
     7
100
AcDbLine
 10
37.402434
 20
46.325971
 30
0.0
 11
40.519181
 21
46.325971
 31
0.0
  0
LINE
  5
70C0
100
AcDbEntity
  8
BORDER
 62
     7
100
AcDbLine
 10
52.687585
 20
34.747429
 30
0.0
 11
51.666533
 21
34.747429
 31
0.0
  0
TEXT
  5
70C1
100
AcDbEntity
  8
0
  6
CONTINUOUS
 62
     7
100
AcDbText
 10
75.795179
 20
35.407087
 30
0.0
 40
0.1
  1

  7
ROMANT
100
AcDbText
  0
TEXT
  5
70C2
100
AcDbEntity
  8
0
  6
CONTINUOUS
 62
     7
100
AcDbText
 10
75.457341
 20
35.161553
 30
0.0
 40
0.1
  1

  7
ROMANT
100
AcDbText
  0
TEXT
  5
70C3
100
AcDbEntity
  8
0
  6
CONTINUOUS
 62
     7
100
AcDbText
 10
76.296815
 20
34.639794
 30
0.0
 40
0.1
  1

  7
ROMANT
100
AcDbText
  0
LINE
  5
70DE
100
AcDbEntity
  8
BORDER
  6
CONTINUOUS
 62
     7
100
AcDbLine
 10
56.386805
 20
33.743794
 30
0.0
 11
37.398329
 21
33.743794
 31
0.0
  0
LINE
  5
70DF
100
AcDbEntity
  8
BORDER
  6
CONTINUOUS
 62
     7
100
AcDbLine
 10
37.398329
 20
33.743794
 30
0.0
 11
37.398329
 21
47.228651
 31
0.0
  0
LINE
  5
70E0
100
AcDbEntity
  8
BORDER
  6
CONTINUOUS
 62
     7
100
AcDbLine
 10
37.398329
 20
47.228651
 30
0.0
 11
56.386805
 21
47.228651
 31
0.0
  0
LINE
  5
70E1
100
AcDbEntity
  8
BORDER
  6
CONTINUOUS
 62
     7
100
AcDbLine
 10
56.386805
 20
47.228651
 30
0.0
 11
56.386805
 21
33.743794
 31
0.0
  0
DIMENSION
  5
70FA
100
AcDbEntity
  8
0
 62
     7
100
AcDbDimension
  2
*D1
 10
55.761088
 20
38.337924
 30
0.0
 11
55.761088
 21
41.587924
 31
0.0
 12
11.694053
 22
0.0
 32
0.0
 70
    32
  3
LIM000001
100
AcDbAlignedDimension
 13
54.557394
 23
44.837924
 33
0.0
 14
54.557394
 24
38.337924
 34
0.0
 50
90.0
100
AcDbRotatedDimension
1001
ACAD
1000
DSTYLE
1002
{
1070
   288
1070
     1
1070
   140
1040
0.125
1070
    48
1040
0.02
1070
   272
1070
     2
1070
     3
1000

1070
    72
1070
     0
1070
   147
1040
0.04
1070
   287
1070
     4
1070
    42
1040
0.08
1070
   271
1070
     2
1070
   141
1040
0.0
1070
    41
1040
0.125
1070
   285
1070
     4
1070
   286
1070
     4
1002
}
  0
DIMENSION
  5
7108
100
AcDbEntity
  8
0
 62
     7
100
AcDbDimension
  2
*D2
 10
50.946144
 20
45.841059
 30
0.0
 11
52.021144
 21
45.841059
 31
0.0
 12
11.694053
 22
0.0
 32
0.0
 70
    32
  3
LIM000001
100
AcDbAlignedDimension
 13
53.096144
 23
44.433342
 33
0.0
 14
50.946144
 24
44.433342
 34
0.0
100
AcDbRotatedDimension
1001
ACAD
1000
DSTYLE
1002
{
1070
   288
1070
     1
1070
   140
1040
0.125
1070
    48
1040
0.02
1070
   272
1070
     2
1070
     3
1000

1070
    72
1070
     0
1070
   147
1040
0.04
1070
   287
1070
     4
1070
    42
1040
0.08
1070
   271
1070
     2
1070
   141
1040
0.0
1070
    41
1040
0.125
1070
   285
1070
     4
1070
   286
1070
     4
1002
}
  0
DIMENSION
  5
712E
100
AcDbEntity
  8
DIM
 62
     7
100
AcDbDimension
  2
*D3
 10
50.259394
 20
43.404429
 30
0.0
 11
50.602769
 21
43.404429
 31
0.0
 12
11.694053
 22
0.0
 32
0.0
 70
    32
  3
LIM000001
100
AcDbAlignedDimension
 13
50.946144
 23
43.813342
 33
0.0
 14
50.259394
 24
43.936492
 34
0.0
100
AcDbRotatedDimension
1001
ACAD
1000
DSTYLE
1002
{
1070
   288
1070
     1
1070
   140
1040
0.125
1070
    48
1040
0.02
1070
   272
1070
     2
1070
     3
1000

1070
    72
1070
     0
1070
   147
1040
0.04
1070
   287
1070
     4
1070
    42
1040
0.08
1070
   271
1070
     2
1070
   141
1040
0.0
1070
    41
1040
0.125
1070
   285
1070
     4
1070
   286
1070
     4
1002
}
  0
DIMENSION
  5
713C
100
AcDbEntity
  8
DIM
 62
     7
100
AcDbDimension
  2
*D4
 10
55.088644
 20
37.406539
 30
0.0
 11
53.346144
 21
37.406539
 31
0.0
 12
11.694053
 22
0.0
 32
0.0
 70
    32
  3
LIM000001
100
AcDbAlignedDimension
 13
51.603644
 23
38.525424
 33
0.0
 14
55.088644
 24
38.525424
 34
0.0
100
AcDbRotatedDimension
1001
ACAD
1000
DSTYLE
1002
{
1070
   288
1070
     1
1070
   140
1040
0.125
1070
    48
1040
0.02
1070
   272
1070
     2
1070
     3
1000

1070
    72
1070
     0
1070
   147
1040
0.04
1070
   287
1070
     4
1070
    42
1040
0.08
1070
   271
1070
     2
1070
   141
1040
0.0
1070
    41
1040
0.125
1070
   285
1070
     4
1070
   286
1070
     4
1002
}
  0
DIMENSION
  5
714A
100
AcDbEntity
  8
DIM
 62
     7
100
AcDbDimension
  2
*D5
 10
49.697899
 20
38.747924
 30
0.0
 11
49.697899
 21
39.057924
 31
0.0
 12
11.694053
 22
0.0
 32
0.0
 70
    32
  3
LIM000001
100
AcDbAlignedDimension
 13
50.946144
 23
39.367924
 33
0.0
 14
50.946144
 24
38.747924
 34
0.0
 50
90.0
100
AcDbRotatedDimension
1001
ACAD
1000
DSTYLE
1002
{
1070
   288
1070
     1
1070
   140
1040
0.125
1070
    48
1040
0.02
1070
   272
1070
     2
1070
     3
1000

1070
    72
1070
     0
1070
   147
1040
0.04
1070
   287
1070
     4
1070
    42
1040
0.08
1070
   271
1070
     2
1070
   141
1040
0.0
1070
    41
1040
0.125
1070
   285
1070
     4
1070
   286
1070
     4
1002
}
  0
DIMENSION
  5
7158
100
AcDbEntity
  8
DIM
 62
     7
100
AcDbDimension
  2
*D6
 10
38.157497
 20
38.982902
 30
0.0
 11
38.157497
 21
41.515844
 31
0.0
 12
-7.799046
 22
-0.072081
 32
0.0
 70
    32
  3
LIM000001
100
AcDbAlignedDimension
 13
40.865149
 23
44.048786
 33
0.0
 14
40.865149
 24
38.982902
 34
0.0
 50
90.0
100
AcDbRotatedDimension
1001
ACAD
1000
DSTYLE
1002
{
1070
   288
1070
     1
1070
   140
1040
0.125
1070
    48
1040
0.02
1070
   272
1070
     2
1070
     3
1000

1070
    72
1070
     0
1070
   147
1040
0.04
1070
   287
1070
     4
1070
    42
1040
0.08
1070
   271
1070
     2
1070
   141
1040
0.0
1070
    41
1040
0.125
1070
   285
1070
     4
1070
   286
1070
     4
1002
}
  0
DIMENSION
  5
7166
100
AcDbEntity
  8
DIM
 62
     7
100
AcDbDimension
  2
*D7
 10
46.297644
 20
36.458784
 30
0.0
 11
43.581396
 21
36.458784
 31
0.0
 12
-7.799046
 22
-0.072081
 32
0.0
 70
    32
  3
LIM000001
100
AcDbAlignedDimension
 13
40.865149
 23
38.982902
 33
0.0
 14
46.297644
 24
38.982902
 34
0.0
100
AcDbRotatedDimension
1001
ACAD
1000
DSTYLE
1002
{
1070
   288
1070
     1
1070
   140
1040
0.125
1070
    48
1040
0.02
1070
   272
1070
     2
1070
     3
1000

1070
    72
1070
     0
1070
   147
1040
0.04
1070
   287
1070
     4
1070
    42
1040
0.08
1070
   271
1070
     2
1070
   141
1040
0.0
1070
    41
1040
0.125
1070
   285
1070
     4
1070
   286
1070
     4
1002
}
  0
DIMENSION
  5
7170
100
AcDbEntity
  8
DIM
 62
     7
100
AcDbDimension
  2
*D8
 10
43.581396
 20
41.515844
 30
0.0
 11
47.535598
 21
39.044112
 31
0.0
 12
-7.799046
 22
-0.072081
 32
0.0
 70
   164
  3
LIM000001
100
AcDbRadialDimension
 15
46.58786
 25
39.335254
 35
0.0
 40
0.0
1001
ACAD
1000
DSTYLE
1002
{
1070
   288
1070
     1
1070
   140
1040
0.125
1070
    48
1040
0.02
1070
     3
1000

1070
    72
1070
     0
1070
   147
1040
0.04
1070
   287
1070
     4
1070
    42
1040
0.08
1070
   141
1040
0.0
1070
    41
1040
0.125
1070
   285
1070
     4
1070
   286
1070
     4
1002
}
  0
ARC
  5
7173
100
AcDbEntity
  8
DIM
 62
     7
100
AcDbCircle
 10
43.581396
 20
41.515844
 30
0.0
 40
4.1
100
AcDbArc
 50
30.082536
 51
57.65805
  0
DIMENSION
  5
717F
100
AcDbEntity
  8
DIM
 62
     7
100
AcDbDimension
  2
*D9
 10
43.581396
 20
41.515844
 30
0.0
 11
47.249058
 21
44.940255
 31
0.0
 12
-7.799046
 22
-0.072081
 32
0.0
 70
   164
  3
LIM000001
100
AcDbRadialDimension
 15
46.109748
 25
44.743449
 35
0.0
 40
0.0
1001
ACAD
1000
DSTYLE
1002
{
1070
   288
1070
     1
1070
   140
1040
0.125
1070
    48
1040
0.02
1070
     3
1000

1070
    72
1070
     0
1070
   147
1040
0.04
1070
   287
1070
     4
1070
    42
1040
0.08
1070
   141
1040
0.0
1070
    41
1040
0.125
1070
   285
1070
     4
1070
   286
1070
     4
1002
}
  0
ARC
  5
719A
100
AcDbEntity
  8
DIM
  6
BORDER2
 62
     7
100
AcDbCircle
 10
43.763522
 20
44.810559
 30
0.0
 40
0.061492
100
AcDbArc
 50
302.526391
 51
231.145664
  0
ARC
  5
719D
100
AcDbEntity
  8
DIM
  6
BORDER2
 62
     7
100
AcDbCircle
 10
43.37024
 20
44.807786
 30
0.0
 40
0.061492
100
AcDbArc
 50
310.961753
 51
236.378501
  0
TEXT
  5
719E
100
AcDbEntity
  8
BORDER
 62
     7
100
AcDbText
 10
39.620725
 20
34.229697
 30
0.0
 40
0.15
  1
DISC/HUB WEIGHT = 9.1 LBS
 41
0.77
  7
ROMANS
 72
     1
 11
40.957225
 21
34.229697
 31
0.0
100
AcDbText
  0
TEXT
  5
719F
100
AcDbEntity
  8
BORDER
 62
     7
100
AcDbText
 10
39.628474
 20
34.523224
 30
0.0
 40
0.15
  1
MAXIMUM TORQUE = 1008 IN-LBS
 41
0.77
  7
ROMANS
 72
     1
 11
41.187724
 21
34.523224
 31
0.0
100
AcDbText
  0
TEXT
  5
71A0
100
AcDbEntity
  8
BORDER
 62
     7
100
AcDbText
 10
39.634417
 20
34.80078
 30
0.0
 40
0.15
  1
DISC/HUB INERTIA = 2.54 SLUG-IN
 41
0.77
  7
ROMANS
 72
     1
 11
41.243167
 21
34.80078
 31
0.0
100
AcDbText
  0
TEXT
  5
71A1
100
AcDbEntity
  8
BORDER
 62
     7
100
AcDbText
 10
40.474902
 20
35.358524
 30
0.0
 40
0.21
  1
SPECIFICATIONS
 41
0.77
  7
ROMANS
 72
     1
 11
41.406602
 21
35.358524
 31
0.0
100
AcDbText
  0
LINE
  5
71A2
100
AcDbEntity
  8
0
  6
CONTINUOUS
 62
     7
100
AcDbLine
 10
40.253417
 20
35.277854
 30
0.0
 11
42.518266
 21
35.277854
 31
0.0
  0
TEXT
  5
71AD
100
AcDbEntity
  8
BORDER
 62
     7
100
AcDbText
 10
39.62256
 20
33.944032
 30
0.0
 40
0.15
  1
SHIPPING WEIGHT = 22.5 LBS
 41
0.77
  7
ROMANS
 72
     1
 11
40.97281
 21
33.944032
 31
0.0
100
AcDbText
  0
TEXT
  5
71AE
100
AcDbEntity
  8
BORDER
 62
     7
100
AcDbText
 10
37.492322
 20
37.832862
 30
0.0
 40
0.15
  1
SECOND ACTUATOR
 41
0.77
  7
ROMANS
 72
     1
 11
38.317322
 21
37.832862
 31
0.0
100
AcDbText
  0
TEXT
  5
71AF
100
AcDbEntity
  8
BORDER
 62
     7
100
AcDbText
 10
37.482813
 20
37.562799
 30
0.0
 40
0.15
  1
ONLY USED ON
 41
0.77
  7
ROMANS
 72
     1
 11
38.159313
 21
37.562799
 31
0.0
100
AcDbText
  0
TEXT
  5
71B0
100
AcDbEntity
  8
BORDER
 62
     7
100
AcDbText
 10
37.708733
 20
37.326618
 30
0.0
 40
0.15
  1
64, 65, 66
 41
0.77
  7
ROMANS
 72
     1
 11
38.211983
 21
37.326618
 31
0.0
100
AcDbText
  0
LINE
  5
71B2
100
AcDbEntity
  8
PAD
 62
     7
100
AcDbLine
 10
53.661144
 20
39.461449
 30
0.0
 11
53.661144
 21
38.649449
 31
0.0
  0
LINE
  5
71B3
100
AcDbEntity
  8
PAD
 62
     7
100
AcDbLine
 10
53.755144
 20
39.397449
 30
0.0
 11
53.755144
 21
38.713449
 31
0.0
  0
LINE
  5
71B8
100
AcDbEntity
  8
PAD
 62
     7
100
AcDbLine
 10
53.661144
 20
39.461449
 30
0.0
 11
53.596144
 21
39.461449
 31
0.0
  0
LINE
  5
71B9
100
AcDbEntity
  8
PAD
 62
     7
100
AcDbLine
 10
53.661144
 20
38.649449
 30
0.0
 11
53.596144
 21
38.649449
 31
0.0
  0
LINE
  5
71C3
100
AcDbEntity
  8
PAD
 62
     7
100
AcDbLine
 10
53.755144
 20
38.713449
 30
0.0
 11
53.661144
 21
38.713449
 31
0.0
  0
LINE
  5
71C4
100
AcDbEntity
  8
PAD
 62
     7
100
AcDbLine
 10
53.755144
 20
39.397449
 30
0.0
 11
53.661144
 21
39.397449
 31
0.0
  0
LINE
  5
71C6
100
AcDbEntity
  8
BACKPL
 62
     7
100
AcDbLine
 10
53.981144
 20
39.352913
 30
0.0
 11
53.981144
 21
40.632514
 31
0.0
  0
LINE
  5
71C7
100
AcDbEntity
  8
OBJECT
 62
     7
100
AcDbLine
 10
53.981144
 20
39.352913
 30
0.0
 11
53.981144
 21
40.587924
 31
0.0
  0
ARC
  5
71CA
100
AcDbEntity
  8
0
 62
     7
100
AcDbCircle
 10
54.14857
 20
44.119462
 30
0.0
 40
0.393426
100
AcDbArc
 50
155.646489
 51
204.353511
  0
LINE
  5
71CB
100
AcDbEntity
  8
0
 62
     7
100
AcDbLine
 10
53.790151
 20
44.281697
 30
0.0
 11
53.790151
 21
43.957226
 31
0.0
  0
LINE
  5
71CC
100
AcDbEntity
  8
PAD
 62
     7
100
AcDbLine
 10
53.755144
 20
44.461462
 30
0.0
 11
53.755144
 21
43.777462
 31
0.0
  0
LINE
  5
71CD
100
AcDbEntity
  8
PAD
 62
     7
100
AcDbLine
 10
53.661144
 20
44.525462
 30
0.0
 11
53.661144
 21
43.713462
 31
0.0
  0
ARC
  5
71CE
100
AcDbEntity
  8
0
 62
     7
100
AcDbCircle
 10
53.866608
 20
43.876109
 30
0.0
 40
0.11147
100
AcDbArc
 50
133.305525
 51
226.694475
  0
LINE
  5
71CF
100
AcDbEntity
  8
0
 62
     7
100
AcDbLine
 10
53.960151
 20
43.794991
 30
0.0
 11
53.790151
 21
43.794991
 31
0.0
  0
LINE
  5
71D0
100
AcDbEntity
  8
0
 62
     7
100
AcDbLine
 10
53.960151
 20
43.957226
 30
0.0
 11
53.790151
 21
43.957226
 31
0.0
  0
LINE
  5
71D1
100
AcDbEntity
  8
PAD
 62
     7
100
AcDbLine
 10
53.755144
 20
43.777462
 30
0.0
 11
53.661144
 21
43.777462
 31
0.0
  0
ARC
  5
71D2
100
AcDbEntity
  8
0
 62
     7
100
AcDbCircle
 10
53.866642
 20
44.362815
 30
0.0
 40
0.111494
100
AcDbArc
 50
133.318449
 51
226.681551
  0
LINE
  5
71D3
100
AcDbEntity
  8
0
 62
     7
100
AcDbLine
 10
53.960151
 20
44.443933
 30
0.0
 11
53.790151
 21
44.443933
 31
0.0
  0
LINE
  5
71D4
100
AcDbEntity
  8
0
 62
     7
100
AcDbLine
 10
53.960151
 20
44.281697
 30
0.0
 11
53.790151
 21
44.281697
 31
0.0
  0
LINE
  5
71D5
100
AcDbEntity
  8
PAD
 62
     7
100
AcDbLine
 10
53.755144
 20
44.461462
 30
0.0
 11
53.661144
 21
44.461462
 31
0.0
  0
LINE
  5
71D6
100
AcDbEntity
  8
PAD
 62
     7
100
AcDbLine
 10
53.661144
 20
44.525462
 30
0.0
 11
53.596144
 21
44.525462
 31
0.0
  0
LINE
  5
71D7
100
AcDbEntity
  8
PAD
 62
     7
100
AcDbLine
 10
53.661144
 20
43.713462
 30
0.0
 11
53.596144
 21
43.713462
 31
0.0
  0
ARC
  5
71D8
100
AcDbEntity
  8
0
 62
     7
100
AcDbCircle
 10
53.883695
 20
43.876109
 30
0.0
 40
0.11147
100
AcDbArc
 50
313.305525
 51
46.694475
  0
LINE
  5
71D9
100
AcDbEntity
  8
0
 62
     7
100
AcDbLine
 10
53.995151
 20
44.363668
 30
0.0
 11
53.995151
 21
43.874335
 31
0.0
  0
ARC
  5
71DA
100
AcDbEntity
  8
0
 62
     7
100
AcDbCircle
 10
53.601733
 20
44.119462
 30
0.0
 40
0.393426
100
AcDbArc
 50
335.646489
 51
24.353511
  0
ARC
  5
71DB
100
AcDbEntity
  8
0
 62
     7
100
AcDbCircle
 10
53.88366
 20
44.362815
 30
0.0
 40
0.111494
100
AcDbArc
 50
313.318449
 51
46.681551
  0
LINE
  5
71DC
100
AcDbEntity
  8
BACKPL
 62
     7
100
AcDbLine
 10
53.981144
 20
43.821985
 30
0.0
 11
53.981144
 21
42.543335
 31
0.0
  0
DIMENSION
  5
71EC
100
AcDbEntity
  8
DIM
  6
0
 62
     7
100
AcDbDimension
  2
*D10
 10
50.946144
 20
36.765924
 30
0.0
 11
53.017394
 21
36.765924
 31
0.0
 12
11.694053
 22
0.0
 32
0.0
 70
    32
  3
LIM000001
100
AcDbAlignedDimension
 13
55.088644
 23
38.525424
 33
0.0
 14
50.946144
 24
38.747924
 34
0.0
100
AcDbRotatedDimension
1001
ACAD
1000
DSTYLE
1002
{
1070
   288
1070
     1
1070
   140
1040
0.125
1070
    48
1040
0.02
1070
     3
1000

1070
    72
1070
     0
1070
   147
1040
0.04
1070
   287
1070
     4
1070
    42
1040
0.08
1070
   141
1040
0.0
1070
    41
1040
0.125
1070
   285
1070
     4
1070
   286
1070
     4
1002
}
  0
TEXT
  5
7205
100
AcDbEntity
  8
BORDER
 62
     7
100
AcDbText
 10
42.919538
 20
34.927609
 30
0.0
 40
0.12
  1
2
 41
0.77
  7
ROMANS
 72
     1
 11
42.963538
 21
34.927609
 31
0.0
100
AcDbText
  0
TEXT
  5
7207
100
AcDbEntity
  8
BORDER
 62
     7
100
AcDbText
 10
48.336481
 20
33.926999
 30
0.0
 40
0.088891
  1
966
 50
90.0
 41
1.25
 72
     1
 11
48.336481
 21
34.075151
 31
0.0
100
AcDbText
  0
TEXT
  5
7208
100
AcDbEntity
  8
BORDER
 62
     7
100
AcDbText
 10
48.336481
 20
34.427707
 30
0.0
 40
0.088891
  1
01/25/20
 50
90.0
 41
1.25
 72
     1
 11
48.336481
 21
34.816606
 31
0.0
100
AcDbText
  0
TEXT
  5
7209
100
AcDbEntity
  8
BORDER
 62
     2
100
AcDbText
 10
48.336481
 20
35.494875
 30
0.0
 40
0.088891
  1

 50
90.0
 41
1.25
 72
     1
 11
48.336481
 21
35.494875
 31
0.0
100
AcDbText
  0
LWPOLYLINE
  5
720A
100
AcDbEntity
  8
BORDER
 62
     7
100
AcDbPolyline
 90
        2
 70
     0
 43
0.01
 10
48.191856
 20
35.726202
 10
48.191856
 20
33.754557
  0
CIRCLE
  5
721E
100
AcDbEntity
  8
DIM
  6
0
 62
     7
100
AcDbCircle
 10
46.297644
 20
38.982902
 30
0.0
 40
0.3415
  0
CIRCLE
  5
721F
100
AcDbEntity
  8
DIM
  6
0
 62
     7
100
AcDbCircle
 10
46.297644
 20
38.982902
 30
0.0
 40
0.406
  0
ARC
  5
7220
100
AcDbEntity
  8
OBJECT
 62
     7
100
AcDbCircle
 10
43.581396
 20
41.515844
 30
0.0
 40
4.1
100
AcDbArc
 50
138.848018
 51
142.775735
  0
CIRCLE
  5
7221
100
AcDbEntity
  8
DIM
  6
0
 62
     7
100
AcDbCircle
 10
46.297644
 20
44.048786
 30
0.0
 40
0.406
  0
CIRCLE
  5
7222
100
AcDbEntity
  8
DIM
  6
0
 62
     7
100
AcDbCircle
 10
46.297644
 20
44.048786
 30
0.0
 40
0.3415
  0
ARC
  5
7223
100
AcDbEntity
  8
OBJECT
 62
     7
100
AcDbCircle
 10
43.581396
 20
41.515844
 30
0.0
 40
4.1
100
AcDbArc
 50
224.848018
 51
229.491512
  0
CIRCLE
  5
7224
100
AcDbEntity
  8
DIM
  6
0
 62
     7
100
AcDbCircle
 10
40.865149
 20
44.048786
 30
0.0
 40
0.3415
  0
CIRCLE
  5
7225
100
AcDbEntity
  8
DIM
  6
0
 62
     7
100
AcDbCircle
 10
40.865149
 20
44.048786
 30
0.0
 40
0.406
  0
ARC
  5
7226
100
AcDbEntity
  8
OBJECT
 62
     7
100
AcDbCircle
 10
43.581396
 20
41.515844
 30
0.0
 40
4.1
100
AcDbArc
 50
318.848018
 51
323.491512
  0
CIRCLE
  5
7227
100
AcDbEntity
  8
DIM
  6
0
 62
     7
100
AcDbCircle
 10
40.865149
 20
38.982902
 30
0.0
 40
0.406
  0
CIRCLE
  5
7228
100
AcDbEntity
  8
DIM
  6
0
 62
     7
100
AcDbCircle
 10
40.865149
 20
38.982902
 30
0.0
 40
0.3415
  0
ARC
  5
722A
100
AcDbEntity
  8
OBJECT
 62
     7
100
AcDbCircle
 10
43.581396
 20
41.515844
 30
0.0
 40
4.1
100
AcDbArc
 50
44.848018
 51
49.488924
  0
LINE
  5
722B
100
AcDbEntity
  8
DIM
  6
0
 62
     7
100
AcDbLine
 10
53.755783
 20
39.07787
 30
0.0
 11
53.661144
 21
39.122936
 31
0.0
  0
LINE
  5
722C
100
AcDbEntity
  8
DIM
  6
0
 62
     7
100
AcDbLine
 10
53.755783
 20
39.055328
 30
0.0
 11
53.661144
 21
39.100393
 31
0.0
  0
LINE
  5
722D
100
AcDbEntity
  8
DIM
  6
0
 62
     7
100
AcDbLine
 10
53.755724
 20
44.098195
 30
0.0
 11
53.661084
 21
44.143261
 31
0.0
  0
LINE
  5
722E
100
AcDbEntity
  8
DIM
  6
0
 62
     7
100
AcDbLine
 10
53.755724
 20
44.120738
 30
0.0
 11
53.661084
 21
44.165803
 31
0.0
  0
LINE
  5
725C
100
AcDbEntity
  8
0
  6
0
 62
     7
100
AcDbLine
 10
39.012994
 20
38.017582
 30
0.0
 11
39.194126
 21
38.017582
 31
0.0
  0
LINE
  5
725D
100
AcDbEntity
  8
0
  6
0
 62
     7
100
AcDbLine
 10
39.194126
 20
38.017582
 30
0.0
 11
39.194126
 21
37.233481
 31
0.0
  0
LINE
  5
725E
100
AcDbEntity
  8
0
  6
0
 62
     7
100
AcDbLine
 10
39.194126
 20
37.233481
 30
0.0
 11
38.969868
 21
37.233481
 31
0.0
  0
LINE
  5
725F
100
AcDbEntity
  8
0
  6
0
 62
     7
100
AcDbLine
 10
39.194126
 20
37.625532
 30
0.0
 11
39.521888
 21
37.625532
 31
0.0
  0
LEADER
  5
7260
100
AcDbEntity
  8
0
  6
0
 62
     7
100
AcDbLeader
  3
LIM000001
 76
     2
 10
40.494233
 20
38.817803
 30
0.0
 10
39.521888
 20
37.625532
 30
0.0
 77
     7
1001
ACAD
1000
DSTYLE
1002
{
1070
   288
1070
     1
1070
   140
1040
0.125
1070
    48
1040
0.02
1070
     3
1000

1070
    72
1070
     0
1070
   147
1040
0.04
1070
   287
1070
     4
1070
    42
1040
0.08
1070
   141
1040
0.0
1070
    41
1040
0.125
1070
   285
1070
     4
1070
   286
1070
     4
1002
}
  0
TEXT
  5
7262
100
AcDbEntity
  8
BORDER
 62
     7
100
AcDbText
 10
48.134854
 20
33.899221
 30
0.0
 40
0.088891
  1
1036
 50
90.0
 41
1.25
 72
     1
 11
48.134854
 21
34.075151
 31
0.0
100
AcDbText
  0
TEXT
  5
7263
100
AcDbEntity
  8
BORDER
 62
     7
100
AcDbText
 10
48.134854
 20
34.446226
 30
0.0
 40
0.088891
  1
07/10/00
 50
90.0
 41
1.25
 72
     1
 11
48.134854
 21
34.816606
 31
0.0
100
AcDbText
  0
LWPOLYLINE
  5
7264
100
AcDbEntity
  8
BORDER
 62
     7
100
AcDbPolyline
 90
        2
 70
     0
 43
0.01
 10
47.990229
 20
35.726202
 10
47.990229
 20
33.754557
  0
TEXT
  5
7265
100
AcDbEntity
  8
BORDER
 62
     7
100
AcDbText
 10
48.147296
 20
35.452456
 30
0.0
 40
0.088891
  1
A
 50
90.0
 41
1.25
 72
     1
 11
48.147296
 21
35.489494
 31
0.0
100
AcDbText
  0
TEXT
  5
7266
100
AcDbEntity
  8
BORDER
 62
     7
100
AcDbText
 10
56.116952
 20
33.778798
 30
0.0
 40
0.12
  1
A
 41
0.77
  7
ROMANS
 72
     1
 11
56.156552
 21
33.778798
 31
0.0
100
AcDbText
  0
ENDSEC
  0
SECTION
  2
OBJECTS
  0
DICTIONARY
  5
C
100
AcDbDictionary
  3
ACAD_GROUP
350
D
  3
ACAD_MLINESTYLE
350
1A
  3
ACDBVARIABLEDICTIONARY
350
6B
  0
DICTIONARY
  5
D
102
{ACAD_REACTORS
330
C
102
}
100
AcDbDictionary
  0
DICTIONARY
  5
1A
102
{ACAD_REACTORS
330
C
102
}
100
AcDbDictionary
  3
STANDARD
350
1B
  0
DICTIONARY
  5
6B
102
{ACAD_REACTORS
330
C
102
}
100
AcDbDictionary
  3
DIMADEC
350
6C
  3
SORTENTS
350
69B0
  0
MLINESTYLE
  5
1B
102
{ACAD_REACTORS
330
1A
102
}
100
AcDbMlineStyle
  2
STANDARD
 70
     0
  3

 62
   256
 51
90.0
 52
90.0
 71
     2
 49
0.5
 62
   256
  6
BYLAYER
 49
-0.5
 62
   256
  6
BYLAYER
  0
DICTIONARYVAR
  5
6C
102
{ACAD_REACTORS
330
6B
102
}
100
DictionaryVariables
280
     0
  1
0
  0
DICTIONARYVAR
  5
69B0
102
{ACAD_REACTORS
330
6B
102
}
100
DictionaryVariables
280
     0
  1
96
  0
ENDSEC
  0
EOF
