  0
SECTION
  2
HEADER
  9
$ACADVER
  1
AC1014
  9
$ACADMAINTVER
 70
     0
  9
$DWGCODEPAGE
  3
ANSI_1252
  9
$INSBASE
 10
0.0
 20
0.0
 30
0.0
  9
$EXTMIN
 10
-11.247576
 20
-10.656258
 30
0.0
  9
$EXTMAX
 10
38.752424
 20
26.830887
 30
0.0
  9
$LIMMIN
 10
0.0
 20
0.0
  9
$LIMMAX
 10
12.0
 20
9.0
  9
$ORTHOMODE
 70
     1
  9
$REGENMODE
 70
     1
  9
$FILLMODE
 70
     1
  9
$QTEXTMODE
 70
     0
  9
$MIRRTEXT
 70
     1
  9
$DRAGMODE
 70
     2
  9
$LTSCALE
 40
1.0
  9
$OSMODE
 70
    33
  9
$ATTMODE
 70
     1
  9
$TEXTSIZE
 40
0.2
  9
$TRACEWID
 40
0.05
  9
$TEXTSTYLE
  7
STANDARD
  9
$CLAYER
  8
0
  9
$CELTYPE
  6
BYLAYER
  9
$CECOLOR
 62
   256
  9
$CELTSCALE
 40
1.0
  9
$DELOBJ
 70
     1
  9
$DISPSILH
 70
     0
  9
$DIMSCALE
 40
1.0
  9
$DIMASZ
 40
0.18
  9
$DIMEXO
 40
0.063
  9
$DIMDLI
 40
0.38
  9
$DIMRND
 40
0.0
  9
$DIMDLE
 40
0.0
  9
$DIMEXE
 40
0.18
  9
$DIMTP
 40
0.0
  9
$DIMTM
 40
0.0
  9
$DIMTXT
 40
0.18
  9
$DIMCEN
 40
0.09
  9
$DIMTSZ
 40
0.0
  9
$DIMTOL
 70
     0
  9
$DIMLIM
 70
     0
  9
$DIMTIH
 70
     1
  9
$DIMTOH
 70
     1
  9
$DIMSE1
 70
     0
  9
$DIMSE2
 70
     0
  9
$DIMTAD
 70
     0
  9
$DIMZIN
 70
     0
  9
$DIMBLK
  1

  9
$DIMASO
 70
     1
  9
$DIMSHO
 70
     1
  9
$DIMPOST
  1

  9
$DIMAPOST
  1
mm
  9
$DIMALT
 70
     1
  9
$DIMALTD
 70
     1
  9
$DIMALTF
 40
25.4
  9
$DIMLFAC
 40
1.0
  9
$DIMTOFL
 70
     0
  9
$DIMTVP
 40
0.0
  9
$DIMTIX
 70
     1
  9
$DIMSOXD
 70
     0
  9
$DIMSAH
 70
     0
  9
$DIMBLK1
  1

  9
$DIMBLK2
  1

  9
$DIMSTYLE
  2
STANDARD
  9
$DIMCLRD
 70
     0
  9
$DIMCLRE
 70
     0
  9
$DIMCLRT
 70
     0
  9
$DIMTFAC
 40
1.0
  9
$DIMGAP
 40
0.09
  9
$DIMJUST
 70
     0
  9
$DIMSD1
 70
     0
  9
$DIMSD2
 70
     0
  9
$DIMTOLJ
 70
     1
  9
$DIMTZIN
 70
     0
  9
$DIMALTZ
 70
     0
  9
$DIMALTTZ
 70
     0
  9
$DIMFIT
 70
     5
  9
$DIMUPT
 70
     0
  9
$DIMUNIT
 70
     2
  9
$DIMDEC
 70
     2
  9
$DIMTDEC
 70
     2
  9
$DIMALTU
 70
     2
  9
$DIMALTTD
 70
     1
  9
$DIMTXSTY
  7
STANDARD
  9
$DIMAUNIT
 70
     0
  9
$LUNITS
 70
     2
  9
$LUPREC
 70
     2
  9
$SKETCHINC
 40
0.1
  9
$FILLETRAD
 40
0.0
  9
$AUNITS
 70
     0
  9
$AUPREC
 70
     2
  9
$MENU
  1
acad
  9
$ELEVATION
 40
0.0
  9
$PELEVATION
 40
0.0
  9
$THICKNESS
 40
0.0
  9
$LIMCHECK
 70
     0
  9
$BLIPMODE
 70
     1
  9
$CHAMFERA
 40
0.0
  9
$CHAMFERB
 40
0.0
  9
$CHAMFERC
 40
0.0
  9
$CHAMFERD
 40
0.0
  9
$SKPOLY
 70
     0
  9
$TDCREATE
 40
2450449.668120254
  9
$TDUPDATE
 40
2456133.582793321
  9
$TDINDWG
 40
0.4383173843
  9
$TDUSRTIMER
 40
0.4383173843
  9
$USRTIMER
 70
     1
  9
$ANGBASE
 50
0.0
  9
$ANGDIR
 70
     0
  9
$PDMODE
 70
     0
  9
$PDSIZE
 40
0.0
  9
$PLINEWID
 40
0.0
  9
$COORDS
 70
     0
  9
$SPLFRAME
 70
     0
  9
$SPLINETYPE
 70
     6
  9
$SPLINESEGS
 70
     8
  9
$ATTDIA
 70
     0
  9
$ATTREQ
 70
     1
  9
$HANDLING
 70
     1
  9
$HANDSEED
  5
26D83D
  9
$SURFTAB1
 70
     6
  9
$SURFTAB2
 70
     6
  9
$SURFTYPE
 70
     6
  9
$SURFU
 70
     6
  9
$SURFV
 70
     6
  9
$UCSNAME
  2

  9
$UCSORG
 10
0.0
 20
0.0
 30
0.0
  9
$UCSXDIR
 10
1.0
 20
0.0
 30
0.0
  9
$UCSYDIR
 10
0.0
 20
1.0
 30
0.0
  9
$PUCSNAME
  2

  9
$PUCSORG
 10
0.0
 20
0.0
 30
0.0
  9
$PUCSXDIR
 10
1.0
 20
0.0
 30
0.0
  9
$PUCSYDIR
 10
0.0
 20
1.0
 30
0.0
  9
$USERI1
 70
     0
  9
$USERI2
 70
     0
  9
$USERI3
 70
     0
  9
$USERI4
 70
     0
  9
$USERI5
 70
     0
  9
$USERR1
 40
0.0
  9
$USERR2
 40
0.0
  9
$USERR3
 40
0.0
  9
$USERR4
 40
0.0
  9
$USERR5
 40
0.0
  9
$WORLDVIEW
 70
     1
  9
$SHADEDGE
 70
     3
  9
$SHADEDIF
 70
    70
  9
$TILEMODE
 70
     1
  9
$MAXACTVP
 70
    16
  9
$PINSBASE
 10
0.0
 20
0.0
 30
0.0
  9
$PLIMCHECK
 70
     0
  9
$PEXTMIN
 10
1.000000E+20
 20
1.000000E+20
 30
1.000000E+20
  9
$PEXTMAX
 10
-1.000000E+20
 20
-1.000000E+20
 30
-1.000000E+20
  9
$PLIMMIN
 10
0.0
 20
0.0
  9
$PLIMMAX
 10
12.0
 20
9.0
  9
$UNITMODE
 70
     0
  9
$VISRETAIN
 70
     0
  9
$PLINEGEN
 70
     0
  9
$PSLTSCALE
 70
     1
  9
$TREEDEPTH
 70
  3020
  9
$PICKSTYLE
 70
     1
  9
$CMLSTYLE
  2
STANDARD
  9
$CMLJUST
 70
     0
  9
$CMLSCALE
 40
1.0
  9
$PROXYGRAPHICS
 70
     1
  9
$MEASUREMENT
 70
     0
  0
ENDSEC
  0
SECTION
  2
CLASSES
  0
CLASS
  1
LWPOLYLINE
  2
AcDbPolyline
  3
"AutoCAD"
 90
        0
280
     0
281
     1
  0
CLASS
  1
XRECORD
  2
AcDbXrecord
  3
"<Built In>"
 90
        0
280
     0
281
     0
  0
ENDSEC
  0
SECTION
  2
TABLES
  0
TABLE
  2
VPORT
  5
26CB43
100
AcDbSymbolTable
 70
     2
  0
VPORT
  5
26D83C
100
AcDbSymbolTableRecord
100
AcDbViewportTableRecord
  2
*ACTIVE
 70
     0
 10
0.0
 20
0.0
 11
1.0
 21
1.0
 12
6.928351
 22
11.300385
 13
0.0
 23
0.0
 14
1.0
 24
1.0
 15
0.0
 25
0.0
 16
0.0
 26
0.0
 36
1.0
 17
0.0
 27
0.0
 37
0.0
 40
11.405685
 41
2.402906
 42
50.0
 43
0.0
 44
0.0
 50
0.0
 51
0.0
 71
     0
 72
 10000
 73
     1
 74
     0
 75
     0
 76
     0
 77
     0
 78
     0
  0
ENDTAB
  0
TABLE
  2
LTYPE
  5
26CB40
100
AcDbSymbolTable
 70
     5
  0
LTYPE
  5
26CB4C
100
AcDbSymbolTableRecord
100
AcDbLinetypeTableRecord
  2
BYBLOCK
 70
     0
  3

 72
    65
 73
     0
 40
0.0
  0
LTYPE
  5
26CB4D
100
AcDbSymbolTableRecord
100
AcDbLinetypeTableRecord
  2
BYLAYER
 70
     0
  3

 72
    65
 73
     0
 40
0.0
  0
LTYPE
  5
26CB4E
100
AcDbSymbolTableRecord
100
AcDbLinetypeTableRecord
  2
CONTINUOUS
 70
     0
  3
Solid line
 72
    65
 73
     0
 40
0.0
  0
LTYPE
  5
26CC1D
100
AcDbSymbolTableRecord
100
AcDbLinetypeTableRecord
  2
HIDDEN
 70
     0
  3
__ __ __ __ __ __ __ __ __ __ __ __ __ __ __ __
 72
    65
 73
     2
 40
0.375
 49
0.25
 74
     0
 49
-0.125
 74
     0
  0
LTYPE
  5
26CC1F
100
AcDbSymbolTableRecord
100
AcDbLinetypeTableRecord
  2
PHANTOM2
 70
     0
  3
___ _ _ ___ _ _ ___ _ _ ___ _ _ ___ _ _ ___ _ _
 72
    65
 73
     6
 40
1.25
 49
0.625
 74
     0
 49
-0.125
 74
     0
 49
0.125
 74
     0
 49
-0.125
 74
     0
 49
0.125
 74
     0
 49
-0.125
 74
     0
  0
LTYPE
  5
26CC20
100
AcDbSymbolTableRecord
100
AcDbLinetypeTableRecord
  2
CENTER
 70
     0
  3
____ _ ____ _ ____ _ ____ _ ____ _ ____ _ ____ 
 72
    65
 73
     4
 40
2.0
 49
1.25
 74
     0
 49
-0.25
 74
     0
 49
0.25
 74
     0
 49
-0.25
 74
     0
  0
LTYPE
  5
26CC27
100
AcDbSymbolTableRecord
100
AcDbLinetypeTableRecord
  2
CENTER2
 70
     0
  3
___ _ ___ _ ___ _ ___ _ ___ _ ___ _ ___ _ ___ _
 72
    65
 73
     4
 40
1.125
 49
0.75
 74
     0
 49
-0.125
 74
     0
 49
0.125
 74
     0
 49
-0.125
 74
     0
  0
ENDTAB
  0
TABLE
  2
LAYER
  5
26CB3D
100
AcDbSymbolTable
 70
    16
  0
LAYER
  5
26CB49
100
AcDbSymbolTableRecord
100
AcDbLayerTableRecord
  2
0
 70
     0
 62
     7
  6
CONTINUOUS
  0
LAYER
  5
26CC3A
100
AcDbSymbolTableRecord
100
AcDbLayerTableRecord
  2
DEFPOINTS
 70
     0
 62
     7
  6
CONTINUOUS
  0
LAYER
  5
26CC3C
100
AcDbSymbolTableRecord
100
AcDbLayerTableRecord
  2
HIDDEN
 70
     0
 62
     2
  6
HIDDEN
  0
LAYER
  5
26CC3E
100
AcDbSymbolTableRecord
100
AcDbLayerTableRecord
  2
CTR
 70
     0
 62
     3
  6
CENTER2
  0
LAYER
  5
26CC3F
100
AcDbSymbolTableRecord
100
AcDbLayerTableRecord
  2
DIM
 70
     0
 62
     1
  6
CONTINUOUS
  0
LAYER
  5
26CC40
100
AcDbSymbolTableRecord
100
AcDbLayerTableRecord
  2
TEXT
 70
     0
 62
     4
  6
CONTINUOUS
  0
LAYER
  5
26CC42
100
AcDbSymbolTableRecord
100
AcDbLayerTableRecord
  2
BORDER
 70
     0
 62
     5
  6
CONTINUOUS
  0
LAYER
  5
26CC43
100
AcDbSymbolTableRecord
100
AcDbLayerTableRecord
  2
OBJWHEEL
 70
     0
 62
   190
  6
CONTINUOUS
  0
LAYER
  5
26CC44
100
AcDbSymbolTableRecord
100
AcDbLayerTableRecord
  2
CENTER
 70
     0
 62
     3
  6
CENTER
  0
LAYER
  5
26CC45
100
AcDbSymbolTableRecord
100
AcDbLayerTableRecord
  2
OBJNUT
 70
     0
 62
   160
  6
PHANTOM2
  0
LAYER
  5
26CC46
100
AcDbSymbolTableRecord
100
AcDbLayerTableRecord
  2
OBJHOUSING
 70
     0
 62
     6
  6
CONTINUOUS
  0
LAYER
  5
26CC47
100
AcDbSymbolTableRecord
100
AcDbLayerTableRecord
  2
OBJBEAM
 70
     0
 62
    30
  6
CONTINUOUS
  0
LAYER
  5
26CC48
100
AcDbSymbolTableRecord
100
AcDbLayerTableRecord
  2
ASHADE
 70
     0
 62
     7
  6
CONTINUOUS
  0
LAYER
  5
26CC4B
100
AcDbSymbolTableRecord
100
AcDbLayerTableRecord
  2
3
 70
     0
 62
     7
  6
CONTINUOUS
  0
LAYER
  5
26D09F
100
AcDbSymbolTableRecord
100
AcDbLayerTableRecord
  2
REV
 70
     0
 62
     4
  6
CONTINUOUS
  0
LAYER
  5
26D7E0
100
AcDbSymbolTableRecord
100
AcDbLayerTableRecord
  2
OBJ
 70
     0
 62
     6
  6
CONTINUOUS
  0
ENDTAB
  0
TABLE
  2
STYLE
  5
26CB3E
100
AcDbSymbolTable
 70
     6
  0
STYLE
  5
26CB4A
100
AcDbSymbolTableRecord
100
AcDbTextStyleTableRecord
  2
STANDARD
 70
     0
 40
0.0
 41
1.0
 50
0.0
 71
     0
 42
0.2
  3
txt
  4

  0
STYLE
  5
26CC16
100
AcDbSymbolTableRecord
100
AcDbTextStyleTableRecord
  2
ROMANS
 70
     0
 40
0.0
 41
0.77
 50
0.0
 71
     0
 42
0.125
  3
ROMANS.shx
  4

  0
STYLE
  5
26CC17
100
AcDbSymbolTableRecord
100
AcDbTextStyleTableRecord
  2
TXT
 70
     0
 40
0.18
 41
1.0
 50
0.0
 71
     0
 42
0.18
  3
TXT.shx
  4

  0
STYLE
  5
26CC18
100
AcDbSymbolTableRecord
100
AcDbTextStyleTableRecord
  2
ROMANC
 70
     0
 40
0.0
 41
1.0
 50
0.0
 71
     0
 42
0.0
  3
ROMANC
  4

  0
STYLE
  5
26CC19
100
AcDbSymbolTableRecord
100
AcDbTextStyleTableRecord
  2
ITALICC
 70
     0
 40
0.0
 41
1.0
 50
0.0
 71
     0
 42
0.0
  3
ITALICC
  4

  0
STYLE
  5
26CC1A
100
AcDbSymbolTableRecord
100
AcDbTextStyleTableRecord
  2
ROMANT
 70
     0
 40
0.1
 41
1.0
 50
0.0
 71
     0
 42
0.1
  3
romant
  4

  0
ENDTAB
  0
TABLE
  2
VIEW
  5
26CB41
100
AcDbSymbolTable
 70
     4
  0
VIEW
  5
26D815
100
AcDbSymbolTableRecord
100
AcDbViewTableRecord
  2
MAIN
 70
     0
 40
39.968353
 10
14.297844
 20
7.666767
 41
52.351668
 11
0.0
 21
0.0
 31
1.0
 12
0.0
 22
0.0
 32
0.0
 42
50.0
 43
0.0
 44
0.0
 50
0.0
 71
     0
  0
VIEW
  5
26D816
100
AcDbSymbolTableRecord
100
AcDbViewTableRecord
  2
V2
 70
     0
 40
8.157247
 10
0.898274
 20
16.016774
 41
18.732681
 11
0.0
 21
0.0
 31
1.0
 12
0.0
 22
0.0
 32
0.0
 42
50.0
 43
0.0
 44
0.0
 50
0.0
 71
     0
  0
VIEW
  5
26D817
100
AcDbSymbolTableRecord
100
AcDbViewTableRecord
  2
V1
 70
     0
 40
27.252619
 10
24.949367
 20
10.640406
 41
22.673963
 11
0.0
 21
0.0
 31
1.0
 12
0.0
 22
0.0
 32
0.0
 42
50.0
 43
0.0
 44
0.0
 50
0.0
 71
     0
  0
VIEW
  5
26D82A
100
AcDbSymbolTableRecord
100
AcDbViewTableRecord
  2
V3
 70
     0
 40
10.662824
 10
22.403538
 20
1.376517
 41
14.296965
 11
0.0
 21
0.0
 31
1.0
 12
0.0
 22
0.0
 32
0.0
 42
50.0
 43
0.0
 44
0.0
 50
0.0
 71
     0
  0
ENDTAB
  0
TABLE
  2
UCS
  5
26CB42
100
AcDbSymbolTable
 70
     0
  0
ENDTAB
  0
TABLE
  2
APPID
  5
26CB44
100
AcDbSymbolTable
 70
    10
  0
APPID
  5
26CB4B
100
AcDbSymbolTableRecord
100
AcDbRegAppTableRecord
  2
ACAD
 70
     0
  0
APPID
  5
26CC38
100
AcDbSymbolTableRecord
100
AcDbRegAppTableRecord
  2
AVE_RENDER
 70
     0
  0
APPID
  5
26D0DD
100
AcDbSymbolTableRecord
100
AcDbRegAppTableRecord
  2
MCAD_NO_VIS
 70
     0
  0
APPID
  5
26D0DE
100
AcDbSymbolTableRecord
100
AcDbRegAppTableRecord
  2
ACAD_TEMP_GRAPHIC
 70
     0
  0
APPID
  5
26D0DF
100
AcDbSymbolTableRecord
100
AcDbRegAppTableRecord
  2
ACATTRIBSERVICES
 70
     0
  0
APPID
  5
26D0E0
100
AcDbSymbolTableRecord
100
AcDbRegAppTableRecord
  2
GENIUS_GENSCREG_15
 70
     0
  0
APPID
  5
26D0E1
100
AcDbSymbolTableRecord
100
AcDbRegAppTableRecord
  2
GENIUS_GENODEF_13
 70
     0
  0
APPID
  5
26D0E2
100
AcDbSymbolTableRecord
100
AcDbRegAppTableRecord
  2
GENIUS_GENOBJ-N-SDF_13
 70
     0
  0
APPID
  5
26D3F7
100
AcDbSymbolTableRecord
100
AcDbRegAppTableRecord
  2
GENIUS_GENFIL_13
 70
     0
  0
APPID
  5
26D3F8
100
AcDbSymbolTableRecord
100
AcDbRegAppTableRecord
  2
GENIUS_GENOBJ-N-CHA_13
 70
     0
  0
ENDTAB
  0
TABLE
  2
DIMSTYLE
  5
26CB45
100
AcDbSymbolTable
 70
     1
  0
DIMSTYLE
105
26CC56
102
{ACAD_REACTORS
330
26D72D
330
26D78B
330
26D7A5
102
}
100
AcDbSymbolTableRecord
100
AcDbDimStyleTableRecord
  2
STANDARD
 70
     0
  3

  4

  5

  6

  7

 40
1.0
 41
0.18
 42
0.0625
 43
0.38
 44
0.18
 45
0.0
 46
0.0
 47
0.0
 48
0.0
140
0.18
141
0.09
142
0.0
143
25.4
144
1.0
145
0.0
146
1.0
147
0.09
 71
     0
 72
     0
 73
     1
 74
     1
 75
     0
 76
     0
 77
     0
 78
     0
170
     0
171
     2
172
     0
173
     0
174
     0
175
     0
176
     0
177
     0
178
     0
270
     2
271
     4
272
     4
273
     2
274
     2
340
26CB4A
275
     0
280
     0
281
     0
282
     0
283
     1
284
     0
285
     0
286
     0
287
     3
288
     0
  0
ENDTAB
  0
TABLE
  2
BLOCK_RECORD
  5
26CB3C
100
AcDbSymbolTable
 70
    34
  0
BLOCK_RECORD
  5
26CB52
100
AcDbSymbolTableRecord
100
AcDbBlockTableRecord
  2
*MODEL_SPACE
  0
BLOCK_RECORD
  5
26CB4F
100
AcDbSymbolTableRecord
100
AcDbBlockTableRecord
  2
*PAPER_SPACE
  0
BLOCK_RECORD
  5
26CB70
100
AcDbSymbolTableRecord
100
AcDbBlockTableRecord
  2
*D0
  0
BLOCK_RECORD
  5
26CB71
100
AcDbSymbolTableRecord
100
AcDbBlockTableRecord
  2
*D1
  0
BLOCK_RECORD
  5
26CB72
100
AcDbSymbolTableRecord
100
AcDbBlockTableRecord
  2
*D2
  0
BLOCK_RECORD
  5
26CB73
100
AcDbSymbolTableRecord
100
AcDbBlockTableRecord
  2
*D3
  0
BLOCK_RECORD
  5
26CB74
100
AcDbSymbolTableRecord
100
AcDbBlockTableRecord
  2
*D4
  0
BLOCK_RECORD
  5
26CB75
100
AcDbSymbolTableRecord
100
AcDbBlockTableRecord
  2
*D5
  0
BLOCK_RECORD
  5
26CB77
100
AcDbSymbolTableRecord
100
AcDbBlockTableRecord
  2
*D6
  0
BLOCK_RECORD
  5
26CB7A
100
AcDbSymbolTableRecord
100
AcDbBlockTableRecord
  2
*D7
  0
BLOCK_RECORD
  5
26CB7E
100
AcDbSymbolTableRecord
100
AcDbBlockTableRecord
  2
*D8
  0
BLOCK_RECORD
  5
26CB7F
100
AcDbSymbolTableRecord
100
AcDbBlockTableRecord
  2
*D9
  0
BLOCK_RECORD
  5
26CB82
100
AcDbSymbolTableRecord
100
AcDbBlockTableRecord
  2
*D10
  0
BLOCK_RECORD
  5
26CB83
100
AcDbSymbolTableRecord
100
AcDbBlockTableRecord
  2
*D11
  0
BLOCK_RECORD
  5
26CB84
100
AcDbSymbolTableRecord
100
AcDbBlockTableRecord
  2
AVE_RENDER
  0
BLOCK_RECORD
  5
26CBCA
100
AcDbSymbolTableRecord
100
AcDbBlockTableRecord
  2
*D13
  0
BLOCK_RECORD
  5
26CBCB
100
AcDbSymbolTableRecord
100
AcDbBlockTableRecord
  2
*D14
  0
BLOCK_RECORD
  5
26CBCC
100
AcDbSymbolTableRecord
100
AcDbBlockTableRecord
  2
*D15
  0
BLOCK_RECORD
  5
26CBCD
100
AcDbSymbolTableRecord
100
AcDbBlockTableRecord
  2
*D16
  0
BLOCK_RECORD
  5
26CBCE
100
AcDbSymbolTableRecord
100
AcDbBlockTableRecord
  2
*D17
  0
BLOCK_RECORD
  5
26CBCF
100
AcDbSymbolTableRecord
100
AcDbBlockTableRecord
  2
*D18
  0
BLOCK_RECORD
  5
26CC12
100
AcDbSymbolTableRecord
100
AcDbBlockTableRecord
  2
*D19
  0
BLOCK_RECORD
  5
26CC15
100
AcDbSymbolTableRecord
100
AcDbBlockTableRecord
  2
*D20
  0
BLOCK_RECORD
  5
26CF15
100
AcDbSymbolTableRecord
100
AcDbBlockTableRecord
  2
COPY
  0
BLOCK_RECORD
  5
26D690
100
AcDbSymbolTableRecord
100
AcDbBlockTableRecord
  2
*D22
  0
BLOCK_RECORD
  5
26D69D
100
AcDbSymbolTableRecord
100
AcDbBlockTableRecord
  2
*D23
  0
BLOCK_RECORD
  5
26D6AA
100
AcDbSymbolTableRecord
100
AcDbBlockTableRecord
  2
*D24
  0
BLOCK_RECORD
  5
26D6B7
100
AcDbSymbolTableRecord
100
AcDbBlockTableRecord
  2
*D25
  0
BLOCK_RECORD
  5
26D6C4
100
AcDbSymbolTableRecord
100
AcDbBlockTableRecord
  2
*D26
  0
BLOCK_RECORD
  5
26D6D1
100
AcDbSymbolTableRecord
100
AcDbBlockTableRecord
  2
*D27
  0
BLOCK_RECORD
  5
26D720
100
AcDbSymbolTableRecord
100
AcDbBlockTableRecord
  2
*D28
  0
BLOCK_RECORD
  5
26D763
100
AcDbSymbolTableRecord
100
AcDbBlockTableRecord
  2
*D29
  0
BLOCK_RECORD
  5
26D770
100
AcDbSymbolTableRecord
100
AcDbBlockTableRecord
  2
*D30
  0
BLOCK_RECORD
  5
26D77E
100
AcDbSymbolTableRecord
100
AcDbBlockTableRecord
  2
*D31
  0
BLOCK_RECORD
  5
26D798
100
AcDbSymbolTableRecord
100
AcDbBlockTableRecord
  2
*D32
  0
BLOCK_RECORD
  5
26D7E1
100
AcDbSymbolTableRecord
100
AcDbBlockTableRecord
  2
REVISION
  0
ENDTAB
  0
ENDSEC
  0
SECTION
  2
BLOCKS
  0
BLOCK
  5
26CC4F
100
AcDbEntity
  8
0
100
AcDbBlockBegin
  2
*MODEL_SPACE
 70
     0
 10
0.0
 20
0.0
 30
0.0
  3
*MODEL_SPACE
  1

  0
ENDBLK
  5
26CC50
100
AcDbEntity
  8
0
100
AcDbBlockEnd
  0
BLOCK
  5
26CC4D
100
AcDbEntity
 67
     1
  8
0
100
AcDbBlockBegin
  2
*PAPER_SPACE
 70
     0
 10
0.0
 20
0.0
 30
0.0
  3
*PAPER_SPACE
  1

  0
ENDBLK
  5
26CC4E
100
AcDbEntity
 67
     1
  8
0
100
AcDbBlockEnd
  0
BLOCK
  5
D2B
100
AcDbEntity
  8
0
100
AcDbBlockBegin
  2
*D0
 70
     1
 10
0.0
 20
0.0
 30
0.0
  3
*D0
  1

  0
LINE
  5
D2C
100
AcDbEntity
  8
0
  6
BYBLOCK
 62
     0
100
AcDbLine
 10
24.16771
 20
3.018948
 30
0.0
 11
20.575352
 21
3.018948
 31
0.0
  0
LINE
  5
D2D
100
AcDbEntity
  8
0
  6
BYBLOCK
 62
     0
100
AcDbLine
 10
24.16771
 20
4.207426
 30
0.0
 11
20.575352
 21
4.207426
 31
0.0
  0
LINE
  5
D2E
100
AcDbEntity
  8
0
  6
BYBLOCK
 62
     0
100
AcDbLine
 10
20.755352
 20
3.198948
 30
0.0
 11
20.755352
 21
3.433187
 31
0.0
  0
LINE
  5
D2F
100
AcDbEntity
  8
0
  6
BYBLOCK
 62
     0
100
AcDbLine
 10
20.755352
 20
4.027426
 30
0.0
 11
20.755352
 21
3.793187
 31
0.0
  0
SOLID
  5
D30
100
AcDbEntity
  8
0
  6
BYBLOCK
 62
     0
100
AcDbTrace
 10
20.725352
 20
3.198948
 30
0.0
 11
20.785352
 21
3.198948
 31
0.0
 12
20.755352
 22
3.018948
 32
0.0
 13
20.755352
 23
3.018948
 33
0.0
  0
SOLID
  5
D31
100
AcDbEntity
  8
0
  6
BYBLOCK
 62
     0
100
AcDbTrace
 10
20.725352
 20
4.027426
 30
0.0
 11
20.785352
 21
4.027426
 31
0.0
 12
20.755352
 22
4.207426
 32
0.0
 13
20.755352
 23
4.207426
 33
0.0
  0
TEXT
  5
D32
100
AcDbEntity
  8
0
  6
BYBLOCK
 62
     0
100
AcDbText
 10
19.960352
 20
3.523187
 30
0.0
 40
0.18
  1
%%C
 72
     1
 11
20.020352
 21
3.613187
 31
0.0
100
AcDbText
 73
     2
  0
TEXT
  5
D33
100
AcDbEntity
  8
0
  6
BYBLOCK
 62
     0
100
AcDbText
 10
20.140352
 20
3.523187
 30
0.0
 40
0.18
  1
1.19 [30.2]
 72
     1
 11
20.845352
 21
3.613187
 31
0.0
100
AcDbText
 73
     2
  0
POINT
  5
D34
100
AcDbEntity
  8
DEFPOINTS
  6
BYBLOCK
 62
     0
100
AcDbPoint
 10
24.23021
 20
3.018948
 30
0.0
  0
POINT
  5
D35
100
AcDbEntity
  8
DEFPOINTS
  6
BYBLOCK
 62
     0
100
AcDbPoint
 10
24.23021
 20
4.207426
 30
0.0
  0
POINT
  5
D36
100
AcDbEntity
  8
DEFPOINTS
  6
BYBLOCK
 62
     0
100
AcDbPoint
 10
20.755352
 20
4.207426
 30
0.0
  0
ENDBLK
  5
D37
100
AcDbEntity
  8
0
100
AcDbBlockEnd
  0
BLOCK
  5
D38
100
AcDbEntity
  8
0
100
AcDbBlockBegin
  2
*D1
 70
     1
 10
0.0
 20
0.0
 30
0.0
  3
*D1
  1

  0
LINE
  5
D39
100
AcDbEntity
  8
0
  6
BYBLOCK
 62
     0
100
AcDbLine
 10
24.19896
 20
3.050198
 30
0.0
 11
22.831835
 21
3.050198
 31
0.0
  0
LINE
  5
D3A
100
AcDbEntity
  8
0
  6
BYBLOCK
 62
     0
100
AcDbLine
 10
24.19896
 20
4.176176
 30
0.0
 11
22.831835
 21
4.176176
 31
0.0
  0
LINE
  5
D3B
100
AcDbEntity
  8
0
  6
BYBLOCK
 62
     0
100
AcDbLine
 10
23.011835
 20
3.230198
 30
0.0
 11
23.011835
 21
3.433187
 31
0.0
  0
LINE
  5
D3C
100
AcDbEntity
  8
0
  6
BYBLOCK
 62
     0
100
AcDbLine
 10
23.011835
 20
3.996176
 30
0.0
 11
23.011835
 21
3.793187
 31
0.0
  0
SOLID
  5
D3D
100
AcDbEntity
  8
0
  6
BYBLOCK
 62
     0
100
AcDbTrace
 10
22.981835
 20
3.230198
 30
0.0
 11
23.041835
 21
3.230198
 31
0.0
 12
23.011835
 22
3.050198
 32
0.0
 13
23.011835
 23
3.050198
 33
0.0
  0
SOLID
  5
D3E
100
AcDbEntity
  8
0
  6
BYBLOCK
 62
     0
100
AcDbTrace
 10
22.981835
 20
3.996176
 30
0.0
 11
23.041835
 21
3.996176
 31
0.0
 12
23.011835
 22
4.176176
 32
0.0
 13
23.011835
 23
4.176176
 33
0.0
  0
TEXT
  5
D3F
100
AcDbEntity
  8
0
  6
BYBLOCK
 62
     0
100
AcDbText
 10
22.201835
 20
3.523187
 30
0.0
 40
0.18
  1
%%C
 72
     1
 11
22.261835
 21
3.613187
 31
0.0
100
AcDbText
 73
     2
  0
TEXT
  5
D40
100
AcDbEntity
  8
0
  6
BYBLOCK
 62
     0
100
AcDbText
 10
22.381835
 20
3.523187
 30
0.0
 40
0.18
  1
1.13 [28.6]
 72
     1
 11
23.101835
 21
3.613187
 31
0.0
100
AcDbText
 73
     2
  0
POINT
  5
D41
100
AcDbEntity
  8
DEFPOINTS
  6
BYBLOCK
 62
     0
100
AcDbPoint
 10
24.26146
 20
3.050198
 30
0.0
  0
POINT
  5
D42
100
AcDbEntity
  8
DEFPOINTS
  6
BYBLOCK
 62
     0
100
AcDbPoint
 10
24.26146
 20
4.176176
 30
0.0
  0
POINT
  5
D43
100
AcDbEntity
  8
DEFPOINTS
  6
BYBLOCK
 62
     0
100
AcDbPoint
 10
23.011835
 20
4.176176
 30
0.0
  0
ENDBLK
  5
D44
100
AcDbEntity
  8
0
100
AcDbBlockEnd
  0
BLOCK
  5
D45
100
AcDbEntity
  8
0
100
AcDbBlockBegin
  2
*D2
 70
     1
 10
0.0
 20
0.0
 30
0.0
  3
*D2
  1

  0
LINE
  5
D46
100
AcDbEntity
  8
0
  6
BYBLOCK
 62
     0
100
AcDbLine
 10
14.080405
 20
4.097491
 30
0.0
 11
10.203069
 21
4.097491
 31
0.0
  0
LINE
  5
D47
100
AcDbEntity
  8
0
  6
BYBLOCK
 62
     0
100
AcDbLine
 10
14.080405
 20
2.909012
 30
0.0
 11
10.203069
 21
2.909012
 31
0.0
  0
LINE
  5
D48
100
AcDbEntity
  8
0
  6
BYBLOCK
 62
     0
100
AcDbLine
 10
10.383069
 20
3.917491
 30
0.0
 11
10.383069
 21
3.683252
 31
0.0
  0
LINE
  5
D49
100
AcDbEntity
  8
0
  6
BYBLOCK
 62
     0
100
AcDbLine
 10
10.383069
 20
3.089012
 30
0.0
 11
10.383069
 21
3.323252
 31
0.0
  0
SOLID
  5
D4A
100
AcDbEntity
  8
0
  6
BYBLOCK
 62
     0
100
AcDbTrace
 10
10.353069
 20
3.917491
 30
0.0
 11
10.413069
 21
3.917491
 31
0.0
 12
10.383069
 22
4.097491
 32
0.0
 13
10.383069
 23
4.097491
 33
0.0
  0
SOLID
  5
D4B
100
AcDbEntity
  8
0
  6
BYBLOCK
 62
     0
100
AcDbTrace
 10
10.353069
 20
3.089012
 30
0.0
 11
10.413069
 21
3.089012
 31
0.0
 12
10.383069
 22
2.909012
 32
0.0
 13
10.383069
 23
2.909012
 33
0.0
  0
TEXT
  5
D4C
100
AcDbEntity
  8
0
  6
BYBLOCK
 62
     0
100
AcDbText
 10
9.588069
 20
3.413252
 30
0.0
 40
0.18
  1
%%C
 72
     1
 11
9.648069
 21
3.503252
 31
0.0
100
AcDbText
 73
     2
  0
TEXT
  5
D4D
100
AcDbEntity
  8
0
  6
BYBLOCK
 62
     0
100
AcDbText
 10
9.768069
 20
3.413252
 30
0.0
 40
0.18
  1
1.19 [30.2]
 72
     1
 11
10.473069
 21
3.503252
 31
0.0
100
AcDbText
 73
     2
  0
POINT
  5
D4E
100
AcDbEntity
  8
DEFPOINTS
  6
BYBLOCK
 62
     0
100
AcDbPoint
 10
14.142905
 20
4.097491
 30
0.0
  0
POINT
  5
D4F
100
AcDbEntity
  8
DEFPOINTS
  6
BYBLOCK
 62
     0
100
AcDbPoint
 10
14.142905
 20
2.909012
 30
0.0
  0
POINT
  5
D50
100
AcDbEntity
  8
DEFPOINTS
  6
BYBLOCK
 62
     0
100
AcDbPoint
 10
10.383069
 20
2.909012
 30
0.0
  0
ENDBLK
  5
D51
100
AcDbEntity
  8
0
100
AcDbBlockEnd
  0
BLOCK
  5
D52
100
AcDbEntity
  8
0
100
AcDbBlockBegin
  2
*D3
 70
     1
 10
0.0
 20
0.0
 30
0.0
  3
*D3
  1

  0
LINE
  5
D53
100
AcDbEntity
  8
0
  6
BYBLOCK
 62
     0
100
AcDbLine
 10
14.330405
 20
3.980914
 30
0.0
 11
12.476324
 21
3.980914
 31
0.0
  0
LINE
  5
D54
100
AcDbEntity
  8
0
  6
BYBLOCK
 62
     0
100
AcDbLine
 10
14.330405
 20
3.025589
 30
0.0
 11
12.476324
 21
3.025589
 31
0.0
  0
LINE
  5
D55
100
AcDbEntity
  8
0
  6
BYBLOCK
 62
     0
100
AcDbLine
 10
12.656324
 20
3.800914
 30
0.0
 11
12.656324
 21
3.683252
 31
0.0
  0
LINE
  5
D56
100
AcDbEntity
  8
0
  6
BYBLOCK
 62
     0
100
AcDbLine
 10
12.656324
 20
3.205589
 30
0.0
 11
12.656324
 21
3.323252
 31
0.0
  0
SOLID
  5
D57
100
AcDbEntity
  8
0
  6
BYBLOCK
 62
     0
100
AcDbTrace
 10
12.626324
 20
3.800914
 30
0.0
 11
12.686324
 21
3.800914
 31
0.0
 12
12.656324
 22
3.980914
 32
0.0
 13
12.656324
 23
3.980914
 33
0.0
  0
SOLID
  5
D58
100
AcDbEntity
  8
0
  6
BYBLOCK
 62
     0
100
AcDbTrace
 10
12.626324
 20
3.205589
 30
0.0
 11
12.686324
 21
3.205589
 31
0.0
 12
12.656324
 22
3.025589
 32
0.0
 13
12.656324
 23
3.025589
 33
0.0
  0
TEXT
  5
D59
100
AcDbEntity
  8
0
  6
BYBLOCK
 62
     0
100
AcDbText
 10
11.801324
 20
3.413252
 30
0.0
 40
0.18
  1
%%C
 72
     1
 11
11.861324
 21
3.503252
 31
0.0
100
AcDbText
 73
     2
  0
TEXT
  5
D5A
100
AcDbEntity
  8
0
  6
BYBLOCK
 62
     0
100
AcDbText
 10
11.981324
 20
3.413252
 30
0.0
 40
0.18
  1
0.96 [24.3]
 72
     1
 11
12.746324
 21
3.503252
 31
0.0
100
AcDbText
 73
     2
  0
POINT
  5
D5B
100
AcDbEntity
  8
DEFPOINTS
  6
BYBLOCK
 62
     0
100
AcDbPoint
 10
14.392905
 20
3.980914
 30
0.0
  0
POINT
  5
D5C
100
AcDbEntity
  8
DEFPOINTS
  6
BYBLOCK
 62
     0
100
AcDbPoint
 10
14.392905
 20
3.025589
 30
0.0
  0
POINT
  5
D5D
100
AcDbEntity
  8
DEFPOINTS
  6
BYBLOCK
 62
     0
100
AcDbPoint
 10
12.656324
 20
3.025589
 30
0.0
  0
ENDBLK
  5
D5E
100
AcDbEntity
  8
0
100
AcDbBlockEnd
  0
BLOCK
  5
D5F
100
AcDbEntity
  8
0
100
AcDbBlockBegin
  2
*D4
 70
     1
 10
0.0
 20
0.0
 30
0.0
  3
*D4
  1

  0
LINE
  5
D60
100
AcDbEntity
  8
0
  6
BYBLOCK
 62
     0
100
AcDbLine
 10
25.31631
 20
4.269926
 30
0.0
 11
25.31631
 21
4.827808
 31
0.0
  0
LINE
  5
D61
100
AcDbEntity
  8
0
  6
BYBLOCK
 62
     0
100
AcDbLine
 10
24.23021
 20
4.269926
 30
0.0
 11
24.23021
 21
4.827808
 31
0.0
  0
LINE
  5
D62
100
AcDbEntity
  8
0
  6
BYBLOCK
 62
     0
100
AcDbLine
 10
25.49631
 20
4.647808
 30
0.0
 11
25.67631
 21
4.647808
 31
0.0
  0
LINE
  5
D63
100
AcDbEntity
  8
0
  6
BYBLOCK
 62
     0
100
AcDbLine
 10
24.05021
 20
4.647808
 30
0.0
 11
23.87021
 21
4.647808
 31
0.0
  0
SOLID
  5
D64
100
AcDbEntity
  8
0
  6
BYBLOCK
 62
     0
100
AcDbTrace
 10
25.49631
 20
4.677808
 30
0.0
 11
25.49631
 21
4.617808
 31
0.0
 12
25.31631
 22
4.647808
 32
0.0
 13
25.31631
 23
4.647808
 33
0.0
  0
SOLID
  5
D65
100
AcDbEntity
  8
0
  6
BYBLOCK
 62
     0
100
AcDbTrace
 10
24.05021
 20
4.677808
 30
0.0
 11
24.05021
 21
4.617808
 31
0.0
 12
24.23021
 22
4.647808
 32
0.0
 13
24.23021
 23
4.647808
 33
0.0
  0
TEXT
  5
D66
100
AcDbEntity
  8
0
  6
BYBLOCK
 62
     0
100
AcDbText
 10
21.95021
 20
4.557808
 30
0.0
 40
0.18
  1
1.09 [27.6mm]
 72
     1
 11
22.86521
 21
4.647808
 31
0.0
100
AcDbText
 73
     2
  0
POINT
  5
D67
100
AcDbEntity
  8
DEFPOINTS
  6
BYBLOCK
 62
     0
100
AcDbPoint
 10
25.31631
 20
4.207426
 30
0.0
  0
POINT
  5
D68
100
AcDbEntity
  8
DEFPOINTS
  6
BYBLOCK
 62
     0
100
AcDbPoint
 10
24.23021
 20
4.207426
 30
0.0
  0
POINT
  5
D69
100
AcDbEntity
  8
DEFPOINTS
  6
BYBLOCK
 62
     0
100
AcDbPoint
 10
24.23021
 20
4.647808
 30
0.0
  0
ENDBLK
  5
D6A
100
AcDbEntity
  8
0
100
AcDbBlockEnd
  0
BLOCK
  5
D6B
100
AcDbEntity
  8
0
100
AcDbBlockBegin
  2
*D5
 70
     1
 10
0.0
 20
0.0
 30
0.0
  3
*D5
  1

  0
LINE
  5
D6C
100
AcDbEntity
  8
0
  6
BYBLOCK
 62
     0
100
AcDbLine
 10
1.001393
 20
10.463685
 30
0.0
 11
1.001393
 21
12.375686
 31
0.0
  0
LINE
  5
D6D
100
AcDbEntity
  8
0
  6
BYBLOCK
 62
     0
100
AcDbLine
 10
1.730393
 20
10.111205
 30
0.0
 11
1.730393
 21
12.375686
 31
0.0
  0
LINE
  5
D6E
100
AcDbEntity
  8
0
  6
BYBLOCK
 62
     0
100
AcDbLine
 10
0.821393
 20
12.195686
 30
0.0
 11
0.641393
 21
12.195686
 31
0.0
  0
LINE
  5
D6F
100
AcDbEntity
  8
0
  6
BYBLOCK
 62
     0
100
AcDbLine
 10
1.910393
 20
12.195686
 30
0.0
 11
2.090393
 21
12.195686
 31
0.0
  0
SOLID
  5
D70
100
AcDbEntity
  8
0
  6
BYBLOCK
 62
     0
100
AcDbTrace
 10
0.821393
 20
12.225686
 30
0.0
 11
0.821393
 21
12.165686
 31
0.0
 12
1.001393
 22
12.195686
 32
0.0
 13
1.001393
 23
12.195686
 33
0.0
  0
SOLID
  5
D71
100
AcDbEntity
  8
0
  6
BYBLOCK
 62
     0
100
AcDbTrace
 10
1.910393
 20
12.225686
 30
0.0
 11
1.910393
 21
12.165686
 31
0.0
 12
1.730393
 22
12.195686
 32
0.0
 13
1.730393
 23
12.195686
 33
0.0
  0
TEXT
  5
D72
100
AcDbEntity
  8
0
  6
BYBLOCK
 62
     0
100
AcDbText
 10
2.180393
 20
12.105686
 30
0.0
 40
0.18
  1
0.73 [18.5mm]
 72
     1
 11
3.095393
 21
12.195686
 31
0.0
100
AcDbText
 73
     2
  0
POINT
  5
D73
100
AcDbEntity
  8
DEFPOINTS
  6
BYBLOCK
 62
     0
100
AcDbPoint
 10
1.001393
 20
10.401185
 30
0.0
  0
POINT
  5
D74
100
AcDbEntity
  8
DEFPOINTS
  6
BYBLOCK
 62
     0
100
AcDbPoint
 10
1.730393
 20
10.048705
 30
0.0
  0
POINT
  5
D75
100
AcDbEntity
  8
DEFPOINTS
  6
BYBLOCK
 62
     0
100
AcDbPoint
 10
1.730393
 20
12.195686
 30
0.0
  0
ENDBLK
  5
D76
100
AcDbEntity
  8
0
100
AcDbBlockEnd
  0
BLOCK
  5
D83
100
AcDbEntity
  8
0
100
AcDbBlockBegin
  2
*D6
 70
     1
 10
0.0
 20
0.0
 30
0.0
  3
*D6
  1

  0
LINE
  5
D84
100
AcDbEntity
  8
0
  6
BYBLOCK
 62
     0
100
AcDbLine
 10
18.598549
 20
11.930105
 30
0.0
 11
18.598549
 21
11.46543
 31
0.0
  0
LINE
  5
D85
100
AcDbEntity
  8
0
  6
BYBLOCK
 62
     0
100
AcDbLine
 10
19.098549
 20
11.930105
 30
0.0
 11
19.098549
 21
11.46543
 31
0.0
  0
LINE
  5
D86
100
AcDbEntity
  8
0
  6
BYBLOCK
 62
     0
100
AcDbLine
 10
18.418549
 20
11.64543
 30
0.0
 11
18.238549
 21
11.64543
 31
0.0
  0
LINE
  5
D87
100
AcDbEntity
  8
0
  6
BYBLOCK
 62
     0
100
AcDbLine
 10
19.278549
 20
11.64543
 30
0.0
 11
19.458549
 21
11.64543
 31
0.0
  0
SOLID
  5
D88
100
AcDbEntity
  8
0
  6
BYBLOCK
 62
     0
100
AcDbTrace
 10
18.418549
 20
11.67543
 30
0.0
 11
18.418549
 21
11.61543
 31
0.0
 12
18.598549
 22
11.64543
 32
0.0
 13
18.598549
 23
11.64543
 33
0.0
  0
SOLID
  5
D89
100
AcDbEntity
  8
0
  6
BYBLOCK
 62
     0
100
AcDbTrace
 10
19.278549
 20
11.67543
 30
0.0
 11
19.278549
 21
11.61543
 31
0.0
 12
19.098549
 22
11.64543
 32
0.0
 13
19.098549
 23
11.64543
 33
0.0
  0
TEXT
  5
D8A
100
AcDbEntity
  8
0
  6
BYBLOCK
 62
     0
100
AcDbText
 10
19.548549
 20
11.55543
 30
0.0
 40
0.18
  1
0.50 [12.7mm]
 72
     1
 11
20.448549
 21
11.64543
 31
0.0
100
AcDbText
 73
     2
  0
POINT
  5
D8B
100
AcDbEntity
  8
DEFPOINTS
  6
BYBLOCK
 62
     0
100
AcDbPoint
 10
18.598549
 20
11.992605
 30
0.0
  0
POINT
  5
D8C
100
AcDbEntity
  8
DEFPOINTS
  6
BYBLOCK
 62
     0
100
AcDbPoint
 10
19.098549
 20
11.992605
 30
0.0
  0
POINT
  5
D8D
100
AcDbEntity
  8
DEFPOINTS
  6
BYBLOCK
 62
     0
100
AcDbPoint
 10
19.098549
 20
11.64543
 30
0.0
  0
ENDBLK
  5
D8E
100
AcDbEntity
  8
0
100
AcDbBlockEnd
  0
BLOCK
  5
DA7
100
AcDbEntity
  8
0
100
AcDbBlockBegin
  2
*D7
 70
     1
 10
0.0
 20
0.0
 30
0.0
  3
*D7
  1

  0
LINE
  5
DA8
100
AcDbEntity
  8
0
  6
BYBLOCK
 62
     0
100
AcDbLine
 10
11.045597
 20
10.568785
 30
0.0
 11
8.292437
 21
10.568785
 31
0.0
  0
LINE
  5
DA9
100
AcDbEntity
  8
0
  6
BYBLOCK
 62
     0
100
AcDbLine
 10
11.045597
 20
9.256285
 30
0.0
 11
8.292437
 21
9.256285
 31
0.0
  0
LINE
  5
DAA
100
AcDbEntity
  8
0
  6
BYBLOCK
 62
     0
100
AcDbLine
 10
8.472437
 20
10.388785
 30
0.0
 11
8.472437
 21
10.092535
 31
0.0
  0
LINE
  5
DAB
100
AcDbEntity
  8
0
  6
BYBLOCK
 62
     0
100
AcDbLine
 10
8.472437
 20
9.436285
 30
0.0
 11
8.472437
 21
9.732535
 31
0.0
  0
SOLID
  5
DAC
100
AcDbEntity
  8
0
  6
BYBLOCK
 62
     0
100
AcDbTrace
 10
8.442437
 20
10.388785
 30
0.0
 11
8.502437
 21
10.388785
 31
0.0
 12
8.472437
 22
10.568785
 32
0.0
 13
8.472437
 23
10.568785
 33
0.0
  0
SOLID
  5
DAD
100
AcDbEntity
  8
0
  6
BYBLOCK
 62
     0
100
AcDbTrace
 10
8.442437
 20
9.436285
 30
0.0
 11
8.502437
 21
9.436285
 31
0.0
 12
8.472437
 22
9.256285
 32
0.0
 13
8.472437
 23
9.256285
 33
0.0
  0
TEXT
  5
DAE
100
AcDbEntity
  8
0
  6
BYBLOCK
 62
     0
100
AcDbText
 10
7.572437
 20
9.822535
 30
0.0
 40
0.18
  1
1.31 [33.3mm]
 72
     1
 11
8.472437
 21
9.912535
 31
0.0
100
AcDbText
 73
     2
  0
POINT
  5
DAF
100
AcDbEntity
  8
DEFPOINTS
  6
BYBLOCK
 62
     0
100
AcDbPoint
 10
11.108097
 20
10.568785
 30
0.0
  0
POINT
  5
DB0
100
AcDbEntity
  8
DEFPOINTS
  6
BYBLOCK
 62
     0
100
AcDbPoint
 10
11.108097
 20
9.256285
 30
0.0
  0
POINT
  5
DB1
100
AcDbEntity
  8
DEFPOINTS
  6
BYBLOCK
 62
     0
100
AcDbPoint
 10
8.472437
 20
9.256285
 30
0.0
  0
ENDBLK
  5
DB2
100
AcDbEntity
  8
0
100
AcDbBlockEnd
  0
BLOCK
  5
DD7
100
AcDbEntity
  8
0
100
AcDbBlockBegin
  2
*D8
 70
     1
 10
0.0
 20
0.0
 30
0.0
  3
*D8
  1

  0
LINE
  5
DD8
100
AcDbEntity
  8
0
  6
BYBLOCK
 62
     0
100
AcDbLine
 10
11.045597
 20
9.256285
 30
0.0
 11
9.730573
 21
9.256285
 31
0.0
  0
LINE
  5
DD9
100
AcDbEntity
  8
0
  6
BYBLOCK
 62
     0
100
AcDbLine
 10
11.235597
 20
9.912535
 30
0.0
 11
9.730573
 21
9.912535
 31
0.0
  0
LINE
  5
DDA
100
AcDbEntity
  8
0
  6
BYBLOCK
 62
     0
100
AcDbLine
 10
9.910573
 20
9.076285
 30
0.0
 11
9.910573
 21
8.896285
 31
0.0
  0
LINE
  5
DDB
100
AcDbEntity
  8
0
  6
BYBLOCK
 62
     0
100
AcDbLine
 10
9.910573
 20
10.092535
 30
0.0
 11
9.910573
 21
10.272535
 31
0.0
  0
SOLID
  5
DDC
100
AcDbEntity
  8
0
  6
BYBLOCK
 62
     0
100
AcDbTrace
 10
9.880573
 20
9.076285
 30
0.0
 11
9.940573
 21
9.076285
 31
0.0
 12
9.910573
 22
9.256285
 32
0.0
 13
9.910573
 23
9.256285
 33
0.0
  0
SOLID
  5
DDD
100
AcDbEntity
  8
0
  6
BYBLOCK
 62
     0
100
AcDbTrace
 10
9.880573
 20
10.092535
 30
0.0
 11
9.940573
 21
10.092535
 31
0.0
 12
9.910573
 22
9.912535
 32
0.0
 13
9.910573
 23
9.912535
 33
0.0
  0
TEXT
  5
DDE
100
AcDbEntity
  8
0
  6
BYBLOCK
 62
     0
100
AcDbText
 10
8.995573
 20
9.49441
 30
0.0
 40
0.18
  1
0.66 [16.7mm]
 72
     1
 11
9.910573
 21
9.58441
 31
0.0
100
AcDbText
 73
     2
  0
POINT
  5
DDF
100
AcDbEntity
  8
DEFPOINTS
  6
BYBLOCK
 62
     0
100
AcDbPoint
 10
11.108097
 20
9.256285
 30
0.0
  0
POINT
  5
DE0
100
AcDbEntity
  8
DEFPOINTS
  6
BYBLOCK
 62
     0
100
AcDbPoint
 10
11.298097
 20
9.912535
 30
0.0
  0
POINT
  5
DE1
100
AcDbEntity
  8
DEFPOINTS
  6
BYBLOCK
 62
     0
100
AcDbPoint
 10
9.910573
 20
9.912535
 30
0.0
  0
ENDBLK
  5
DE2
100
AcDbEntity
  8
0
100
AcDbBlockEnd
  0
BLOCK
  5
DE3
100
AcDbEntity
  8
0
100
AcDbBlockBegin
  2
*D9
 70
     1
 10
0.0
 20
0.0
 30
0.0
  3
*D9
  1

  0
LINE
  5
DE4
100
AcDbEntity
  8
0
  6
BYBLOCK
 62
     0
100
AcDbLine
 10
15.973564
 20
14.12028
 30
0.0
 11
15.973564
 21
15.612383
 31
0.0
  0
LINE
  5
DE5
100
AcDbEntity
  8
0
  6
BYBLOCK
 62
     0
100
AcDbLine
 10
18.348549
 20
12.86993
 30
0.0
 11
18.348549
 21
15.612383
 31
0.0
  0
LINE
  5
DE6
100
AcDbEntity
  8
0
  6
BYBLOCK
 62
     0
100
AcDbLine
 10
15.793564
 20
15.432383
 30
0.0
 11
15.613564
 21
15.432383
 31
0.0
  0
LINE
  5
DE7
100
AcDbEntity
  8
0
  6
BYBLOCK
 62
     0
100
AcDbLine
 10
18.528549
 20
15.432383
 30
0.0
 11
18.708549
 21
15.432383
 31
0.0
  0
SOLID
  5
DE8
100
AcDbEntity
  8
0
  6
BYBLOCK
 62
     0
100
AcDbTrace
 10
15.793564
 20
15.462383
 30
0.0
 11
15.793564
 21
15.402383
 31
0.0
 12
15.973564
 22
15.432383
 32
0.0
 13
15.973564
 23
15.432383
 33
0.0
  0
SOLID
  5
DE9
100
AcDbEntity
  8
0
  6
BYBLOCK
 62
     0
100
AcDbTrace
 10
18.528549
 20
15.462383
 30
0.0
 11
18.528549
 21
15.402383
 31
0.0
 12
18.348549
 22
15.432383
 32
0.0
 13
18.348549
 23
15.432383
 33
0.0
  0
TEXT
  5
DEA
100
AcDbEntity
  8
0
  6
BYBLOCK
 62
     0
100
AcDbText
 10
16.126056
 20
15.342383
 30
0.0
 40
0.18
  1
2.375 [60.3mm]
 72
     1
 11
17.161056
 21
15.432383
 31
0.0
100
AcDbText
 73
     2
  0
POINT
  5
DEB
100
AcDbEntity
  8
DEFPOINTS
  6
BYBLOCK
 62
     0
100
AcDbPoint
 10
15.973564
 20
14.05778
 30
0.0
  0
POINT
  5
DEC
100
AcDbEntity
  8
DEFPOINTS
  6
BYBLOCK
 62
     0
100
AcDbPoint
 10
18.348549
 20
12.80743
 30
0.0
  0
POINT
  5
DED
100
AcDbEntity
  8
DEFPOINTS
  6
BYBLOCK
 62
     0
100
AcDbPoint
 10
18.348549
 20
15.432383
 30
0.0
  0
ENDBLK
  5
DEE
100
AcDbEntity
  8
0
100
AcDbBlockEnd
  0
BLOCK
  5
E07
100
AcDbEntity
  8
0
100
AcDbBlockBegin
  2
*D10
 70
     1
 10
0.0
 20
0.0
 30
0.0
  3
*D10
  1

  0
LINE
  5
E08
100
AcDbEntity
  8
0
  6
BYBLOCK
 62
     0
100
AcDbLine
 10
14.642905
 20
4.269926
 30
0.0
 11
14.642905
 21
4.832514
 31
0.0
  0
LINE
  5
E09
100
AcDbEntity
  8
0
  6
BYBLOCK
 62
     0
100
AcDbLine
 10
14.142905
 20
4.269926
 30
0.0
 11
14.142905
 21
4.832514
 31
0.0
  0
LINE
  5
E0A
100
AcDbEntity
  8
0
  6
BYBLOCK
 62
     0
100
AcDbLine
 10
14.822905
 20
4.652514
 30
0.0
 11
15.002905
 21
4.652514
 31
0.0
  0
LINE
  5
E0B
100
AcDbEntity
  8
0
  6
BYBLOCK
 62
     0
100
AcDbLine
 10
13.962905
 20
4.652514
 30
0.0
 11
13.782905
 21
4.652514
 31
0.0
  0
SOLID
  5
E0C
100
AcDbEntity
  8
0
  6
BYBLOCK
 62
     0
100
AcDbTrace
 10
14.822905
 20
4.682514
 30
0.0
 11
14.822905
 21
4.622514
 31
0.0
 12
14.642905
 22
4.652514
 32
0.0
 13
14.642905
 23
4.652514
 33
0.0
  0
SOLID
  5
E0D
100
AcDbEntity
  8
0
  6
BYBLOCK
 62
     0
100
AcDbTrace
 10
13.962905
 20
4.682514
 30
0.0
 11
13.962905
 21
4.622514
 31
0.0
 12
14.142905
 22
4.652514
 32
0.0
 13
14.142905
 23
4.652514
 33
0.0
  0
TEXT
  5
E0E
100
AcDbEntity
  8
0
  6
BYBLOCK
 62
     0
100
AcDbText
 10
11.892905
 20
4.562514
 30
0.0
 40
0.18
  1
0.50 [12.7mm]
 72
     1
 11
12.792905
 21
4.652514
 31
0.0
100
AcDbText
 73
     2
  0
POINT
  5
E0F
100
AcDbEntity
  8
DEFPOINTS
  6
BYBLOCK
 62
     0
100
AcDbPoint
 10
14.642905
 20
4.207426
 30
0.0
  0
POINT
  5
E10
100
AcDbEntity
  8
DEFPOINTS
  6
BYBLOCK
 62
     0
100
AcDbPoint
 10
14.142905
 20
4.207426
 30
0.0
  0
POINT
  5
E11
100
AcDbEntity
  8
DEFPOINTS
  6
BYBLOCK
 62
     0
100
AcDbPoint
 10
14.142905
 20
4.652514
 30
0.0
  0
ENDBLK
  5
E12
100
AcDbEntity
  8
0
100
AcDbBlockEnd
  0
BLOCK
  5
E13
100
AcDbEntity
  8
0
100
AcDbBlockBegin
  2
*D11
 70
     1
 10
0.0
 20
0.0
 30
0.0
  3
*D11
  1

  0
LINE
  5
E14
100
AcDbEntity
  8
0
  6
BYBLOCK
 62
     0
100
AcDbLine
 10
1.001393
 20
10.622515
 30
0.0
 11
1.001393
 21
12.533062
 31
0.0
  0
LINE
  5
E15
100
AcDbEntity
  8
0
  6
BYBLOCK
 62
     0
100
AcDbLine
 10
-2.373592
 20
10.576035
 30
0.0
 11
-2.373592
 21
12.533062
 31
0.0
  0
LINE
  5
E16
100
AcDbEntity
  8
0
  6
BYBLOCK
 62
     0
100
AcDbLine
 10
0.821393
 20
12.353062
 30
0.0
 11
0.363901
 21
12.353062
 31
0.0
  0
LINE
  5
E17
100
AcDbEntity
  8
0
  6
BYBLOCK
 62
     0
100
AcDbLine
 10
-2.193592
 20
12.353062
 30
0.0
 11
-1.736099
 21
12.353062
 31
0.0
  0
SOLID
  5
E18
100
AcDbEntity
  8
0
  6
BYBLOCK
 62
     0
100
AcDbTrace
 10
0.821393
 20
12.383062
 30
0.0
 11
0.821393
 21
12.323062
 31
0.0
 12
1.001393
 22
12.353062
 32
0.0
 13
1.001393
 23
12.353062
 33
0.0
  0
SOLID
  5
E19
100
AcDbEntity
  8
0
  6
BYBLOCK
 62
     0
100
AcDbTrace
 10
-2.193592
 20
12.383062
 30
0.0
 11
-2.193592
 21
12.323062
 31
0.0
 12
-2.373592
 22
12.353062
 32
0.0
 13
-2.373592
 23
12.353062
 33
0.0
  0
TEXT
  5
E1A
100
AcDbEntity
  8
0
  6
BYBLOCK
 62
     0
100
AcDbText
 10
-1.646099
 20
12.263062
 30
0.0
 40
0.18
  1
3.37 [85.7mm]
 72
     1
 11
-0.686099
 21
12.353062
 31
0.0
100
AcDbText
 73
     2
  0
POINT
  5
E1B
100
AcDbEntity
  8
DEFPOINTS
  6
BYBLOCK
 62
     0
100
AcDbPoint
 10
1.001393
 20
10.560015
 30
0.0
  0
POINT
  5
E1C
100
AcDbEntity
  8
DEFPOINTS
  6
BYBLOCK
 62
     0
100
AcDbPoint
 10
-2.373592
 20
10.513535
 30
0.0
  0
POINT
  5
E1D
100
AcDbEntity
  8
DEFPOINTS
  6
BYBLOCK
 62
     0
100
AcDbPoint
 10
-2.373592
 20
12.353062
 30
0.0
  0
ENDBLK
  5
E1E
100
AcDbEntity
  8
0
100
AcDbBlockEnd
  0
BLOCK
  5
E1F
100
AcDbEntity
  8
0
100
AcDbBlockBegin
  2
AVE_RENDER
 70
     0
 10
0.0
 20
0.0
 30
0.0
  3
AVE_RENDER
  1
AVE_RENDER
  0
ENDBLK
  5
E20
100
AcDbEntity
  8
0
100
AcDbBlockEnd
  0
BLOCK
  5
F9845
100
AcDbEntity
  8
0
100
AcDbBlockBegin
  2
*D13
 70
     1
 10
0.0
 20
0.0
 30
0.0
  3
*D13
  1

  0
LINE
  5
F9846
100
AcDbEntity
  8
0
  6
BYBLOCK
 62
     0
100
AcDbLine
 10
-2.040644
 20
10.84106
 30
0.0
 11
-2.040644
 21
11.886542
 31
0.0
  0
LINE
  5
F9847
100
AcDbEntity
  8
0
  6
BYBLOCK
 62
     0
100
AcDbLine
 10
-1.790644
 20
10.84106
 30
0.0
 11
-1.790644
 21
11.886542
 31
0.0
  0
LINE
  5
F9848
100
AcDbEntity
  8
0
  6
BYBLOCK
 62
     0
100
AcDbLine
 10
-2.220644
 20
11.706542
 30
0.0
 11
-2.400644
 21
11.706542
 31
0.0
  0
LINE
  5
F9849
100
AcDbEntity
  8
0
  6
BYBLOCK
 62
     0
100
AcDbLine
 10
-1.610644
 20
11.706542
 30
0.0
 11
-1.430644
 21
11.706542
 31
0.0
  0
SOLID
  5
F984A
100
AcDbEntity
  8
0
  6
BYBLOCK
 62
     0
100
AcDbTrace
 10
-2.220644
 20
11.736542
 30
0.0
 11
-2.220644
 21
11.676542
 31
0.0
 12
-2.040644
 22
11.706542
 32
0.0
 13
-2.040644
 23
11.706542
 33
0.0
  0
SOLID
  5
F984B
100
AcDbEntity
  8
0
  6
BYBLOCK
 62
     0
100
AcDbTrace
 10
-1.610644
 20
11.736542
 30
0.0
 11
-1.610644
 21
11.676542
 31
0.0
 12
-1.790644
 22
11.706542
 32
0.0
 13
-1.790644
 23
11.706542
 33
0.0
  0
TEXT
  5
F984C
100
AcDbEntity
  8
0
  6
BYBLOCK
 62
     0
100
AcDbText
 10
-1.340644
 20
11.616542
 30
0.0
 40
0.18
  1
0.25 [6.4mm]
 72
     1
 11
-0.485644
 21
11.706542
 31
0.0
100
AcDbText
 73
     2
  0
POINT
  5
F984D
100
AcDbEntity
  8
DEFPOINTS
  6
BYBLOCK
 62
     0
100
AcDbPoint
 10
-2.040644
 20
10.77856
 30
0.0
  0
POINT
  5
F984E
100
AcDbEntity
  8
DEFPOINTS
  6
BYBLOCK
 62
     0
100
AcDbPoint
 10
-1.790644
 20
10.77856
 30
0.0
  0
POINT
  5
F984F
100
AcDbEntity
  8
DEFPOINTS
  6
BYBLOCK
 62
     0
100
AcDbPoint
 10
-1.790644
 20
11.706542
 30
0.0
  0
ENDBLK
  5
F9850
100
AcDbEntity
  8
0
100
AcDbBlockEnd
  0
BLOCK
  5
F99A2
100
AcDbEntity
  8
0
100
AcDbBlockBegin
  2
*D14
 70
     1
 10
0.0
 20
0.0
 30
0.0
  3
*D14
  1

  0
LINE
  5
F99A3
100
AcDbEntity
  8
0
  6
BYBLOCK
 62
     0
100
AcDbLine
 10
19.098549
 20
14.935105
 30
0.0
 11
19.098549
 21
16.812212
 31
0.0
  0
LINE
  5
F99A4
100
AcDbEntity
  8
0
  6
BYBLOCK
 62
     0
100
AcDbLine
 10
15.470964
 20
14.089344
 30
0.0
 11
15.470964
 21
16.812212
 31
0.0
  0
LINE
  5
F99A5
100
AcDbEntity
  8
0
  6
BYBLOCK
 62
     0
100
AcDbLine
 10
18.918549
 20
16.632212
 30
0.0
 11
18.304756
 21
16.632212
 31
0.0
  0
LINE
  5
F99A6
100
AcDbEntity
  8
0
  6
BYBLOCK
 62
     0
100
AcDbLine
 10
15.650964
 20
16.632212
 30
0.0
 11
16.264756
 21
16.632212
 31
0.0
  0
SOLID
  5
F99A7
100
AcDbEntity
  8
0
  6
BYBLOCK
 62
     0
100
AcDbTrace
 10
18.918549
 20
16.662212
 30
0.0
 11
18.918549
 21
16.602212
 31
0.0
 12
19.098549
 22
16.632212
 32
0.0
 13
19.098549
 23
16.632212
 33
0.0
  0
SOLID
  5
F99A8
100
AcDbEntity
  8
0
  6
BYBLOCK
 62
     0
100
AcDbTrace
 10
15.650964
 20
16.662212
 30
0.0
 11
15.650964
 21
16.602212
 31
0.0
 12
15.470964
 22
16.632212
 32
0.0
 13
15.470964
 23
16.632212
 33
0.0
  0
TEXT
  5
F99A9
100
AcDbEntity
  8
0
  6
BYBLOCK
 62
     0
100
AcDbText
 10
16.354756
 20
16.542212
 30
0.0
 40
0.18
  1
3.63 [92.1mm]
 72
     1
 11
17.284756
 21
16.632212
 31
0.0
100
AcDbText
 73
     2
  0
POINT
  5
F99AA
100
AcDbEntity
  8
DEFPOINTS
  6
BYBLOCK
 62
     0
100
AcDbPoint
 10
19.098549
 20
14.872605
 30
0.0
  0
POINT
  5
F99AB
100
AcDbEntity
  8
DEFPOINTS
  6
BYBLOCK
 62
     0
100
AcDbPoint
 10
15.470964
 20
14.026844
 30
0.0
  0
POINT
  5
F99AC
100
AcDbEntity
  8
DEFPOINTS
  6
BYBLOCK
 62
     0
100
AcDbPoint
 10
15.470964
 20
16.632212
 30
0.0
  0
ENDBLK
  5
F99AD
100
AcDbEntity
  8
0
100
AcDbBlockEnd
  0
BLOCK
  5
F9B9A
100
AcDbEntity
  8
0
100
AcDbBlockBegin
  2
*D15
 70
     1
 10
0.0
 20
0.0
 30
0.0
  3
*D15
  1

  0
LINE
  5
F9B9B
100
AcDbEntity
  8
0
  6
BYBLOCK
 62
     0
100
AcDbLine
 10
15.723564
 20
14.310105
 30
0.0
 11
15.723564
 21
16.257831
 31
0.0
  0
LINE
  5
F9B9C
100
AcDbEntity
  8
0
  6
BYBLOCK
 62
     0
100
AcDbLine
 10
19.098549
 20
14.935105
 30
0.0
 11
19.098549
 21
16.257831
 31
0.0
  0
LINE
  5
F9B9D
100
AcDbEntity
  8
0
  6
BYBLOCK
 62
     0
100
AcDbLine
 10
15.903564
 20
16.077831
 30
0.0
 11
16.361056
 21
16.077831
 31
0.0
  0
LINE
  5
F9B9E
100
AcDbEntity
  8
0
  6
BYBLOCK
 62
     0
100
AcDbLine
 10
18.918549
 20
16.077831
 30
0.0
 11
18.461056
 21
16.077831
 31
0.0
  0
SOLID
  5
F9B9F
100
AcDbEntity
  8
0
  6
BYBLOCK
 62
     0
100
AcDbTrace
 10
15.903564
 20
16.107831
 30
0.0
 11
15.903564
 21
16.047831
 31
0.0
 12
15.723564
 22
16.077831
 32
0.0
 13
15.723564
 23
16.077831
 33
0.0
  0
SOLID
  5
F9BA0
100
AcDbEntity
  8
0
  6
BYBLOCK
 62
     0
100
AcDbTrace
 10
18.918549
 20
16.107831
 30
0.0
 11
18.918549
 21
16.047831
 31
0.0
 12
19.098549
 22
16.077831
 32
0.0
 13
19.098549
 23
16.077831
 33
0.0
  0
TEXT
  5
F9BA1
100
AcDbEntity
  8
0
  6
BYBLOCK
 62
     0
100
AcDbText
 10
16.451056
 20
15.987831
 30
0.0
 40
0.18
  1
3.37 [85.7mm]
 72
     1
 11
17.411056
 21
16.077831
 31
0.0
100
AcDbText
 73
     2
  0
POINT
  5
F9BA2
100
AcDbEntity
  8
DEFPOINTS
  6
BYBLOCK
 62
     0
100
AcDbPoint
 10
15.723564
 20
14.247605
 30
0.0
  0
POINT
  5
F9BA3
100
AcDbEntity
  8
DEFPOINTS
  6
BYBLOCK
 62
     0
100
AcDbPoint
 10
19.098549
 20
14.872605
 30
0.0
  0
POINT
  5
F9BA4
100
AcDbEntity
  8
DEFPOINTS
  6
BYBLOCK
 62
     0
100
AcDbPoint
 10
19.098549
 20
16.077831
 30
0.0
  0
ENDBLK
  5
F9BA5
100
AcDbEntity
  8
0
100
AcDbBlockEnd
  0
BLOCK
  5
F9CD3
100
AcDbEntity
  8
0
100
AcDbBlockBegin
  2
*D16
 70
     1
 10
0.0
 20
0.0
 30
0.0
  3
*D16
  1

  0
LINE
  5
F9CD4
100
AcDbEntity
  8
0
  6
BYBLOCK
 62
     0
100
AcDbLine
 10
0.999021
 20
10.683609
 30
0.0
 11
0.999021
 21
13.19719
 31
0.0
  0
LINE
  5
F9CD5
100
AcDbEntity
  8
0
  6
BYBLOCK
 62
     0
100
AcDbLine
 10
-2.626192
 20
10.569274
 30
0.0
 11
-2.626192
 21
13.19719
 31
0.0
  0
LINE
  5
F9CD6
100
AcDbEntity
  8
0
  6
BYBLOCK
 62
     0
100
AcDbLine
 10
0.819021
 20
13.01719
 30
0.0
 11
0.206414
 21
13.01719
 31
0.0
  0
LINE
  5
F9CD7
100
AcDbEntity
  8
0
  6
BYBLOCK
 62
     0
100
AcDbLine
 10
-2.446192
 20
13.01719
 30
0.0
 11
-1.833586
 21
13.01719
 31
0.0
  0
SOLID
  5
F9CD8
100
AcDbEntity
  8
0
  6
BYBLOCK
 62
     0
100
AcDbTrace
 10
0.819021
 20
13.04719
 30
0.0
 11
0.819021
 21
12.98719
 31
0.0
 12
0.999021
 22
13.01719
 32
0.0
 13
0.999021
 23
13.01719
 33
0.0
  0
SOLID
  5
F9CD9
100
AcDbEntity
  8
0
  6
BYBLOCK
 62
     0
100
AcDbTrace
 10
-2.446192
 20
13.04719
 30
0.0
 11
-2.446192
 21
12.98719
 31
0.0
 12
-2.626192
 22
13.01719
 32
0.0
 13
-2.626192
 23
13.01719
 33
0.0
  0
TEXT
  5
F9CDA
100
AcDbEntity
  8
0
  6
BYBLOCK
 62
     0
100
AcDbText
 10
-1.743586
 20
12.92719
 30
0.0
 40
0.18
  1
3.63 [92.1mm]
 72
     1
 11
-0.813586
 21
13.01719
 31
0.0
100
AcDbText
 73
     2
  0
POINT
  5
F9CDB
100
AcDbEntity
  8
DEFPOINTS
  6
BYBLOCK
 62
     0
100
AcDbPoint
 10
0.999021
 20
10.621109
 30
0.0
  0
POINT
  5
F9CDC
100
AcDbEntity
  8
DEFPOINTS
  6
BYBLOCK
 62
     0
100
AcDbPoint
 10
-2.626192
 20
10.506774
 30
0.0
  0
POINT
  5
F9CDD
100
AcDbEntity
  8
DEFPOINTS
  6
BYBLOCK
 62
     0
100
AcDbPoint
 10
-2.626192
 20
13.01719
 30
0.0
  0
ENDBLK
  5
F9CDE
100
AcDbEntity
  8
0
100
AcDbBlockEnd
  0
BLOCK
  5
F9F1E
100
AcDbEntity
  8
0
100
AcDbBlockBegin
  2
*D17
 70
     1
 10
0.0
 20
0.0
 30
0.0
  3
*D17
  1

  0
LINE
  5
F9F1F
100
AcDbEntity
  8
0
  6
BYBLOCK
 62
     0
100
AcDbLine
 10
-8.645658
 20
9.272685
 30
0.0
 11
-8.645658
 21
8.247774
 31
0.0
  0
LINE
  5
F9F20
100
AcDbEntity
  8
0
  6
BYBLOCK
 62
     0
100
AcDbLine
 10
-6.645658
 20
9.272685
 30
0.0
 11
-6.645658
 21
8.247774
 31
0.0
  0
LINE
  5
F9F21
100
AcDbEntity
  8
0
  6
BYBLOCK
 62
     0
100
AcDbLine
 10
-8.825658
 20
8.427774
 30
0.0
 11
-9.005658
 21
8.427774
 31
0.0
  0
LINE
  5
F9F22
100
AcDbEntity
  8
0
  6
BYBLOCK
 62
     0
100
AcDbLine
 10
-6.465658
 20
8.427774
 30
0.0
 11
-6.285658
 21
8.427774
 31
0.0
  0
SOLID
  5
F9F23
100
AcDbEntity
  8
0
  6
BYBLOCK
 62
     0
100
AcDbTrace
 10
-8.825658
 20
8.457774
 30
0.0
 11
-8.825658
 21
8.397774
 31
0.0
 12
-8.645658
 22
8.427774
 32
0.0
 13
-8.645658
 23
8.427774
 33
0.0
  0
SOLID
  5
F9F24
100
AcDbEntity
  8
0
  6
BYBLOCK
 62
     0
100
AcDbTrace
 10
-6.465658
 20
8.457774
 30
0.0
 11
-6.465658
 21
8.397774
 31
0.0
 12
-6.645658
 22
8.427774
 32
0.0
 13
-6.645658
 23
8.427774
 33
0.0
  0
TEXT
  5
F9F25
100
AcDbEntity
  8
0
  6
BYBLOCK
 62
     0
100
AcDbText
 10
-6.195658
 20
8.337774
 30
0.0
 40
0.18
  1
2.00 [50.8mm]
 72
     1
 11
-5.280658
 21
8.427774
 31
0.0
100
AcDbText
 73
     2
  0
POINT
  5
F9F26
100
AcDbEntity
  8
DEFPOINTS
  6
BYBLOCK
 62
     0
100
AcDbPoint
 10
-8.645658
 20
9.335185
 30
0.0
  0
POINT
  5
F9F27
100
AcDbEntity
  8
DEFPOINTS
  6
BYBLOCK
 62
     0
100
AcDbPoint
 10
-6.645658
 20
9.335185
 30
0.0
  0
POINT
  5
F9F28
100
AcDbEntity
  8
DEFPOINTS
  6
BYBLOCK
 62
     0
100
AcDbPoint
 10
-6.645658
 20
8.427774
 30
0.0
  0
ENDBLK
  5
F9F29
100
AcDbEntity
  8
0
100
AcDbBlockEnd
  0
BLOCK
  5
FA12F
100
AcDbEntity
  8
0
100
AcDbBlockBegin
  2
*D18
 70
     1
 10
0.0
 20
0.0
 30
0.0
  3
*D18
  1

  0
LINE
  5
FA130
100
AcDbEntity
  8
0
  6
BYBLOCK
 62
     0
100
AcDbLine
 10
-7.708158
 20
8.757834
 30
0.0
 11
-10.135631
 21
8.757834
 31
0.0
  0
LINE
  5
FA131
100
AcDbEntity
  8
0
  6
BYBLOCK
 62
     0
100
AcDbLine
 10
-7.708158
 20
11.067235
 30
0.0
 11
-10.135631
 21
11.067235
 31
0.0
  0
LINE
  5
FA132
100
AcDbEntity
  8
0
  6
BYBLOCK
 62
     0
100
AcDbLine
 10
-9.955631
 20
8.937834
 30
0.0
 11
-9.955631
 21
9.732535
 31
0.0
  0
LINE
  5
FA133
100
AcDbEntity
  8
0
  6
BYBLOCK
 62
     0
100
AcDbLine
 10
-9.955631
 20
10.887235
 30
0.0
 11
-9.955631
 21
10.092535
 31
0.0
  0
SOLID
  5
FA134
100
AcDbEntity
  8
0
  6
BYBLOCK
 62
     0
100
AcDbTrace
 10
-9.985631
 20
8.937834
 30
0.0
 11
-9.925631
 21
8.937834
 31
0.0
 12
-9.955631
 22
8.757834
 32
0.0
 13
-9.955631
 23
8.757834
 33
0.0
  0
SOLID
  5
FA135
100
AcDbEntity
  8
0
  6
BYBLOCK
 62
     0
100
AcDbTrace
 10
-9.985631
 20
10.887235
 30
0.0
 11
-9.925631
 21
10.887235
 31
0.0
 12
-9.955631
 22
11.067235
 32
0.0
 13
-9.955631
 23
11.067235
 33
0.0
  0
TEXT
  5
FA136
100
AcDbEntity
  8
0
  6
BYBLOCK
 62
     0
100
AcDbText
 10
-10.885631
 20
9.822535
 30
0.0
 40
0.18
  1
2.31 [58.7mm]
 72
     1
 11
-9.955631
 21
9.912535
 31
0.0
100
AcDbText
 73
     2
  0
POINT
  5
FA137
100
AcDbEntity
  8
DEFPOINTS
  6
BYBLOCK
 62
     0
100
AcDbPoint
 10
-7.645658
 20
8.757834
 30
0.0
  0
POINT
  5
FA138
100
AcDbEntity
  8
DEFPOINTS
  6
BYBLOCK
 62
     0
100
AcDbPoint
 10
-7.645658
 20
11.067235
 30
0.0
  0
POINT
  5
FA139
100
AcDbEntity
  8
DEFPOINTS
  6
BYBLOCK
 62
     0
100
AcDbPoint
 10
-9.955631
 20
11.067235
 30
0.0
  0
ENDBLK
  5
FA13A
100
AcDbEntity
  8
0
100
AcDbBlockEnd
  0
BLOCK
  5
26B8D8
100
AcDbEntity
  8
0
100
AcDbBlockBegin
  2
*D19
 70
     1
 10
0.0
 20
0.0
 30
0.0
  3
*D19
  1

  0
LINE
  5
26B8D9
100
AcDbEntity
  8
0
  6
BYBLOCK
 62
     0
100
AcDbLine
 10
11.048097
 20
9.253785
 30
0.0
 11
11.048097
 21
8.144108
 31
0.0
  0
LINE
  5
26B8DA
100
AcDbEntity
  8
0
  6
BYBLOCK
 62
     0
100
AcDbLine
 10
14.048097
 20
9.253785
 30
0.0
 11
14.048097
 21
8.144108
 31
0.0
  0
LINE
  5
26B8DB
100
AcDbEntity
  8
0
  6
BYBLOCK
 62
     0
100
AcDbLine
 10
11.228097
 20
8.324108
 30
0.0
 11
11.528097
 21
8.324108
 31
0.0
  0
LINE
  5
26B8DC
100
AcDbEntity
  8
0
  6
BYBLOCK
 62
     0
100
AcDbLine
 10
13.868097
 20
8.324108
 30
0.0
 11
13.568097
 21
8.324108
 31
0.0
  0
SOLID
  5
26B8DD
100
AcDbEntity
  8
0
  6
BYBLOCK
 62
     0
100
AcDbTrace
 10
11.228097
 20
8.354108
 30
0.0
 11
11.228097
 21
8.294108
 31
0.0
 12
11.048097
 22
8.324108
 32
0.0
 13
11.048097
 23
8.324108
 33
0.0
  0
SOLID
  5
26B8DE
100
AcDbEntity
  8
0
  6
BYBLOCK
 62
     0
100
AcDbTrace
 10
13.868097
 20
8.354108
 30
0.0
 11
13.868097
 21
8.294108
 31
0.0
 12
14.048097
 22
8.324108
 32
0.0
 13
14.048097
 23
8.324108
 33
0.0
  0
TEXT
  5
26B8DF
100
AcDbEntity
  8
0
  6
BYBLOCK
 62
     0
100
AcDbText
 10
11.618097
 20
8.234108
 30
0.0
 40
0.18
  1
3.00 [76.2mm]
 72
     1
 11
12.548097
 21
8.324108
 31
0.0
100
AcDbText
 73
     2
  0
POINT
  5
26B8E0
100
AcDbEntity
  8
DEFPOINTS
  6
BYBLOCK
 62
     0
100
AcDbPoint
 10
11.048097
 20
9.316285
 30
0.0
  0
POINT
  5
26B8E1
100
AcDbEntity
  8
DEFPOINTS
  6
BYBLOCK
 62
     0
100
AcDbPoint
 10
14.048097
 20
9.316285
 30
0.0
  0
POINT
  5
26B8E2
100
AcDbEntity
  8
DEFPOINTS
  6
BYBLOCK
 62
     0
100
AcDbPoint
 10
14.048097
 20
8.324108
 30
0.0
  0
ENDBLK
  5
26B8E3
100
AcDbEntity
  8
0
100
AcDbBlockEnd
  0
BLOCK
  5
26BAE9
100
AcDbEntity
  8
0
100
AcDbBlockBegin
  2
*D20
 70
     1
 10
0.0
 20
0.0
 30
0.0
  3
*D20
  1

  0
LINE
  5
26BAEA
100
AcDbEntity
  8
0
  6
BYBLOCK
 62
     0
100
AcDbLine
 10
11.298097
 20
9.849535
 30
0.0
 11
11.298097
 21
8.646129
 31
0.0
  0
LINE
  5
26BAEB
100
AcDbEntity
  8
0
  6
BYBLOCK
 62
     0
100
AcDbLine
 10
13.798097
 20
9.849535
 30
0.0
 11
13.798097
 21
8.646129
 31
0.0
  0
LINE
  5
26BAEC
100
AcDbEntity
  8
0
  6
BYBLOCK
 62
     0
100
AcDbLine
 10
11.118097
 20
8.826129
 30
0.0
 11
10.938097
 21
8.826129
 31
0.0
  0
LINE
  5
26BAED
100
AcDbEntity
  8
0
  6
BYBLOCK
 62
     0
100
AcDbLine
 10
13.978097
 20
8.826129
 30
0.0
 11
14.158097
 21
8.826129
 31
0.0
  0
SOLID
  5
26BAEE
100
AcDbEntity
  8
0
  6
BYBLOCK
 62
     0
100
AcDbTrace
 10
11.118097
 20
8.856129
 30
0.0
 11
11.118097
 21
8.796129
 31
0.0
 12
11.298097
 22
8.826129
 32
0.0
 13
11.298097
 23
8.826129
 33
0.0
  0
SOLID
  5
26BAEF
100
AcDbEntity
  8
0
  6
BYBLOCK
 62
     0
100
AcDbTrace
 10
13.978097
 20
8.856129
 30
0.0
 11
13.978097
 21
8.796129
 31
0.0
 12
13.798097
 22
8.826129
 32
0.0
 13
13.798097
 23
8.826129
 33
0.0
  0
TEXT
  5
26BAF0
100
AcDbEntity
  8
0
  6
BYBLOCK
 62
     0
100
AcDbText
 10
11.453097
 20
8.736129
 30
0.0
 40
0.18
  1
2.500 [63.50mm]
 72
     1
 11
12.548097
 21
8.826129
 31
0.0
100
AcDbText
 73
     2
  0
POINT
  5
26BAF1
100
AcDbEntity
  8
DEFPOINTS
  6
BYBLOCK
 62
     0
100
AcDbPoint
 10
11.298097
 20
9.912535
 30
0.0
  0
POINT
  5
26BAF2
100
AcDbEntity
  8
DEFPOINTS
  6
BYBLOCK
 62
     0
100
AcDbPoint
 10
13.798097
 20
9.912535
 30
0.0
  0
POINT
  5
26BAF3
100
AcDbEntity
  8
DEFPOINTS
  6
BYBLOCK
 62
     0
100
AcDbPoint
 10
13.798097
 20
8.826129
 30
0.0
  0
ENDBLK
  5
26BAF4
100
AcDbEntity
  8
0
100
AcDbBlockEnd
  0
BLOCK
  5
26CF20
100
AcDbEntity
  8
0
 62
     7
100
AcDbBlockBegin
  2
COPY
 70
     0
 10
0.0
 20
0.0
 30
0.0
  3
COPY
  1

  0
LWPOLYLINE
  5
26CF16
100
AcDbEntity
  8
BORDER
100
AcDbPolyline
 90
        4
 70
     1
 43
0.01
 10
3.111191
 20
0.0
 10
0.0
 20
0.0
 10
0.0
 20
-0.888912
 10
3.111191
 20
-0.888912
  0
TEXT
  5
26CF17
100
AcDbEntity
  8
BORDER
 62
     2
100
AcDbText
 10
0.058933
 20
-0.355565
 30
0.0
 40
0.042668
  1
IS THE CONFIDENTIAL PROPERTY OF DOVER FLEXO ELECTRONICS, NONE OF WHICH SHALL
 41
0.95
100
AcDbText
  0
TEXT
  5
26CF18
100
AcDbEntity
  8
BORDER
 62
     2
100
AcDbText
 10
0.058933
 20
-0.444456
 30
0.0
 40
0.042668
  1
BE COPIED, REPRODUCED, DISCLOSED TO OTHERS, PUBLISHED OR USED IN WHOLE OR IN
 41
0.95
100
AcDbText
  0
TEXT
  5
26CF19
100
AcDbEntity
  8
BORDER
 62
     2
100
AcDbText
 10
0.058933
 20
-0.533347
 30
0.0
 40
0.042668
  1
PART, FOR ANY PURPOSE OTHER THAN THAT FOR WHICH IT IS BEING MADE AVAILABLE
 41
0.95
100
AcDbText
  0
TEXT
  5
26CF1A
100
AcDbEntity
  8
BORDER
 62
     2
100
AcDbText
 10
0.058933
 20
-0.622238
 30
0.0
 40
0.042668
  1
WITHOUT THE EXPRESS ADVANCE WRITTEN PERMISSION OF A DULY AUTHORIZED AGENT
 41
0.95
100
AcDbText
  0
TEXT
  5
26CF1B
100
AcDbEntity
  8
BORDER
 62
     2
100
AcDbText
 10
0.058933
 20
-0.711129
 30
0.0
 40
0.042668
  1
OF THE COMPANY. THIS DOCUMENT IS THE PROPERTY OF DFE AND
 41
0.95
100
AcDbText
  0
TEXT
  5
26CF1C
100
AcDbEntity
  8
BORDER
 62
     2
100
AcDbText
 10
0.058933
 20
-0.266673
 30
0.0
 40
0.042668
  1
THE SUBJECT MATTER DISCLOSED HEREIN EMBODIES PROPRIETARY INFORMATION WHICH
 41
0.95
100
AcDbText
  0
TEXT
  5
26CF1D
100
AcDbEntity
  8
BORDER
 62
     2
100
AcDbText
 10
0.803396
 20
-0.122222
 30
0.0
 40
0.060446
  1
COMPANY CONFIDENTIAL
 41
1.25
100
AcDbText
  0
LINE
  5
26CF1E
100
AcDbEntity
  8
BORDER
 62
     2
100
AcDbLine
 10
0.770062
 20
-0.144445
 30
0.0
 11
2.281212
 21
-0.144445
 31
0.0
  0
TEXT
  5
26CF1F
100
AcDbEntity
  8
BORDER
 62
     2
100
AcDbText
 10
0.058933
 20
-0.80002
 30
0.0
 40
0.042668
  1
IS TO BE RETURNED TO THE COMPANY ON DEMAND.
 41
0.95
100
AcDbText
  0
ENDBLK
  5
26CF21
100
AcDbEntity
  8
0
 62
     7
100
AcDbBlockEnd
  0
BLOCK
  5
26D713
100
AcDbEntity
  8
0
100
AcDbBlockBegin
  2
*D22
 70
     1
 10
0.0
 20
0.0
 30
0.0
  3
*D22
  1

  0
LINE
  5
26D714
100
AcDbEntity
  8
0
  6
BYBLOCK
 62
     0
100
AcDbLine
 10
24.778691
 20
0.53816
 30
0.0
 11
24.778691
 21
0.073985
 31
0.0
  0
LINE
  5
26D715
100
AcDbEntity
  8
0
  6
BYBLOCK
 62
     0
100
AcDbLine
 10
25.278691
 20
0.53816
 30
0.0
 11
25.278691
 21
0.073985
 31
0.0
  0
LINE
  5
26D716
100
AcDbEntity
  8
0
  6
BYBLOCK
 62
     0
100
AcDbLine
 10
24.598691
 20
0.253985
 30
0.0
 11
24.418691
 21
0.253985
 31
0.0
  0
LINE
  5
26D717
100
AcDbEntity
  8
0
  6
BYBLOCK
 62
     0
100
AcDbLine
 10
25.458691
 20
0.253985
 30
0.0
 11
25.638691
 21
0.253985
 31
0.0
  0
MTEXT
  5
26D718
100
AcDbEntity
  8
0
  6
BYBLOCK
 62
     0
100
AcDbMText
 10
27.032452
 20
0.241444
 30
0.0
 40
0.18
 41
0.0
 71
     5
 72
     1
  1
\A1;0.50 [12.7mm]
  0
LINE
  5
26D719
100
AcDbEntity
  8
0
  6
BYBLOCK
 62
     0
100
AcDbLine
 10
24.778691
 20
0.253985
 30
0.0
 11
25.278691
 21
0.253985
 31
0.0
  0
SOLID
  5
26D71A
100
AcDbEntity
  8
0
  6
BYBLOCK
 62
     0
100
AcDbTrace
 10
24.598691
 20
0.283985
 30
0.0
 11
24.598691
 21
0.223985
 31
0.0
 12
24.778691
 22
0.253985
 32
0.0
 13
24.778691
 23
0.253985
 33
0.0
  0
SOLID
  5
26D71B
100
AcDbEntity
  8
0
  6
BYBLOCK
 62
     0
100
AcDbTrace
 10
25.458691
 20
0.283985
 30
0.0
 11
25.458691
 21
0.223985
 31
0.0
 12
25.278691
 22
0.253985
 32
0.0
 13
25.278691
 23
0.253985
 33
0.0
  0
POINT
  5
26D71C
100
AcDbEntity
  8
DEFPOINTS
  6
BYBLOCK
 62
     0
100
AcDbPoint
 10
24.778691
 20
0.60116
 30
0.0
  0
POINT
  5
26D71D
100
AcDbEntity
  8
DEFPOINTS
  6
BYBLOCK
 62
     0
100
AcDbPoint
 10
25.278691
 20
0.60116
 30
0.0
  0
POINT
  5
26D71E
100
AcDbEntity
  8
DEFPOINTS
  6
BYBLOCK
 62
     0
100
AcDbPoint
 10
25.278691
 20
0.253985
 30
0.0
  0
ENDBLK
  5
26D71F
100
AcDbEntity
  8
0
100
AcDbBlockEnd
  0
BLOCK
  5
26D69E
100
AcDbEntity
  8
0
100
AcDbBlockBegin
  2
*D23
 70
     1
 10
0.0
 20
0.0
 30
0.0
  3
*D23
  1

  0
LINE
  5
26D69F
100
AcDbEntity
  8
0
  6
BYBLOCK
 62
     0
100
AcDbLine
 10
23.821568
 20
18.437565
 30
0.0
 11
19.128082
 21
18.437565
 31
0.0
  0
LINE
  5
26D6A0
100
AcDbEntity
  8
0
  6
BYBLOCK
 62
     0
100
AcDbLine
 10
23.821568
 20
20.187565
 30
0.0
 11
19.128082
 21
20.187565
 31
0.0
  0
LINE
  5
26D6A1
100
AcDbEntity
  8
0
  6
BYBLOCK
 62
     0
100
AcDbLine
 10
19.308082
 20
18.617565
 30
0.0
 11
19.308082
 21
19.132565
 31
0.0
  0
LINE
  5
26D6A2
100
AcDbEntity
  8
0
  6
BYBLOCK
 62
     0
100
AcDbLine
 10
19.308082
 20
20.007565
 30
0.0
 11
19.308082
 21
19.492565
 31
0.0
  0
SOLID
  5
26D6A3
100
AcDbEntity
  8
0
  6
BYBLOCK
 62
     0
100
AcDbTrace
 10
19.278082
 20
18.617565
 30
0.0
 11
19.338082
 21
18.617565
 31
0.0
 12
19.308082
 22
18.437565
 32
0.0
 13
19.308082
 23
18.437565
 33
0.0
  0
SOLID
  5
26D6A4
100
AcDbEntity
  8
0
  6
BYBLOCK
 62
     0
100
AcDbTrace
 10
19.278082
 20
20.007565
 30
0.0
 11
19.338082
 21
20.007565
 31
0.0
 12
19.308082
 22
20.187565
 32
0.0
 13
19.308082
 23
20.187565
 33
0.0
  0
MTEXT
  5
26D6A5
100
AcDbEntity
  8
0
  6
BYBLOCK
 62
     0
100
AcDbMText
 10
19.308082
 20
19.312565
 30
0.0
 40
0.18
 41
0.0
 71
     5
 72
     1
  1
\A1;1.75 [44.5mm]
  0
POINT
  5
26D6A6
100
AcDbEntity
  8
DEFPOINTS
  6
BYBLOCK
 62
     0
100
AcDbPoint
 10
23.884568
 20
18.437565
 30
0.0
  0
POINT
  5
26D6A7
100
AcDbEntity
  8
DEFPOINTS
  6
BYBLOCK
 62
     0
100
AcDbPoint
 10
23.884568
 20
20.187565
 30
0.0
  0
POINT
  5
26D6A8
100
AcDbEntity
  8
DEFPOINTS
  6
BYBLOCK
 62
     0
100
AcDbPoint
 10
19.308082
 20
20.187565
 30
0.0
  0
ENDBLK
  5
26D6A9
100
AcDbEntity
  8
0
100
AcDbBlockEnd
  0
BLOCK
  5
26D6AB
100
AcDbEntity
  8
0
100
AcDbBlockBegin
  2
*D24
 70
     1
 10
0.0
 20
0.0
 30
0.0
  3
*D24
  1

  0
LINE
  5
26D6AC
100
AcDbEntity
  8
0
  6
BYBLOCK
 62
     0
100
AcDbLine
 10
24.011568
 20
19.93774
 30
0.0
 11
21.389171
 21
19.93774
 31
0.0
  0
LINE
  5
26D6AD
100
AcDbEntity
  8
0
  6
BYBLOCK
 62
     0
100
AcDbLine
 10
26.386554
 20
18.68739
 30
0.0
 11
21.389171
 21
18.68739
 31
0.0
  0
LINE
  5
26D6AE
100
AcDbEntity
  8
0
  6
BYBLOCK
 62
     0
100
AcDbLine
 10
21.569171
 20
19.75774
 30
0.0
 11
21.569171
 21
19.492565
 31
0.0
  0
LINE
  5
26D6AF
100
AcDbEntity
  8
0
  6
BYBLOCK
 62
     0
100
AcDbLine
 10
21.569171
 20
18.86739
 30
0.0
 11
21.569171
 21
19.132565
 31
0.0
  0
SOLID
  5
26D6B0
100
AcDbEntity
  8
0
  6
BYBLOCK
 62
     0
100
AcDbTrace
 10
21.539171
 20
19.75774
 30
0.0
 11
21.599171
 21
19.75774
 31
0.0
 12
21.569171
 22
19.93774
 32
0.0
 13
21.569171
 23
19.93774
 33
0.0
  0
SOLID
  5
26D6B1
100
AcDbEntity
  8
0
  6
BYBLOCK
 62
     0
100
AcDbTrace
 10
21.539171
 20
18.86739
 30
0.0
 11
21.599171
 21
18.86739
 31
0.0
 12
21.569171
 22
18.68739
 32
0.0
 13
21.569171
 23
18.68739
 33
0.0
  0
MTEXT
  5
26D6B2
100
AcDbEntity
  8
0
  6
BYBLOCK
 62
     0
100
AcDbMText
 10
21.569171
 20
19.312565
 30
0.0
 40
0.18
 41
0.0
 71
     5
 72
     1
  1
\A1;1.25 [31.8mm]
  0
POINT
  5
26D6B3
100
AcDbEntity
  8
DEFPOINTS
  6
BYBLOCK
 62
     0
100
AcDbPoint
 10
24.074568
 20
19.93774
 30
0.0
  0
POINT
  5
26D6B4
100
AcDbEntity
  8
DEFPOINTS
  6
BYBLOCK
 62
     0
100
AcDbPoint
 10
26.449554
 20
18.68739
 30
0.0
  0
POINT
  5
26D6B5
100
AcDbEntity
  8
DEFPOINTS
  6
BYBLOCK
 62
     0
100
AcDbPoint
 10
21.569171
 20
18.68739
 30
0.0
  0
ENDBLK
  5
26D6B6
100
AcDbEntity
  8
0
100
AcDbBlockEnd
  0
BLOCK
  5
26D78C
100
AcDbEntity
  8
0
100
AcDbBlockBegin
  2
*D25
 70
     1
 10
0.0
 20
0.0
 30
0.0
  3
*D25
  1

  0
LINE
  5
26D78D
100
AcDbEntity
  8
0
  6
BYBLOCK
 62
     0
100
AcDbLine
 10
25.278691
 20
3.54416
 30
0.0
 11
25.278691
 21
5.420768
 31
0.0
  0
LINE
  5
26D78E
100
AcDbEntity
  8
0
  6
BYBLOCK
 62
     0
100
AcDbLine
 10
21.651105
 20
2.26016
 30
0.0
 11
21.651105
 21
5.420768
 31
0.0
  0
LINE
  5
26D78F
100
AcDbEntity
  8
0
  6
BYBLOCK
 62
     0
100
AcDbLine
 10
25.098691
 20
5.240768
 30
0.0
 11
24.514898
 21
5.240768
 31
0.0
  0
LINE
  5
26D790
100
AcDbEntity
  8
0
  6
BYBLOCK
 62
     0
100
AcDbLine
 10
21.831105
 20
5.240768
 30
0.0
 11
22.414898
 21
5.240768
 31
0.0
  0
SOLID
  5
26D791
100
AcDbEntity
  8
0
  6
BYBLOCK
 62
     0
100
AcDbTrace
 10
25.098691
 20
5.270768
 30
0.0
 11
25.098691
 21
5.210768
 31
0.0
 12
25.278691
 22
5.240768
 32
0.0
 13
25.278691
 23
5.240768
 33
0.0
  0
SOLID
  5
26D792
100
AcDbEntity
  8
0
  6
BYBLOCK
 62
     0
100
AcDbTrace
 10
21.831105
 20
5.270768
 30
0.0
 11
21.831105
 21
5.210768
 31
0.0
 12
21.651105
 22
5.240768
 32
0.0
 13
21.651105
 23
5.240768
 33
0.0
  0
MTEXT
  5
26D793
100
AcDbEntity
  8
0
  6
BYBLOCK
 62
     0
100
AcDbMText
 10
23.464898
 20
5.240768
 30
0.0
 40
0.18
 41
0.0
 71
     5
 72
     1
  1
\A1;3.63 [92.2mm]
  0
POINT
  5
26D794
100
AcDbEntity
  8
DEFPOINTS
  6
BYBLOCK
 62
     0
100
AcDbPoint
 10
25.278691
 20
3.48116
 30
0.0
  0
POINT
  5
26D795
100
AcDbEntity
  8
DEFPOINTS
  6
BYBLOCK
 62
     0
100
AcDbPoint
 10
21.651105
 20
2.19716
 30
0.0
  0
POINT
  5
26D796
100
AcDbEntity
  8
DEFPOINTS
  6
BYBLOCK
 62
     0
100
AcDbPoint
 10
21.651105
 20
5.240768
 30
0.0
  0
ENDBLK
  5
26D797
100
AcDbEntity
  8
0
100
AcDbBlockEnd
  0
BLOCK
  5
26D6C5
100
AcDbEntity
  8
0
100
AcDbBlockBegin
  2
*D26
 70
     1
 10
0.0
 20
0.0
 30
0.0
  3
*D26
  1

  0
LINE
  5
26D6C6
100
AcDbEntity
  8
0
  6
BYBLOCK
 62
     0
100
AcDbLine
 10
24.074568
 20
20.00074
 30
0.0
 11
24.074568
 21
21.492344
 31
0.0
  0
LINE
  5
26D6C7
100
AcDbEntity
  8
0
  6
BYBLOCK
 62
     0
100
AcDbLine
 10
26.449554
 20
18.75039
 30
0.0
 11
26.449554
 21
21.492344
 31
0.0
  0
LINE
  5
26D6C8
100
AcDbEntity
  8
0
  6
BYBLOCK
 62
     0
100
AcDbLine
 10
23.894568
 20
21.312344
 30
0.0
 11
23.714568
 21
21.312344
 31
0.0
  0
LINE
  5
26D6C9
100
AcDbEntity
  8
0
  6
BYBLOCK
 62
     0
100
AcDbLine
 10
26.629554
 20
21.312344
 30
0.0
 11
26.809554
 21
21.312344
 31
0.0
  0
SOLID
  5
26D6CA
100
AcDbEntity
  8
0
  6
BYBLOCK
 62
     0
100
AcDbTrace
 10
23.894568
 20
21.342344
 30
0.0
 11
23.894568
 21
21.282344
 31
0.0
 12
24.074568
 22
21.312344
 32
0.0
 13
24.074568
 23
21.312344
 33
0.0
  0
SOLID
  5
26D6CB
100
AcDbEntity
  8
0
  6
BYBLOCK
 62
     0
100
AcDbTrace
 10
26.629554
 20
21.342344
 30
0.0
 11
26.629554
 21
21.282344
 31
0.0
 12
26.449554
 22
21.312344
 32
0.0
 13
26.449554
 23
21.312344
 33
0.0
  0
MTEXT
  5
26D6CC
100
AcDbEntity
  8
0
  6
BYBLOCK
 62
     0
100
AcDbMText
 10
25.262061
 20
21.312344
 30
0.0
 40
0.18
 41
0.0
 71
     5
 72
     1
  1
\A1;2.38 [60.3mm]
  0
POINT
  5
26D6CD
100
AcDbEntity
  8
DEFPOINTS
  6
BYBLOCK
 62
     0
100
AcDbPoint
 10
24.074568
 20
19.93774
 30
0.0
  0
POINT
  5
26D6CE
100
AcDbEntity
  8
DEFPOINTS
  6
BYBLOCK
 62
     0
100
AcDbPoint
 10
26.449554
 20
18.68739
 30
0.0
  0
POINT
  5
26D6CF
100
AcDbEntity
  8
DEFPOINTS
  6
BYBLOCK
 62
     0
100
AcDbPoint
 10
26.449554
 20
21.312344
 30
0.0
  0
ENDBLK
  5
26D6D0
100
AcDbEntity
  8
0
100
AcDbBlockEnd
  0
BLOCK
  5
26D7D0
100
AcDbEntity
  8
0
100
AcDbBlockBegin
  2
*D27
 70
     1
 10
0.0
 20
0.0
 30
0.0
  3
*D27
  1

  0
LINE
  5
26D7D1
100
AcDbEntity
  8
0
  6
BYBLOCK
 62
     0
100
AcDbLine
 10
21.903705
 20
2.91916
 30
0.0
 11
21.903705
 21
4.866386
 31
0.0
  0
LINE
  5
26D7D2
100
AcDbEntity
  8
0
  6
BYBLOCK
 62
     0
100
AcDbLine
 10
25.278691
 20
3.54416
 30
0.0
 11
25.278691
 21
4.866386
 31
0.0
  0
LINE
  5
26D7D3
100
AcDbEntity
  8
0
  6
BYBLOCK
 62
     0
100
AcDbLine
 10
22.083705
 20
4.686386
 30
0.0
 11
22.721198
 21
4.686386
 31
0.0
  0
LINE
  5
26D7D4
100
AcDbEntity
  8
0
  6
BYBLOCK
 62
     0
100
AcDbLine
 10
25.098691
 20
4.686386
 30
0.0
 11
24.461198
 21
4.686386
 31
0.0
  0
SOLID
  5
26D7D5
100
AcDbEntity
  8
0
  6
BYBLOCK
 62
     0
100
AcDbTrace
 10
22.083705
 20
4.716386
 30
0.0
 11
22.083705
 21
4.656386
 31
0.0
 12
21.903705
 22
4.686386
 32
0.0
 13
21.903705
 23
4.686386
 33
0.0
  0
SOLID
  5
26D7D6
100
AcDbEntity
  8
0
  6
BYBLOCK
 62
     0
100
AcDbTrace
 10
25.098691
 20
4.716386
 30
0.0
 11
25.098691
 21
4.656386
 31
0.0
 12
25.278691
 22
4.686386
 32
0.0
 13
25.278691
 23
4.686386
 33
0.0
  0
MTEXT
  5
26D7D7
100
AcDbEntity
  8
0
  6
BYBLOCK
 62
     0
100
AcDbMText
 10
23.591198
 20
4.686386
 30
0.0
 40
0.18
 41
0.0
 71
     5
 72
     1
  1
\A1;3.37 [85.7]
  0
POINT
  5
26D7D8
100
AcDbEntity
  8
DEFPOINTS
  6
BYBLOCK
 62
     0
100
AcDbPoint
 10
21.903705
 20
2.85616
 30
0.0
  0
POINT
  5
26D7D9
100
AcDbEntity
  8
DEFPOINTS
  6
BYBLOCK
 62
     0
100
AcDbPoint
 10
25.278691
 20
3.48116
 30
0.0
  0
POINT
  5
26D7DA
100
AcDbEntity
  8
DEFPOINTS
  6
BYBLOCK
 62
     0
100
AcDbPoint
 10
25.278691
 20
4.686386
 30
0.0
  0
ENDBLK
  5
26D7DB
100
AcDbEntity
  8
0
100
AcDbBlockEnd
  0
BLOCK
  5
26D721
100
AcDbEntity
  8
0
100
AcDbBlockBegin
  2
*D28
 70
     1
 10
0.0
 20
0.0
 30
0.0
  3
*D28
  1

  0
LINE
  5
26D722
100
AcDbEntity
  8
0
  6
BYBLOCK
 62
     0
100
AcDbLine
 10
26.007691
 20
1.68316
 30
0.0
 11
26.007691
 21
-1.350169
 31
0.0
  0
LINE
  5
26D723
100
AcDbEntity
  8
0
  6
BYBLOCK
 62
     0
100
AcDbLine
 10
20.821105
 20
1.85816
 30
0.0
 11
20.821105
 21
-1.350169
 31
0.0
  0
LINE
  5
26D724
100
AcDbEntity
  8
0
  6
BYBLOCK
 62
     0
100
AcDbLine
 10
25.827691
 20
-1.170169
 30
0.0
 11
24.464398
 21
-1.170169
 31
0.0
  0
LINE
  5
26D725
100
AcDbEntity
  8
0
  6
BYBLOCK
 62
     0
100
AcDbLine
 10
21.001105
 20
-1.170169
 30
0.0
 11
22.364398
 21
-1.170169
 31
0.0
  0
SOLID
  5
26D726
100
AcDbEntity
  8
0
  6
BYBLOCK
 62
     0
100
AcDbTrace
 10
25.827691
 20
-1.140169
 30
0.0
 11
25.827691
 21
-1.200169
 31
0.0
 12
26.007691
 22
-1.170169
 32
0.0
 13
26.007691
 23
-1.170169
 33
0.0
  0
SOLID
  5
26D727
100
AcDbEntity
  8
0
  6
BYBLOCK
 62
     0
100
AcDbTrace
 10
21.001105
 20
-1.140169
 30
0.0
 11
21.001105
 21
-1.200169
 31
0.0
 12
20.821105
 22
-1.170169
 32
0.0
 13
20.821105
 23
-1.170169
 33
0.0
  0
MTEXT
  5
26D728
100
AcDbEntity
  8
0
  6
BYBLOCK
 62
     0
100
AcDbMText
 10
23.414398
 20
-1.170169
 30
0.0
 40
0.18
 41
0.0
 71
     5
 72
     1
  1
\A1;5.19 [131.7mm]
  0
POINT
  5
26D729
100
AcDbEntity
  8
DEFPOINTS
  6
BYBLOCK
 62
     0
100
AcDbPoint
 10
26.007691
 20
1.74616
 30
0.0
  0
POINT
  5
26D72A
100
AcDbEntity
  8
DEFPOINTS
  6
BYBLOCK
 62
     0
100
AcDbPoint
 10
20.821105
 20
1.92116
 30
0.0
  0
POINT
  5
26D72B
100
AcDbEntity
  8
DEFPOINTS
  6
BYBLOCK
 62
     0
100
AcDbPoint
 10
20.821105
 20
-1.170169
 30
0.0
  0
ENDBLK
  5
26D72C
100
AcDbEntity
  8
0
100
AcDbBlockEnd
  0
BLOCK
  5
26D764
100
AcDbEntity
  8
0
100
AcDbBlockBegin
  2
*D29
 70
     1
 10
0.0
 20
0.0
 30
0.0
  3
*D29
  1

  0
LINE
  5
26D765
100
AcDbEntity
  8
0
  6
BYBLOCK
 62
     0
100
AcDbLine
 10
23.821568
 20
18.437565
 30
0.0
 11
18.484454
 21
18.437565
 31
0.0
  0
LINE
  5
26D766
100
AcDbEntity
  8
0
  6
BYBLOCK
 62
     0
100
AcDbLine
 10
23.821568
 20
20.187565
 30
0.0
 11
18.484454
 21
20.187565
 31
0.0
  0
LINE
  5
26D767
100
AcDbEntity
  8
0
  6
BYBLOCK
 62
     0
100
AcDbLine
 10
18.664454
 20
18.617565
 30
0.0
 11
18.664454
 21
19.132565
 31
0.0
  0
LINE
  5
26D768
100
AcDbEntity
  8
0
  6
BYBLOCK
 62
     0
100
AcDbLine
 10
18.664454
 20
20.007565
 30
0.0
 11
18.664454
 21
19.492565
 31
0.0
  0
SOLID
  5
26D769
100
AcDbEntity
  8
0
  6
BYBLOCK
 62
     0
100
AcDbTrace
 10
18.634454
 20
18.617565
 30
0.0
 11
18.694454
 21
18.617565
 31
0.0
 12
18.664454
 22
18.437565
 32
0.0
 13
18.664454
 23
18.437565
 33
0.0
  0
SOLID
  5
26D76A
100
AcDbEntity
  8
0
  6
BYBLOCK
 62
     0
100
AcDbTrace
 10
18.634454
 20
20.007565
 30
0.0
 11
18.694454
 21
20.007565
 31
0.0
 12
18.664454
 22
20.187565
 32
0.0
 13
18.664454
 23
20.187565
 33
0.0
  0
MTEXT
  5
26D76B
100
AcDbEntity
  8
0
  6
BYBLOCK
 62
     0
100
AcDbMText
 10
18.664454
 20
19.312565
 30
0.0
 40
0.18
 41
0.0
 71
     5
 72
     1
  1
\A1;1.75 [44.5mm]
  0
POINT
  5
26D76C
100
AcDbEntity
  8
DEFPOINTS
  6
BYBLOCK
 62
     0
100
AcDbPoint
 10
23.884568
 20
18.437565
 30
0.0
  0
POINT
  5
26D76D
100
AcDbEntity
  8
DEFPOINTS
  6
BYBLOCK
 62
     0
100
AcDbPoint
 10
23.884568
 20
20.187565
 30
0.0
  0
POINT
  5
26D76E
100
AcDbEntity
  8
DEFPOINTS
  6
BYBLOCK
 62
     0
100
AcDbPoint
 10
18.664454
 20
20.187565
 30
0.0
  0
ENDBLK
  5
26D76F
100
AcDbEntity
  8
0
100
AcDbBlockEnd
  0
BLOCK
  5
26D771
100
AcDbEntity
  8
0
100
AcDbBlockBegin
  2
*D30
 70
     1
 10
0.0
 20
0.0
 30
0.0
  3
*D30
  1

  0
LINE
  5
26D772
100
AcDbEntity
  8
0
  6
BYBLOCK
 62
     0
100
AcDbLine
 10
24.011568
 20
19.93774
 30
0.0
 11
20.708766
 21
19.93774
 31
0.0
  0
LINE
  5
26D773
100
AcDbEntity
  8
0
  6
BYBLOCK
 62
     0
100
AcDbLine
 10
26.386554
 20
18.68739
 30
0.0
 11
20.708766
 21
18.68739
 31
0.0
  0
LINE
  5
26D774
100
AcDbEntity
  8
0
  6
BYBLOCK
 62
     0
100
AcDbLine
 10
20.888766
 20
19.75774
 30
0.0
 11
20.888766
 21
19.492565
 31
0.0
  0
LINE
  5
26D775
100
AcDbEntity
  8
0
  6
BYBLOCK
 62
     0
100
AcDbLine
 10
20.888766
 20
18.86739
 30
0.0
 11
20.888766
 21
19.132565
 31
0.0
  0
SOLID
  5
26D776
100
AcDbEntity
  8
0
  6
BYBLOCK
 62
     0
100
AcDbTrace
 10
20.858766
 20
19.75774
 30
0.0
 11
20.918766
 21
19.75774
 31
0.0
 12
20.888766
 22
19.93774
 32
0.0
 13
20.888766
 23
19.93774
 33
0.0
  0
SOLID
  5
26D777
100
AcDbEntity
  8
0
  6
BYBLOCK
 62
     0
100
AcDbTrace
 10
20.858766
 20
18.86739
 30
0.0
 11
20.918766
 21
18.86739
 31
0.0
 12
20.888766
 22
18.68739
 32
0.0
 13
20.888766
 23
18.68739
 33
0.0
  0
MTEXT
  5
26D778
100
AcDbEntity
  8
0
  6
BYBLOCK
 62
     0
100
AcDbMText
 10
20.888766
 20
19.312565
 30
0.0
 40
0.18
 41
0.0
 71
     5
 72
     1
  1
\A1;1.25 [31.8mm]
  0
POINT
  5
26D779
100
AcDbEntity
  8
DEFPOINTS
  6
BYBLOCK
 62
     0
100
AcDbPoint
 10
24.074568
 20
19.93774
 30
0.0
  0
POINT
  5
26D77A
100
AcDbEntity
  8
DEFPOINTS
  6
BYBLOCK
 62
     0
100
AcDbPoint
 10
26.449554
 20
18.68739
 30
0.0
  0
POINT
  5
26D77B
100
AcDbEntity
  8
DEFPOINTS
  6
BYBLOCK
 62
     0
100
AcDbPoint
 10
20.888766
 20
18.68739
 30
0.0
  0
ENDBLK
  5
26D77C
100
AcDbEntity
  8
0
100
AcDbBlockEnd
  0
BLOCK
  5
26D77F
100
AcDbEntity
  8
0
100
AcDbBlockBegin
  2
*D31
 70
     1
 10
0.0
 20
0.0
 30
0.0
  3
*D31
  1

  0
LINE
  5
26D780
100
AcDbEntity
  8
0
  6
BYBLOCK
 62
     0
100
AcDbLine
 10
27.199554
 20
20.815565
 30
0.0
 11
27.199554
 21
23.192579
 31
0.0
  0
LINE
  5
26D781
100
AcDbEntity
  8
0
  6
BYBLOCK
 62
     0
100
AcDbLine
 10
22.481968
 20
19.969804
 30
0.0
 11
22.481968
 21
23.192579
 31
0.0
  0
LINE
  5
26D782
100
AcDbEntity
  8
0
  6
BYBLOCK
 62
     0
100
AcDbLine
 10
27.019554
 20
23.012579
 30
0.0
 11
25.920761
 21
23.012579
 31
0.0
  0
LINE
  5
26D783
100
AcDbEntity
  8
0
  6
BYBLOCK
 62
     0
100
AcDbLine
 10
22.661968
 20
23.012579
 30
0.0
 11
23.760761
 21
23.012579
 31
0.0
  0
SOLID
  5
26D784
100
AcDbEntity
  8
0
  6
BYBLOCK
 62
     0
100
AcDbTrace
 10
27.019554
 20
23.042579
 30
0.0
 11
27.019554
 21
22.982579
 31
0.0
 12
27.199554
 22
23.012579
 32
0.0
 13
27.199554
 23
23.012579
 33
0.0
  0
SOLID
  5
26D785
100
AcDbEntity
  8
0
  6
BYBLOCK
 62
     0
100
AcDbTrace
 10
22.661968
 20
23.042579
 30
0.0
 11
22.661968
 21
22.982579
 31
0.0
 12
22.481968
 22
23.012579
 32
0.0
 13
22.481968
 23
23.012579
 33
0.0
  0
MTEXT
  5
26D786
100
AcDbEntity
  8
0
  6
BYBLOCK
 62
     0
100
AcDbMText
 10
24.840761
 20
23.012579
 30
0.0
 40
0.18
 41
0.0
 71
     5
 72
     1
  1
\A1;4.72 [119.8mm]
  0
POINT
  5
26D787
100
AcDbEntity
  8
DEFPOINTS
  6
BYBLOCK
 62
     0
100
AcDbPoint
 10
27.199554
 20
20.752565
 30
0.0
  0
POINT
  5
26D788
100
AcDbEntity
  8
DEFPOINTS
  6
BYBLOCK
 62
     0
100
AcDbPoint
 10
22.481968
 20
19.906804
 30
0.0
  0
POINT
  5
26D789
100
AcDbEntity
  8
DEFPOINTS
  6
BYBLOCK
 62
     0
100
AcDbPoint
 10
22.481968
 20
23.012579
 30
0.0
  0
ENDBLK
  5
26D78A
100
AcDbEntity
  8
0
100
AcDbBlockEnd
  0
BLOCK
  5
26D7A6
100
AcDbEntity
  8
0
100
AcDbBlockBegin
  2
*D32
 70
     1
 10
0.0
 20
0.0
 30
0.0
  3
*D32
  1

  0
LINE
  5
26D7A7
100
AcDbEntity
  8
0
  6
BYBLOCK
 62
     0
100
AcDbLine
 10
21.651105
 20
2.29916
 30
0.0
 11
21.651105
 21
3.837756
 31
0.0
  0
LINE
  5
26D7A8
100
AcDbEntity
  8
0
  6
BYBLOCK
 62
     0
100
AcDbLine
 10
20.821105
 20
2.22416
 30
0.0
 11
20.821105
 21
3.837756
 31
0.0
  0
LINE
  5
26D7A9
100
AcDbEntity
  8
0
  6
BYBLOCK
 62
     0
100
AcDbLine
 10
21.471105
 20
3.657756
 30
0.0
 11
21.001105
 21
3.657756
 31
0.0
  0
MTEXT
  5
26D7AA
100
AcDbEntity
  8
0
  6
BYBLOCK
 62
     0
100
AcDbMText
 10
19.598113
 20
3.657756
 30
0.0
 40
0.18
 41
0.0
 71
     5
 72
     1
  1
\A1;0.83 [21.1mm]
  0
SOLID
  5
26D7AB
100
AcDbEntity
  8
0
  6
BYBLOCK
 62
     0
100
AcDbTrace
 10
21.471105
 20
3.687756
 30
0.0
 11
21.471105
 21
3.627756
 31
0.0
 12
21.651105
 22
3.657756
 32
0.0
 13
21.651105
 23
3.657756
 33
0.0
  0
SOLID
  5
26D7AC
100
AcDbEntity
  8
0
  6
BYBLOCK
 62
     0
100
AcDbTrace
 10
21.001105
 20
3.687756
 30
0.0
 11
21.001105
 21
3.627756
 31
0.0
 12
20.821105
 22
3.657756
 32
0.0
 13
20.821105
 23
3.657756
 33
0.0
  0
POINT
  5
26D7AD
100
AcDbEntity
  8
DEFPOINTS
  6
BYBLOCK
 62
     0
100
AcDbPoint
 10
21.651105
 20
2.23616
 30
0.0
  0
POINT
  5
26D7AE
100
AcDbEntity
  8
DEFPOINTS
  6
BYBLOCK
 62
     0
100
AcDbPoint
 10
20.821105
 20
2.16116
 30
0.0
  0
POINT
  5
26D7AF
100
AcDbEntity
  8
DEFPOINTS
  6
BYBLOCK
 62
     0
100
AcDbPoint
 10
20.821105
 20
3.657756
 30
0.0
  0
ENDBLK
  5
26D7B0
100
AcDbEntity
  8
0
100
AcDbBlockEnd
  0
BLOCK
  5
26D7EE
100
AcDbEntity
  8
0
100
AcDbBlockBegin
  2
REVISION
 70
     0
 10
0.0
 20
0.0
 30
0.0
  3
REVISION
  1

  0
LWPOLYLINE
  5
26D7E2
100
AcDbEntity
  8
BORDER
  6
CONTINUOUS
100
AcDbPolyline
 90
        2
 70
     0
 43
0.01
 10
-1.382605
 20
17.431135
 10
-1.382605
 20
20.426189
  0
TEXT
  5
26D7E3
100
AcDbEntity
  8
BORDER
 62
     2
100
AcDbText
 10
-0.992202
 20
19.261906
 30
0.0
 40
0.12
  1
%%uLAST REVISION CHANGE
 41
0.9
  7
ROMANC
100
AcDbText
  0
TEXT
  5
26D7E4
100
AcDbEntity
  8
BORDER
 62
     2
100
AcDbText
 10
-0.992202
 20
18.595503
 30
0.0
 40
0.12
  1
CHANGE TO NEW TEMPLATE
 41
0.9
  7
ROMANC
100
AcDbText
  0
TEXT
  5
26D7E5
100
AcDbEntity
  8
BORDER
 62
     2
100
AcDbText
 10
-0.992202
 20
18.925703
 30
0.0
 40
0.12
  1
ADDED 141-0063 MATREIAL
 41
0.9
  7
ROMANC
100
AcDbText
  0
LWPOLYLINE
  5
26D7E6
100
AcDbEntity
  8
BORDER
100
AcDbPolyline
 90
        2
 70
     0
 43
0.01
 10
1.728585
 20
18.174734
 10
-1.382605
 20
18.174734
  0
LWPOLYLINE
  5
26D7E7
100
AcDbEntity
  8
BORDER
100
AcDbPolyline
 90
        2
 70
     0
 43
0.01
 10
1.728585
 20
18.489584
 10
-1.382605
 20
18.489584
  0
LWPOLYLINE
  5
26D7E8
100
AcDbEntity
  8
BORDER
100
AcDbPolyline
 90
        2
 70
     0
 43
0.01
 10
1.728585
 20
18.804434
 10
-1.382605
 20
18.804434
  0
LWPOLYLINE
  5
26D7E9
100
AcDbEntity
  8
BORDER
100
AcDbPolyline
 90
        2
 70
     0
 43
0.01
 10
1.728585
 20
19.119284
 10
-1.382605
 20
19.119284
  0
INSERT
  5
26D7EA
100
AcDbEntity
  8
0
100
AcDbBlockReference
  2
COPY
 10
-1.382605
 20
20.426189
 30
0.0
  0
LINE
  5
26D7EB
100
AcDbEntity
  8
BORDER
  6
CONTINUOUS
100
AcDbLine
 10
-1.382605
 20
17.431135
 30
0.0
 11
1.728585
 21
17.431135
 31
0.0
  0
LINE
  5
26D7EC
100
AcDbEntity
  8
BORDER
100
AcDbLine
 10
1.728585
 20
17.859884
 30
0.0
 11
-1.382605
 21
17.859884
 31
0.0
  0
LINE
  5
26D7ED
100
AcDbEntity
  8
BORDER
100
AcDbLine
 10
1.728585
 20
17.431135
 30
0.0
 11
1.728585
 21
19.537278
 31
0.0
  0
ENDBLK
  5
26D7EF
100
AcDbEntity
  8
0
100
AcDbBlockEnd
  0
ENDSEC
  0
SECTION
  2
ENTITIES
  0
TEXT
  5
1
100
AcDbEntity
  8
DIM
 62
     7
100
AcDbText
 10
-3.308001
 20
17.291036
 30
0.0
 40
0.18
  1
DRAWINGS
 11
-3.308001
 21
17.381036
 31
0.0
100
AcDbText
 73
     2
  0
TEXT
  5
2
100
AcDbEntity
  8
DIM
 62
     7
100
AcDbText
 10
-3.308001
 20
17.584042
 30
0.0
 40
0.18
  1
SEE WHEEL
 11
-3.308001
 21
17.674042
 31
0.0
100
AcDbText
 73
     2
  0
LINE
  5
F
100
AcDbEntity
  8
DIM
 62
     7
100
AcDbLine
 10
-3.578001
 20
17.674042
 30
0.0
 11
-3.398001
 21
17.674042
 31
0.0
  0
LINE
  5
10
100
AcDbEntity
  8
DIM
 62
     7
100
AcDbLine
 10
-4.338936
 20
16.370962
 30
0.0
 11
-3.578001
 21
17.674042
 31
0.0
  0
SOLID
  5
11
100
AcDbEntity
  8
DIM
 62
     7
100
AcDbTrace
 10
-4.313029
 20
16.355834
 30
0.0
 11
-4.364842
 21
16.38609
 31
0.0
 12
-4.429704
 22
16.215523
 32
0.0
 13
-4.429704
 23
16.215523
 33
0.0
  0
DIMENSION
  5
12
100
AcDbEntity
  8
DIM
 62
     7
100
AcDbDimension
  2
*D5
 10
4.730607
 20
18.103811
 30
0.0
 11
6.095607
 21
18.103811
 31
0.0
 12
3.000214
 22
5.908124
 32
0.0
100
AcDbAlignedDimension
 13
4.001607
 23
16.30931
 33
0.0
 14
4.730607
 24
15.95683
 34
0.0
100
AcDbRotatedDimension
  0
TEXT
  5
13
100
AcDbEntity
  8
DIM
 62
     7
100
AcDbText
 10
3.032434
 20
13.882845
 30
0.0
 40
0.18
  1
M36 X 2 FINE THREAD
 11
3.032434
 21
13.972845
 31
0.0
100
AcDbText
 73
     2
  0
TEXT
  5
14
100
AcDbEntity
  8
TEXT
 62
     7
100
AcDbText
 10
-0.870123
 20
13.054741
 30
0.0
 40
0.285
  1
%%UTHREADED HOUSING%%U
100
AcDbText
  0
DIMENSION
  5
16
100
AcDbEntity
  8
DIM
 62
     7
100
AcDbDimension
  2
*D11
 10
0.626621
 20
18.102357
 30
0.0
 11
2.314114
 21
18.102357
 31
0.0
 12
3.000214
 22
5.749295
 32
0.0
100
AcDbAlignedDimension
 13
4.001607
 23
16.30931
 33
0.0
 14
0.626621
 24
16.26283
 34
0.0
100
AcDbRotatedDimension
  0
LINE
  5
51
100
AcDbEntity
  8
DIM
 62
     7
100
AcDbLine
 10
-0.33994
 20
16.392437
 30
0.0
 11
-1.444131
 21
17.674042
 31
0.0
  0
LINE
  5
52
100
AcDbEntity
  8
DIM
 62
     7
100
AcDbLine
 10
-1.444131
 20
17.674042
 30
0.0
 11
-1.624131
 21
17.674042
 31
0.0
  0
SOLID
  5
54
100
AcDbEntity
  8
DIM
 62
     7
100
AcDbTrace
 10
-0.317212
 20
16.412018
 30
0.0
 11
-0.362668
 21
16.372855
 31
0.0
 12
-0.22245
 22
16.256069
 32
0.0
 13
-0.22245
 23
16.256069
 33
0.0
  0
LINE
  5
92
100
AcDbEntity
  8
DIM
 62
     7
100
AcDbLine
 10
2.264888
 20
14.759693
 30
0.0
 11
2.762434
 21
13.972845
 31
0.0
  0
SOLID
  5
93
100
AcDbEntity
  8
DIM
 62
     7
100
AcDbTrace
 10
2.239532
 20
14.74366
 30
0.0
 11
2.290244
 21
14.775727
 31
0.0
 12
2.168688
 22
14.91183
 32
0.0
 13
2.168688
 23
14.91183
 33
0.0
  0
LINE
  5
94
100
AcDbEntity
  8
DIM
 62
     7
100
AcDbLine
 10
2.762434
 20
13.972845
 30
0.0
 11
2.942434
 21
13.972845
 31
0.0
  0
TEXT
  5
96
100
AcDbEntity
  8
DIM
 62
     7
100
AcDbText
 10
1.65512
 20
17.061008
 30
0.0
 40
0.18
  1
THICK JAM NUT 
 11
1.65512
 21
17.151008
 31
0.0
100
AcDbText
 73
     2
  0
CIRCLE
  5
99
100
AcDbEntity
  8
OBJWHEEL
 62
     7
100
AcDbCircle
 10
16.285965
 20
9.493148
 30
0.0
 40
0.594239
  0
CIRCLE
  5
9A
100
AcDbEntity
  8
OBJWHEEL
 62
     7
100
AcDbCircle
 10
16.285965
 20
9.493148
 30
0.0
 40
0.559759
  0
CIRCLE
  5
9B
100
AcDbEntity
  8
OBJWHEEL
 62
     7
100
AcDbCircle
 10
16.285965
 20
9.493148
 30
0.0
 40
0.35071
  0
CIRCLE
  5
9C
100
AcDbEntity
  8
OBJWHEEL
 62
     7
100
AcDbCircle
 10
16.285965
 20
9.493148
 30
0.0
 40
0.454568
  0
CIRCLE
  5
9D
100
AcDbEntity
  8
OBJWHEEL
 62
     7
100
AcDbCircle
 10
16.285965
 20
9.493148
 30
0.0
 40
0.31496
  0
CIRCLE
  5
9E
100
AcDbEntity
  8
HIDDEN
  6
HIDDEN
 62
     7
100
AcDbCircle
 10
16.285965
 20
9.493148
 30
0.0
 40
0.3265
  0
LINE
  5
9F
100
AcDbEntity
  8
OBJWHEEL
 62
     7
100
AcDbLine
 10
22.49391
 20
9.97081
 30
0.0
 11
22.74391
 21
10.087387
 31
0.0
  0
LINE
  5
A0
100
AcDbEntity
  8
OBJWHEEL
 62
     7
100
AcDbLine
 10
22.49391
 20
9.015485
 30
0.0
 11
22.74391
 21
8.898908
 31
0.0
  0
TEXT
  5
A1
100
AcDbEntity
  8
TEXT
 62
     7
100
AcDbText
 10
17.342964
 20
7.708786
 30
0.0
 40
0.285
  1
%%UFILAMENT WHEEL%%U
100
AcDbText
  0
DIMENSION
  5
A2
100
AcDbEntity
  8
DIM
 62
     7
100
AcDbDimension
  2
*D2
 10
18.484074
 20
8.898908
 30
0.0
 11
18.484074
 21
9.493148
 31
0.0
 12
8.101005
 22
5.989896
 32
0.0
100
AcDbAlignedDimension
 13
22.24391
 23
10.087387
 33
0.0
 14
22.24391
 24
8.898908
 34
0.0
 50
90.0
100
AcDbRotatedDimension
  0
DIMENSION
  5
A3
100
AcDbEntity
  8
DIM
 62
     7
100
AcDbDimension
  2
*D3
 10
20.757329
 20
9.015485
 30
0.0
 11
20.757329
 21
9.493148
 31
0.0
 12
8.101005
 22
5.989896
 32
0.0
100
AcDbAlignedDimension
 13
22.49391
 23
9.97081
 33
0.0
 14
22.49391
 24
9.015485
 34
0.0
 50
90.0
100
AcDbRotatedDimension
  0
LINE
  5
A4
100
AcDbEntity
  8
OBJWHEEL
 62
     7
100
AcDbLine
 10
22.49391
 20
9.97081
 30
0.0
 11
22.49391
 21
9.015485
 31
0.0
  0
LINE
  5
A5
100
AcDbEntity
  8
OBJWHEEL
 62
     7
100
AcDbLine
 10
22.24391
 20
10.087387
 30
0.0
 11
22.24391
 21
8.898908
 31
0.0
  0
LINE
  5
A6
100
AcDbEntity
  8
OBJWHEEL
 62
     7
100
AcDbLine
 10
22.49391
 20
9.015485
 30
0.0
 11
22.24391
 21
8.898908
 31
0.0
  0
LINE
  5
A7
100
AcDbEntity
  8
OBJWHEEL
 62
     7
100
AcDbLine
 10
22.49391
 20
9.97081
 30
0.0
 11
22.24391
 21
10.087387
 31
0.0
  0
LINE
  5
A8
100
AcDbEntity
  8
OBJWHEEL
 62
     7
100
AcDbLine
 10
22.74391
 20
8.898908
 30
0.0
 11
22.74391
 21
10.087387
 31
0.0
  0
TEXT
  5
A9
100
AcDbEntity
  8
TEXT
 62
     7
100
AcDbText
 10
27.774527
 20
7.67373
 30
0.0
 40
0.285
  1
%%URIBBON WHEEL%%U
100
AcDbText
  0
DIMENSION
  5
AA
100
AcDbEntity
  8
DIM
 62
     7
100
AcDbDimension
  2
*D0
 10
28.856357
 20
10.087387
 30
0.0
 11
28.856357
 21
9.493148
 31
0.0
 12
8.101005
 22
5.879961
 32
0.0
100
AcDbAlignedDimension
 13
32.331215
 23
8.898908
 33
0.0
 14
32.331215
 24
10.087387
 34
0.0
 50
90.0
100
AcDbRotatedDimension
  0
CIRCLE
  5
AB
100
AcDbEntity
  8
OBJWHEEL
 62
     7
100
AcDbCircle
 10
26.581725
 20
9.493148
 30
0.0
 40
0.531739
  0
CIRCLE
  5
AC
100
AcDbEntity
  8
HIDDEN
  6
HIDDEN
 62
     7
100
AcDbCircle
 10
26.581725
 20
9.493148
 30
0.0
 40
0.562989
  0
CIRCLE
  5
AD
100
AcDbEntity
  8
OBJWHEEL
 62
     7
100
AcDbCircle
 10
26.581725
 20
9.493148
 30
0.0
 40
0.594239
  0
CIRCLE
  5
AE
100
AcDbEntity
  8
HIDDEN
  6
HIDDEN
 62
     7
100
AcDbCircle
 10
26.581725
 20
9.493148
 30
0.0
 40
0.3265
  0
CIRCLE
  5
AF
100
AcDbEntity
  8
OBJWHEEL
 62
     7
100
AcDbCircle
 10
26.581725
 20
9.493148
 30
0.0
 40
0.31496
  0
CIRCLE
  5
B0
100
AcDbEntity
  8
OBJWHEEL
 62
     7
100
AcDbCircle
 10
26.581725
 20
9.493148
 30
0.0
 40
0.35071
  0
DIMENSION
  5
B1
100
AcDbEntity
  8
DIM
 62
     7
100
AcDbDimension
  2
*D4
 10
32.331215
 20
10.527769
 30
0.0
 11
30.966215
 21
10.527769
 31
0.0
 12
8.101005
 22
5.879961
 32
0.0
100
AcDbAlignedDimension
 13
33.417315
 23
10.087387
 33
0.0
 14
32.331215
 24
10.087387
 34
0.0
 50
180.0
100
AcDbRotatedDimension
  0
SOLID
  5
B2
100
AcDbEntity
  8
DIM
  6
BYBLOCK
 62
     7
100
AcDbTrace
 10
32.542465
 20
8.470541
 30
0.0
 11
32.542465
 21
8.410541
 31
0.0
 12
32.362465
 22
8.440541
 32
0.0
 13
32.362465
 23
8.440541
 33
0.0
  0
LINE
  5
B3
100
AcDbEntity
  8
DIM
  6
BYBLOCK
 62
     7
100
AcDbLine
 10
33.386065
 20
8.440541
 30
0.0
 11
32.002465
 21
8.440541
 31
0.0
  0
LINE
  5
B4
100
AcDbEntity
  8
OBJWHEEL
 62
     7
100
AcDbLine
 10
33.386065
 20
8.930158
 30
0.0
 11
32.362465
 21
8.930158
 31
0.0
  0
LINE
  5
B5
100
AcDbEntity
  8
OBJWHEEL
 62
     7
100
AcDbLine
 10
33.386065
 20
10.056137
 30
0.0
 11
32.362465
 21
10.056137
 31
0.0
  0
TEXT
  5
B6
100
AcDbEntity
  8
DIM
  6
BYBLOCK
 62
     7
100
AcDbText
 10
30.112465
 20
8.350541
 30
0.0
 40
0.18
  1
1.02 [26.0mm]
 72
     1
 11
31.012465
 21
8.440541
 31
0.0
100
AcDbText
 73
     2
  0
DIMENSION
  5
B7
100
AcDbEntity
  8
DIM
 62
     7
100
AcDbDimension
  2
*D1
 10
31.11284
 20
10.056137
 30
0.0
 11
31.11284
 21
9.493148
 31
0.0
 12
8.101005
 22
5.879961
 32
0.0
100
AcDbAlignedDimension
 13
32.362465
 23
8.930158
 33
0.0
 14
32.362465
 24
10.056137
 34
0.0
 50
90.0
100
AcDbRotatedDimension
  0
LINE
  5
B8
100
AcDbEntity
  8
OBJWHEEL
 62
     7
100
AcDbLine
 10
32.362465
 20
8.898908
 30
0.0
 11
32.362465
 21
10.087387
 31
0.0
  0
LINE
  5
B9
100
AcDbEntity
  8
OBJWHEEL
 62
     7
100
AcDbLine
 10
32.331215
 20
8.898908
 30
0.0
 11
32.331215
 21
10.087387
 31
0.0
  0
LINE
  5
BA
100
AcDbEntity
  8
DIM
  6
BYBLOCK
 62
     7
100
AcDbLine
 10
32.362465
 20
8.836408
 30
0.0
 11
32.362465
 21
8.260541
 31
0.0
  0
POINT
  5
BB
100
AcDbEntity
  8
DEFPOINTS
  6
BYBLOCK
 62
     7
100
AcDbPoint
 10
32.362465
 20
8.898908
 30
0.0
  0
LINE
  5
BC
100
AcDbEntity
  8
OBJWHEEL
 62
     7
100
AcDbLine
 10
32.362465
 20
8.898908
 30
0.0
 11
32.331215
 21
8.898908
 31
0.0
  0
LINE
  5
BD
100
AcDbEntity
  8
OBJWHEEL
 62
     7
100
AcDbLine
 10
32.362465
 20
10.087387
 30
0.0
 11
32.331215
 21
10.087387
 31
0.0
  0
LINE
  5
BE
100
AcDbEntity
  8
OBJWHEEL
  6
CONTINUOUS
 62
     7
100
AcDbLine
 10
33.386065
 20
10.087387
 30
0.0
 11
33.386065
 21
8.898908
 31
0.0
  0
LINE
  5
BF
100
AcDbEntity
  8
OBJWHEEL
  6
CONTINUOUS
 62
     7
100
AcDbLine
 10
33.417315
 20
10.087387
 30
0.0
 11
33.417315
 21
8.898908
 31
0.0
  0
SOLID
  5
C0
100
AcDbEntity
  8
DIM
  6
BYBLOCK
 62
     7
100
AcDbTrace
 10
33.206065
 20
8.470541
 30
0.0
 11
33.206065
 21
8.410541
 31
0.0
 12
33.386065
 22
8.440541
 32
0.0
 13
33.386065
 23
8.440541
 33
0.0
  0
LINE
  5
C1
100
AcDbEntity
  8
DIM
  6
BYBLOCK
 62
     7
100
AcDbLine
 10
33.386065
 20
8.836408
 30
0.0
 11
33.386065
 21
8.260541
 31
0.0
  0
POINT
  5
C2
100
AcDbEntity
  8
DEFPOINTS
  6
BYBLOCK
 62
     7
100
AcDbPoint
 10
33.386065
 20
8.898908
 30
0.0
  0
LINE
  5
C3
100
AcDbEntity
  8
OBJWHEEL
  6
CONTINUOUS
 62
     7
100
AcDbLine
 10
33.417315
 20
8.898908
 30
0.0
 11
33.386065
 21
8.898908
 31
0.0
  0
LINE
  5
C4
100
AcDbEntity
  8
OBJWHEEL
  6
CONTINUOUS
 62
     7
100
AcDbLine
 10
33.417315
 20
10.087387
 30
0.0
 11
33.386065
 21
10.087387
 31
0.0
  0
DIMENSION
  5
C5
100
AcDbEntity
  8
DIM
 62
     7
100
AcDbDimension
  2
*D6
 10
27.199554
 20
17.52539
 30
0.0
 11
28.549554
 21
17.52539
 31
0.0
 12
8.101005
 22
5.879961
 32
0.0
100
AcDbAlignedDimension
 13
26.699554
 23
17.872565
 33
0.0
 14
27.199554
 24
17.872565
 34
0.0
100
AcDbRotatedDimension
  0
LINE
  5
C6
100
AcDbEntity
  8
0
 62
     7
100
AcDbLine
 10
27.560374
 20
19.607565
 30
0.0
 11
27.928554
 21
19.607565
 31
0.0
  0
LINE
  5
C7
100
AcDbEntity
  8
0
 62
     7
100
AcDbLine
 10
27.560374
 20
19.017565
 30
0.0
 11
27.928554
 21
19.017565
 31
0.0
  0
LINE
  5
C8
100
AcDbEntity
  8
0
 62
     7
100
AcDbLine
 10
27.560374
 20
16.087496
 30
0.0
 11
27.928554
 21
16.087496
 31
0.0
  0
LINE
  5
C9
100
AcDbEntity
  8
0
 62
     7
100
AcDbLine
 10
27.560374
 20
15.497496
 30
0.0
 11
27.928554
 21
15.497496
 31
0.0
  0
DIMENSION
  5
CB
100
AcDbEntity
  8
DIM
 62
     7
100
AcDbDimension
  2
*D29
 10
18.664454
 20
20.187565
 30
0.0
 11
18.664454
 21
19.312565
 31
0.0
 70
    32
  3
STANDARD
100
AcDbAlignedDimension
 13
23.884568
 23
18.437565
 33
0.0
 14
23.884568
 24
20.187565
 34
0.0
 50
90.0
100
AcDbRotatedDimension
1001
ACAD
1000
DSTYLE
1002
{
1070
   174
1070
     1
1070
   272
1070
     2
1070
   287
1070
     5
1070
    42
1040
0.063
1070
   271
1070
     2
1070
     4
1000
mm
1070
   274
1070
     1
1070
   171
1070
     1
1070
   170
1070
     1
1002
}
  0
SOLID
  5
CC
100
AcDbEntity
  8
DIM
 62
     7
100
AcDbTrace
 10
26.179441
 20
18.513441
 30
0.0
 11
26.215457
 21
18.465454
 31
0.0
 12
26.341411
 22
18.597498
 32
0.0
 13
26.341411
 23
18.597498
 33
0.0
  0
LINE
  5
CD
100
AcDbEntity
  8
OBJHOUSING
  6
CONTINUOUS
 62
     7
100
AcDbLine
 10
27.199554
 20
20.752565
 30
0.0
 11
27.199554
 21
17.872565
 31
0.0
  0
LINE
  5
CE
100
AcDbEntity
  8
DIM
 62
     7
100
AcDbLine
 10
26.197449
 20
18.489448
 30
0.0
 11
25.642348
 21
18.065439
 31
0.0
  0
LINE
  5
CF
100
AcDbEntity
  8
OBJHOUSING
 62
     7
100
AcDbLine
 10
23.884568
 20
18.437565
 30
0.0
 11
23.824568
 21
18.497565
 31
0.0
  0
LINE
  5
D0
100
AcDbEntity
  8
DIM
 62
     7
100
AcDbLine
 10
23.149883
 20
16.492932
 30
0.0
 11
21.097216
 21
18.04039
 31
0.0
  0
DIMENSION
  5
D2
100
AcDbEntity
  8
DIM
 62
     7
100
AcDbDimension
  2
*D19
 10
22.149101
 20
14.204068
 30
0.0
 11
20.649101
 21
14.204068
 31
0.0
 12
8.101005
 22
5.879961
 32
0.0
100
AcDbAlignedDimension
 13
19.149101
 23
15.196246
 33
0.0
 14
22.149101
 24
15.196246
 34
0.0
100
AcDbRotatedDimension
  0
LINE
  5
D3
100
AcDbEntity
  8
OBJHOUSING
 62
     7
100
AcDbLine
 10
22.089101
 20
15.136246
 30
0.0
 11
19.209101
 21
15.136246
 31
0.0
  0
LINE
  5
D4
100
AcDbEntity
  8
OBJHOUSING
 62
     7
100
AcDbLine
 10
22.089101
 20
16.448746
 30
0.0
 11
19.209101
 21
16.448746
 31
0.0
  0
TEXT
  5
D5
100
AcDbEntity
  8
DIM
 62
     7
100
AcDbText
 10
17.587216
 20
17.95039
 30
0.0
 40
0.18
  1
SEE WHEEL DRAWINGS
 72
     2
 11
20.827216
 21
18.04039
 31
0.0
100
AcDbText
 73
     2
  0
DIMENSION
  5
D6
100
AcDbEntity
  8
DIM
 62
     7
100
AcDbDimension
  2
*D7
 10
16.573442
 20
15.136246
 30
0.0
 11
16.573442
 21
15.792496
 31
0.0
 12
8.101005
 22
5.879961
 32
0.0
100
AcDbAlignedDimension
 13
19.209101
 23
16.448746
 33
0.0
 14
19.209101
 24
15.136246
 34
0.0
 50
90.0
100
AcDbRotatedDimension
  0
DIMENSION
  5
D7
100
AcDbEntity
  8
DIM
 62
     7
100
AcDbDimension
  2
*D8
 10
18.011577
 20
15.792496
 30
0.0
 11
18.011577
 21
15.464371
 31
0.0
 12
8.101005
 22
5.879961
 32
0.0
100
AcDbAlignedDimension
 13
19.209101
 23
15.136246
 33
0.0
 14
19.399101
 24
15.792496
 34
0.0
 50
90.0
100
AcDbRotatedDimension
  0
LINE
  5
D8
100
AcDbEntity
  8
OBJHOUSING
 62
     7
100
AcDbLine
 10
19.149101
 20
16.388746
 30
0.0
 11
19.149101
 21
15.196246
 31
0.0
  0
LINE
  5
D9
100
AcDbEntity
  8
OBJHOUSING
 62
     7
100
AcDbLine
 10
19.774101
 20
15.196246
 30
0.0
 11
19.774101
 21
16.388746
 31
0.0
  0
LINE
  5
DA
100
AcDbEntity
  8
0
 62
     7
100
AcDbLine
 10
19.754101
 20
15.479996
 30
0.0
 11
19.754101
 21
16.104996
 31
0.0
  0
CIRCLE
  5
DB
100
AcDbEntity
  8
OBJWHEEL
  6
PHANTOM2
 62
     7
100
AcDbCircle
 10
20.649101
 20
15.792496
 30
0.0
 40
0.594239
  0
LINE
  5
DC
100
AcDbEntity
  8
OBJHOUSING
 62
     7
100
AcDbLine
 10
19.774101
 20
15.196246
 30
0.0
 11
19.834101
 21
15.136246
 31
0.0
  0
LINE
  5
DD
100
AcDbEntity
  8
OBJHOUSING
 62
     7
100
AcDbLine
 10
19.149101
 20
15.196246
 30
0.0
 11
19.209101
 21
15.136246
 31
0.0
  0
CIRCLE
  5
DE
100
AcDbEntity
  8
OBJHOUSING
 62
     7
100
AcDbCircle
 10
19.399101
 20
15.792496
 30
0.0
 40
0.140625
  0
LINE
  5
DF
100
AcDbEntity
  8
DEFPOINTS
 62
     7
100
AcDbLine
 10
19.774101
 20
15.479996
 30
0.0
 11
19.754101
 21
15.479996
 31
0.0
  0
LINE
  5
E0
100
AcDbEntity
  8
0
 62
     7
100
AcDbLine
 10
19.754101
 20
15.711786
 30
0.0
 11
19.754101
 21
15.873206
 31
0.0
  0
LINE
  5
E1
100
AcDbEntity
  8
0
 62
     7
100
AcDbLine
 10
19.754101
 20
15.711786
 30
0.0
 11
19.754101
 21
15.873206
 31
0.0
  0
ARC
  5
E2
100
AcDbEntity
  8
0
 62
     7
100
AcDbCircle
 10
19.766923
 20
15.792496
 30
0.0
 40
0.081722
100
AcDbArc
 50
99.026975
 51
260.973025
  0
ARC
  5
E3
100
AcDbEntity
  8
0
 62
     7
100
AcDbCircle
 10
19.766923
 20
15.792496
 30
0.0
 40
0.081722
100
AcDbArc
 50
99.026975
 51
260.973025
  0
LINE
  5
E4
100
AcDbEntity
  8
OBJHOUSING
 62
     7
100
AcDbLine
 10
19.834101
 20
16.448746
 30
0.0
 11
19.774101
 21
16.388746
 31
0.0
  0
LINE
  5
E5
100
AcDbEntity
  8
OBJHOUSING
 62
     7
100
AcDbLine
 10
19.209101
 20
16.448746
 30
0.0
 11
19.149101
 21
16.388746
 31
0.0
  0
LINE
  5
E6
100
AcDbEntity
  8
DEFPOINTS
 62
     7
100
AcDbLine
 10
19.774101
 20
16.104996
 30
0.0
 11
19.754101
 21
16.104996
 31
0.0
  0
LINE
  5
E7
100
AcDbEntity
  8
DIM
 62
     7
100
AcDbLine
 10
20.813549
 20
16.548987
 30
0.0
 11
21.097216
 21
18.04039
 31
0.0
  0
SOLID
  5
E8
100
AcDbEntity
  8
DIM
 62
     7
100
AcDbTrace
 10
20.843021
 20
16.543382
 30
0.0
 11
20.784078
 21
16.554593
 31
0.0
 12
20.779916
 22
16.372157
 32
0.0
 13
20.779916
 23
16.372157
 33
0.0
  0
LINE
  5
E9
100
AcDbEntity
  8
DIM
 62
     7
100
AcDbLine
 10
21.097216
 20
18.04039
 30
0.0
 11
20.917216
 21
18.04039
 31
0.0
  0
LINE
  5
EA
100
AcDbEntity
  8
DIM
 62
     7
100
AcDbLine
 10
21.097216
 20
18.04039
 30
0.0
 11
20.917216
 21
18.04039
 31
0.0
  0
TEXT
  5
EB
100
AcDbEntity
  8
TEXT
 62
     7
100
AcDbText
 10
22.528342
 20
13.196502
 30
0.0
 40
0.285
  1
%%USTACKABLE HOUSING%%U
100
AcDbText
  0
LINE
  5
EC
100
AcDbEntity
  8
OBJHOUSING
 62
     7
100
AcDbLine
 10
23.884568
 20
18.437565
 30
0.0
 11
26.639554
 21
18.437565
 31
0.0
  0
TEXT
  5
ED
100
AcDbEntity
  8
DIM
 62
     7
100
AcDbText
 10
22.972348
 20
17.702297
 30
0.0
 40
0.18
  1
MOUNTING HOLES
 72
     2
 11
25.372348
 21
17.792297
 31
0.0
100
AcDbText
 73
     2
  0
TEXT
  5
EE
100
AcDbEntity
  8
DIM
 62
     7
100
AcDbText
 10
23.032348
 20
17.975439
 30
0.0
 40
0.18
  1
2X %%C.281 [7.1mm]
 72
     2
 11
25.372348
 21
18.065439
 31
0.0
100
AcDbText
 73
     2
  0
LINE
  5
EF
100
AcDbEntity
  8
OBJHOUSING
 62
     7
100
AcDbLine
 10
27.199554
 20
15.136246
 30
0.0
 11
23.824568
 21
15.136246
 31
0.0
  0
LINE
  5
F0
100
AcDbEntity
  8
OBJHOUSING
 62
     7
100
AcDbLine
 10
27.199554
 20
16.448746
 30
0.0
 11
23.824568
 21
16.448746
 31
0.0
  0
LINE
  5
F1
100
AcDbEntity
  8
OBJWHEEL
  6
PHANTOM2
 62
     7
100
AcDbLine
 10
23.571968
 20
16.386735
 30
0.0
 11
23.571968
 21
15.198256
 31
0.0
  0
LINE
  5
F2
100
AcDbEntity
  8
OBJWHEEL
  6
PHANTOM2
 62
     7
100
AcDbLine
 10
22.821968
 20
16.386735
 30
0.0
 11
22.821968
 21
15.198256
 31
0.0
  0
LINE
  5
F5
100
AcDbEntity
  8
OBJHOUSING
 62
     7
100
AcDbLine
 10
23.824568
 20
15.136246
 30
0.0
 11
23.824568
 21
16.448746
 31
0.0
  0
LINE
  5
F6
100
AcDbEntity
  8
OBJHOUSING
 62
     7
100
AcDbLine
 10
22.149101
 20
16.388746
 30
0.0
 11
22.149101
 21
15.196246
 31
0.0
  0
LINE
  5
F7
100
AcDbEntity
  8
OBJHOUSING
 62
     7
100
AcDbLine
 10
21.524101
 20
15.196246
 30
0.0
 11
21.524101
 21
16.388746
 31
0.0
  0
LINE
  5
F8
100
AcDbEntity
  8
0
 62
     7
100
AcDbLine
 10
21.544101
 20
15.479996
 30
0.0
 11
21.544101
 21
16.104996
 31
0.0
  0
LINE
  5
F9
100
AcDbEntity
  8
OBJWHEEL
  6
PHANTOM2
 62
     7
100
AcDbLine
 10
23.571968
 20
15.198256
 30
0.0
 11
22.821968
 21
15.198256
 31
0.0
  0
LINE
  5
FA
100
AcDbEntity
  8
OBJHOUSING
 62
     7
100
AcDbLine
 10
22.089101
 20
15.136246
 30
0.0
 11
22.149101
 21
15.196246
 31
0.0
  0
LINE
  5
FB
100
AcDbEntity
  8
OBJHOUSING
 62
     7
100
AcDbLine
 10
21.464101
 20
15.136246
 30
0.0
 11
21.524101
 21
15.196246
 31
0.0
  0
LINE
  5
FC
100
AcDbEntity
  8
DEFPOINTS
 62
     7
100
AcDbLine
 10
21.524101
 20
15.479996
 30
0.0
 11
21.544101
 21
15.479996
 31
0.0
  0
ARC
  5
FD
100
AcDbEntity
  8
0
 62
     7
100
AcDbCircle
 10
21.531279
 20
15.792496
 30
0.0
 40
0.081722
100
AcDbArc
 50
279.026975
 51
80.973025
  0
ARC
  5
FE
100
AcDbEntity
  8
0
 62
     7
100
AcDbCircle
 10
21.531279
 20
15.792496
 30
0.0
 40
0.081722
100
AcDbArc
 50
279.026975
 51
80.973025
  0
LINE
  5
FF
100
AcDbEntity
  8
0
 62
     7
100
AcDbLine
 10
21.544101
 20
15.711786
 30
0.0
 11
21.544101
 21
15.873206
 31
0.0
  0
LINE
  5
100
100
AcDbEntity
  8
0
 62
     7
100
AcDbLine
 10
21.544101
 20
15.711786
 30
0.0
 11
21.544101
 21
15.873206
 31
0.0
  0
CIRCLE
  5
101
100
AcDbEntity
  8
OBJHOUSING
 62
     7
100
AcDbCircle
 10
21.899101
 20
15.792496
 30
0.0
 40
0.140625
  0
LINE
  5
105
100
AcDbEntity
  8
OBJWHEEL
  6
PHANTOM2
 62
     7
100
AcDbLine
 10
23.571968
 20
16.386735
 30
0.0
 11
22.821968
 21
16.386735
 31
0.0
  0
LINE
  5
106
100
AcDbEntity
  8
OBJHOUSING
 62
     7
100
AcDbLine
 10
22.149101
 20
16.388746
 30
0.0
 11
22.089101
 21
16.448746
 31
0.0
  0
LINE
  5
107
100
AcDbEntity
  8
DEFPOINTS
 62
     7
100
AcDbLine
 10
21.524101
 20
16.104996
 30
0.0
 11
21.544101
 21
16.104996
 31
0.0
  0
LINE
  5
108
100
AcDbEntity
  8
OBJHOUSING
 62
     7
100
AcDbLine
 10
21.524101
 20
16.388746
 30
0.0
 11
21.464101
 21
16.448746
 31
0.0
  0
SOLID
  5
10B
100
AcDbEntity
  8
DIM
 62
     7
100
AcDbTrace
 10
23.167942
 20
16.516887
 30
0.0
 11
23.131824
 21
16.468976
 31
0.0
 12
23.293615
 22
16.384575
 32
0.0
 13
23.293615
 23
16.384575
 33
0.0
  0
LINE
  5
10D
100
AcDbEntity
  8
OBJBEAM
 62
     7
100
AcDbLine
 10
27.435554
 20
16.417496
 30
0.0
 11
27.435554
 21
15.167496
 31
0.0
  0
LINE
  5
10E
100
AcDbEntity
  8
0
 62
     7
100
AcDbLine
 10
27.497554
 20
16.261496
 30
0.0
 11
27.497554
 21
15.323496
 31
0.0
  0
LINE
  5
10F
100
AcDbEntity
  8
0
 62
     7
100
AcDbLine
 10
26.012061
 20
16.104996
 30
0.0
 11
26.012061
 21
15.479996
 31
0.0
  0
LINE
  5
110
100
AcDbEntity
  8
0
 62
     7
100
AcDbLine
 10
26.012061
 20
16.104996
 30
0.0
 11
26.012061
 21
15.479996
 31
0.0
  0
LINE
  5
111
100
AcDbEntity
  8
0
 62
     7
100
AcDbLine
 10
26.012061
 20
15.479996
 30
0.0
 11
26.012061
 21
16.104996
 31
0.0
  0
LINE
  5
112
100
AcDbEntity
  8
OBJHOUSING
 62
     7
100
AcDbLine
 10
26.699554
 20
15.136246
 30
0.0
 11
26.699554
 21
16.448746
 31
0.0
  0
LINE
  5
113
100
AcDbEntity
  8
OBJHOUSING
 62
     7
100
AcDbLine
 10
27.199554
 20
15.136246
 30
0.0
 11
27.199554
 21
16.448746
 31
0.0
  0
TEXT
  5
114
100
AcDbEntity
  8
0
 62
     7
100
AcDbText
 10
25.148314
 20
16.040241
 30
0.0
 40
0.125
  1
F
 50
180.0
 41
0.77
  7
ROMANS
100
AcDbText
  0
LWPOLYLINE
  5
115
100
AcDbEntity
  8
0
 62
     7
100
AcDbPolyline
 90
        2
 70
     0
 10
25.262061
 20
15.854996
 40
0.1875
 41
0.0
 10
25.262061
 20
16.042496
 40
0.0
 41
0.0
  0
LINE
  5
119
100
AcDbEntity
  8
0
 62
     7
100
AcDbLine
 10
24.512061
 20
16.104996
 30
0.0
 11
24.512061
 21
15.479996
 31
0.0
  0
LINE
  5
11A
100
AcDbEntity
  8
0
 62
     7
100
AcDbLine
 10
24.512061
 20
16.104996
 30
0.0
 11
24.512061
 21
15.479996
 31
0.0
  0
LINE
  5
11B
100
AcDbEntity
  8
0
 62
     7
100
AcDbLine
 10
24.512061
 20
15.479996
 30
0.0
 11
24.512061
 21
16.104996
 31
0.0
  0
LWPOLYLINE
  5
11C
100
AcDbEntity
  8
0
 62
     7
100
AcDbPolyline
 90
        2
 70
     0
 43
0.0625
 10
25.262061
 20
15.542496
 10
25.262061
 20
15.854996
  0
LINE
  5
120
100
AcDbEntity
  8
0
  6
CONTINUOUS
 62
     7
100
AcDbLine
 10
26.012061
 20
15.479996
 30
0.0
 11
24.512061
 21
15.479996
 31
0.0
  0
LINE
  5
121
100
AcDbEntity
  8
0
  6
CONTINUOUS
 62
     7
100
AcDbLine
 10
26.012061
 20
15.479996
 30
0.0
 11
24.512061
 21
15.479996
 31
0.0
  0
LINE
  5
122
100
AcDbEntity
  8
0
 62
     7
100
AcDbLine
 10
24.512061
 20
15.479996
 30
0.0
 11
26.012061
 21
15.479996
 31
0.0
  0
CIRCLE
  5
123
100
AcDbEntity
  8
0
 62
     7
100
AcDbCircle
 10
24.662061
 20
15.792496
 30
0.0
 40
0.0625
  0
TEXT
  5
124
100
AcDbEntity
  8
0
 62
     7
100
AcDbText
 10
25.342994
 20
15.54475
 30
0.0
 40
0.125
  1
F
 41
0.77
  7
ROMANS
100
AcDbText
  0
TEXT
  5
125
100
AcDbEntity
  8
0
 62
     7
100
AcDbText
 10
25.394039
 20
15.511958
 30
0.0
 40
0.0625
  1
T
 41
0.77
  7
ROMANS
100
AcDbText
  0
CIRCLE
  5
126
100
AcDbEntity
  8
0
 62
     7
100
AcDbCircle
 10
25.862061
 20
15.792496
 30
0.0
 40
0.0625
  0
LINE
  5
127
100
AcDbEntity
  8
HIDDEN
 62
     7
100
AcDbLine
 10
27.199554
 20
15.651996
 30
0.0
 11
26.699554
 21
15.651996
 31
0.0
  0
LINE
  5
128
100
AcDbEntity
  8
HIDDEN
 62
     7
100
AcDbLine
 10
27.199554
 20
15.932996
 30
0.0
 11
26.699554
 21
15.932996
 31
0.0
  0
LINE
  5
129
100
AcDbEntity
  8
OBJBEAM
 62
     7
100
AcDbLine
 10
27.435554
 20
15.167496
 30
0.0
 11
27.199554
 21
15.167496
 31
0.0
  0
LINE
  5
12A
100
AcDbEntity
  8
0
 62
     7
100
AcDbLine
 10
27.435554
 20
15.323496
 30
0.0
 11
27.497554
 21
15.323496
 31
0.0
  0
LINE
  5
12B
100
AcDbEntity
  8
0
 62
     7
100
AcDbLine
 10
27.512554
 20
15.541346
 30
0.0
 11
27.512554
 21
15.324646
 31
0.0
  0
LINE
  5
12C
100
AcDbEntity
  8
0
 62
     7
100
AcDbLine
 10
27.497554
 20
15.541346
 30
0.0
 11
27.497554
 21
15.324646
 31
0.0
  0
LINE
  5
12D
100
AcDbEntity
  8
0
 62
     7
100
AcDbLine
 10
27.560554
 20
15.493346
 30
0.0
 11
27.560554
 21
15.372646
 31
0.0
  0
ARC
  5
12E
100
AcDbEntity
  8
0
 62
     7
100
AcDbCircle
 10
27.512554
 20
15.372646
 30
0.0
 40
0.048
100
AcDbArc
 50
270.0
 51
0.0
  0
LINE
  5
12F
100
AcDbEntity
  8
0
 62
     7
100
AcDbLine
 10
27.512554
 20
15.324646
 30
0.0
 11
27.497554
 21
15.324646
 31
0.0
  0
LINE
  5
130
100
AcDbEntity
  8
0
 62
     7
100
AcDbLine
 10
27.497554
 20
15.541346
 30
0.0
 11
27.512554
 21
15.541346
 31
0.0
  0
ARC
  5
131
100
AcDbEntity
  8
0
 62
     7
100
AcDbCircle
 10
27.512554
 20
15.493346
 30
0.0
 40
0.048
100
AcDbArc
 50
0.0
 51
90.0
  0
LINE
  5
132
100
AcDbEntity
  8
0
 62
     7
100
AcDbLine
 10
27.497554
 20
15.541346
 30
0.0
 11
27.497554
 21
15.324236
 31
0.0
  0
LINE
  5
133
100
AcDbEntity
  8
0
  6
CONTINUOUS
 62
     7
100
AcDbLine
 10
26.012061
 20
16.104996
 30
0.0
 11
24.512061
 21
16.104996
 31
0.0
  0
LINE
  5
134
100
AcDbEntity
  8
0
  6
CONTINUOUS
 62
     7
100
AcDbLine
 10
26.012061
 20
16.104996
 30
0.0
 11
24.512061
 21
16.104996
 31
0.0
  0
LINE
  5
135
100
AcDbEntity
  8
0
 62
     7
100
AcDbLine
 10
24.512061
 20
16.104996
 30
0.0
 11
26.012061
 21
16.104996
 31
0.0
  0
TEXT
  5
136
100
AcDbEntity
  8
0
 62
     7
100
AcDbText
 10
25.097268
 20
16.073033
 30
0.0
 40
0.0625
  1
T
 50
180.0
 41
0.77
  7
ROMANS
100
AcDbText
  0
LINE
  5
137
100
AcDbEntity
  8
0
  6
CONTINUOUS
 62
     7
100
AcDbLine
 10
26.012061
 20
18.417565
 30
0.0
 11
24.512061
 21
18.417565
 31
0.0
  0
LINE
  5
138
100
AcDbEntity
  8
0
  6
CONTINUOUS
 62
     7
100
AcDbLine
 10
26.012061
 20
18.417565
 30
0.0
 11
24.512061
 21
18.417565
 31
0.0
  0
ARC
  5
139
100
AcDbEntity
  8
0
 62
     7
100
AcDbCircle
 10
24.662061
 20
18.430387
 30
0.0
 40
0.081722
100
AcDbArc
 50
189.026975
 51
350.973025
  0
ARC
  5
13A
100
AcDbEntity
  8
0
 62
     7
100
AcDbCircle
 10
24.662061
 20
18.430387
 30
0.0
 40
0.081722
100
AcDbArc
 50
189.026975
 51
350.973025
  0
LINE
  5
13B
100
AcDbEntity
  8
0
 62
     7
100
AcDbLine
 10
24.742771
 20
18.417565
 30
0.0
 11
24.581351
 21
18.417565
 31
0.0
  0
LINE
  5
13C
100
AcDbEntity
  8
0
 62
     7
100
AcDbLine
 10
24.742771
 20
18.417565
 30
0.0
 11
24.581351
 21
18.417565
 31
0.0
  0
LINE
  5
13D
100
AcDbEntity
  8
0
 62
     7
100
AcDbLine
 10
24.512061
 20
18.417565
 30
0.0
 11
24.512061
 21
18.437565
 31
0.0
  0
LINE
  5
13E
100
AcDbEntity
  8
0
 62
     7
100
AcDbLine
 10
24.512061
 20
18.417565
 30
0.0
 11
24.512061
 21
18.437565
 31
0.0
  0
LINE
  5
13F
100
AcDbEntity
  8
DIM
 62
     7
100
AcDbLine
 10
25.642348
 20
18.065439
 30
0.0
 11
25.462348
 21
18.065439
 31
0.0
  0
ARC
  5
140
100
AcDbEntity
  8
0
 62
     7
100
AcDbCircle
 10
25.862061
 20
18.430387
 30
0.0
 40
0.081722
100
AcDbArc
 50
189.026975
 51
350.973025
  0
ARC
  5
141
100
AcDbEntity
  8
0
 62
     7
100
AcDbCircle
 10
25.862061
 20
18.430387
 30
0.0
 40
0.081722
100
AcDbArc
 50
189.026975
 51
350.973025
  0
LINE
  5
142
100
AcDbEntity
  8
0
 62
     7
100
AcDbLine
 10
26.012061
 20
18.417565
 30
0.0
 11
26.012061
 21
18.437565
 31
0.0
  0
LINE
  5
143
100
AcDbEntity
  8
0
 62
     7
100
AcDbLine
 10
26.012061
 20
18.417565
 30
0.0
 11
26.012061
 21
18.437565
 31
0.0
  0
LINE
  5
144
100
AcDbEntity
  8
0
 62
     7
100
AcDbLine
 10
25.942771
 20
18.417565
 30
0.0
 11
25.781351
 21
18.417565
 31
0.0
  0
LINE
  5
145
100
AcDbEntity
  8
0
 62
     7
100
AcDbLine
 10
25.942771
 20
18.417565
 30
0.0
 11
25.781351
 21
18.417565
 31
0.0
  0
LINE
  5
146
100
AcDbEntity
  8
0
 62
     7
100
AcDbLine
 10
27.435554
 20
16.261496
 30
0.0
 11
27.497554
 21
16.261496
 31
0.0
  0
LINE
  5
147
100
AcDbEntity
  8
0
 62
     7
100
AcDbLine
 10
27.497554
 20
16.260346
 30
0.0
 11
27.512554
 21
16.260346
 31
0.0
  0
LINE
  5
148
100
AcDbEntity
  8
0
 62
     7
100
AcDbLine
 10
27.560554
 20
16.212346
 30
0.0
 11
27.560554
 21
16.091646
 31
0.0
  0
LINE
  5
149
100
AcDbEntity
  8
0
 62
     7
100
AcDbLine
 10
27.512554
 20
16.043646
 30
0.0
 11
27.497554
 21
16.043646
 31
0.0
  0
ARC
  5
14A
100
AcDbEntity
  8
0
 62
     7
100
AcDbCircle
 10
27.512554
 20
16.091646
 30
0.0
 40
0.048
100
AcDbArc
 50
270.0
 51
0.0
  0
LINE
  5
14B
100
AcDbEntity
  8
0
 62
     7
100
AcDbLine
 10
27.512554
 20
16.260346
 30
0.0
 11
27.512554
 21
16.043646
 31
0.0
  0
LINE
  5
14C
100
AcDbEntity
  8
0
 62
     7
100
AcDbLine
 10
27.497554
 20
16.260346
 30
0.0
 11
27.497554
 21
16.043646
 31
0.0
  0
ARC
  5
14D
100
AcDbEntity
  8
0
 62
     7
100
AcDbCircle
 10
27.512554
 20
16.212346
 30
0.0
 40
0.048
100
AcDbArc
 50
0.0
 51
90.0
  0
LINE
  5
14E
100
AcDbEntity
  8
0
 62
     7
100
AcDbLine
 10
27.497554
 20
16.260755
 30
0.0
 11
27.497554
 21
16.043646
 31
0.0
  0
LINE
  5
14F
100
AcDbEntity
  8
OBJBEAM
 62
     7
100
AcDbLine
 10
27.435554
 20
16.417496
 30
0.0
 11
27.199554
 21
16.417496
 31
0.0
  0
LINE
  5
150
100
AcDbEntity
  8
OBJHOUSING
 62
     7
100
AcDbLine
 10
27.139554
 20
17.812565
 30
0.0
 11
26.759554
 21
17.812565
 31
0.0
  0
LINE
  5
151
100
AcDbEntity
  8
HIDDEN
 62
     7
100
AcDbLine
 10
27.199554
 20
18.20319
 30
0.0
 11
26.699554
 21
18.20319
 31
0.0
  0
LINE
  5
152
100
AcDbEntity
  8
HIDDEN
 62
     7
100
AcDbLine
 10
27.199554
 20
17.92194
 30
0.0
 11
26.699554
 21
17.92194
 31
0.0
  0
LINE
  5
153
100
AcDbEntity
  8
OBJHOUSING
 62
     7
100
AcDbLine
 10
26.759554
 20
17.812565
 30
0.0
 11
26.699554
 21
17.872565
 31
0.0
  0
ARC
  5
154
100
AcDbEntity
  8
OBJHOUSING
 62
     7
100
AcDbCircle
 10
26.639554
 20
18.377565
 30
0.0
 40
0.06
100
AcDbArc
 50
0.0
 51
90.0
  0
LINE
  5
155
100
AcDbEntity
  8
OBJHOUSING
  6
CONTINUOUS
 62
     7
100
AcDbLine
 10
26.699554
 20
18.377565
 30
0.0
 11
26.699554
 21
17.872565
 31
0.0
  0
LINE
  5
156
100
AcDbEntity
  8
OBJHOUSING
 62
     7
100
AcDbLine
 10
27.199554
 20
17.872565
 30
0.0
 11
27.139554
 21
17.812565
 31
0.0
  0
DIMENSION
  5
157
100
AcDbEntity
  8
DIM
 62
     7
100
AcDbDimension
  2
*D30
 10
20.888766
 20
18.68739
 30
0.0
 11
20.888766
 21
19.312565
 31
0.0
 70
    32
  3
STANDARD
100
AcDbAlignedDimension
 13
24.074568
 23
19.93774
 33
0.0
 14
26.449554
 24
18.68739
 34
0.0
 50
90.0
100
AcDbRotatedDimension
1001
ACAD
1000
DSTYLE
1002
{
1070
   174
1070
     1
1070
   272
1070
     2
1070
   287
1070
     5
1070
    42
1040
0.063
1070
   271
1070
     2
1070
     4
1000
mm
1070
   274
1070
     1
1070
   171
1070
     1
1070
   170
1070
     1
1002
}
  0
DIMENSION
  5
158
100
AcDbEntity
  8
DIM
 62
     7
100
AcDbDimension
  2
*D14
 10
23.571968
 20
22.512173
 30
0.0
 11
25.385761
 21
22.512173
 31
0.0
 12
8.101005
 22
5.879961
 32
0.0
100
AcDbAlignedDimension
 13
27.199554
 23
20.752565
 33
0.0
 14
23.571968
 24
19.906804
 34
0.0
100
AcDbRotatedDimension
  0
DIMENSION
  5
159
100
AcDbEntity
  8
DIM
 62
     7
100
AcDbDimension
  2
*D9
 10
26.449554
 20
21.312344
 30
0.0
 11
25.262061
 21
21.312344
 31
0.0
 12
8.101005
 22
5.879961
 32
0.0
100
AcDbAlignedDimension
 13
24.074568
 23
19.93774
 33
0.0
 14
26.449554
 24
18.68739
 34
0.0
100
AcDbRotatedDimension
  0
LINE
  5
15A
100
AcDbEntity
  8
OBJHOUSING
 62
     7
100
AcDbLine
 10
23.884568
 20
20.187565
 30
0.0
 11
26.639554
 21
20.187565
 31
0.0
  0
LINE
  5
15B
100
AcDbEntity
  8
OBJWHEEL
  6
PHANTOM2
 62
     7
100
AcDbLine
 10
23.571968
 20
18.718326
 30
0.0
 11
22.481968
 21
18.718326
 31
0.0
  0
LINE
  5
15C
100
AcDbEntity
  8
OBJWHEEL
  6
PHANTOM2
 62
     7
100
AcDbLine
 10
23.571968
 20
19.906804
 30
0.0
 11
22.481968
 21
19.906804
 31
0.0
  0
LINE
  5
15F
100
AcDbEntity
  8
OBJHOUSING
 62
     7
100
AcDbLine
 10
23.824568
 20
20.127565
 30
0.0
 11
23.824568
 21
18.497565
 31
0.0
  0
LINE
  5
160
100
AcDbEntity
  8
OBJWHEEL
  6
PHANTOM2
 62
     7
100
AcDbLine
 10
23.571968
 20
19.906804
 30
0.0
 11
23.571968
 21
18.718326
 31
0.0
  0
CIRCLE
  5
167
100
AcDbEntity
  8
OBJHOUSING
 62
     7
100
AcDbCircle
 10
24.074568
 20
19.93774
 30
0.0
 40
0.140625
  0
LINE
  5
168
100
AcDbEntity
  8
OBJHOUSING
 62
     7
100
AcDbLine
 10
23.824568
 20
20.127565
 30
0.0
 11
23.884568
 21
20.187565
 31
0.0
  0
LINE
  5
169
100
AcDbEntity
  8
DIM
  6
BYBLOCK
 62
     7
100
AcDbLine
 10
27.199554
 20
20.815065
 30
0.0
 11
27.199554
 21
21.492344
 31
0.0
  0
LINE
  5
16A
100
AcDbEntity
  8
DIM
  6
BYBLOCK
 62
     7
100
AcDbLine
 10
26.449554
 20
18.74989
 30
0.0
 11
26.449554
 21
21.492344
 31
0.0
  0
LINE
  5
16B
100
AcDbEntity
  8
0
  6
CONTINUOUS
 62
     7
100
AcDbLine
 10
26.012061
 20
20.207565
 30
0.0
 11
24.512061
 21
20.207565
 31
0.0
  0
LINE
  5
16C
100
AcDbEntity
  8
0
  6
CONTINUOUS
 62
     7
100
AcDbLine
 10
26.012061
 20
20.207565
 30
0.0
 11
24.512061
 21
20.207565
 31
0.0
  0
ARC
  5
16D
100
AcDbEntity
  8
0
 62
     7
100
AcDbCircle
 10
24.662061
 20
20.194743
 30
0.0
 40
0.081722
100
AcDbArc
 50
9.026975
 51
170.973025
  0
ARC
  5
16E
100
AcDbEntity
  8
0
 62
     7
100
AcDbCircle
 10
24.662061
 20
20.194743
 30
0.0
 40
0.081722
100
AcDbArc
 50
9.026975
 51
170.973025
  0
LINE
  5
16F
100
AcDbEntity
  8
0
 62
     7
100
AcDbLine
 10
24.581351
 20
20.207565
 30
0.0
 11
24.742771
 21
20.207565
 31
0.0
  0
LINE
  5
170
100
AcDbEntity
  8
0
 62
     7
100
AcDbLine
 10
24.581351
 20
20.207565
 30
0.0
 11
24.742771
 21
20.207565
 31
0.0
  0
LINE
  5
171
100
AcDbEntity
  8
0
 62
     7
100
AcDbLine
 10
24.512061
 20
20.187565
 30
0.0
 11
24.512061
 21
20.207565
 31
0.0
  0
LINE
  5
172
100
AcDbEntity
  8
0
 62
     7
100
AcDbLine
 10
24.512061
 20
20.187565
 30
0.0
 11
24.512061
 21
20.207565
 31
0.0
  0
ARC
  5
173
100
AcDbEntity
  8
0
 62
     7
100
AcDbCircle
 10
25.862061
 20
20.194743
 30
0.0
 40
0.081722
100
AcDbArc
 50
9.026975
 51
170.973025
  0
ARC
  5
174
100
AcDbEntity
  8
0
 62
     7
100
AcDbCircle
 10
25.862061
 20
20.194743
 30
0.0
 40
0.081722
100
AcDbArc
 50
9.026975
 51
170.973025
  0
LINE
  5
175
100
AcDbEntity
  8
0
 62
     7
100
AcDbLine
 10
26.012061
 20
20.187565
 30
0.0
 11
26.012061
 21
20.207565
 31
0.0
  0
LINE
  5
176
100
AcDbEntity
  8
0
 62
     7
100
AcDbLine
 10
26.012061
 20
20.187565
 30
0.0
 11
26.012061
 21
20.207565
 31
0.0
  0
LINE
  5
177
100
AcDbEntity
  8
0
 62
     7
100
AcDbLine
 10
25.781351
 20
20.207565
 30
0.0
 11
25.942771
 21
20.207565
 31
0.0
  0
LINE
  5
178
100
AcDbEntity
  8
0
 62
     7
100
AcDbLine
 10
25.781351
 20
20.207565
 30
0.0
 11
25.942771
 21
20.207565
 31
0.0
  0
LINE
  5
179
100
AcDbEntity
  8
0
 62
     7
100
AcDbLine
 10
27.512554
 20
19.780415
 30
0.0
 11
27.512554
 21
19.563715
 31
0.0
  0
LINE
  5
17A
100
AcDbEntity
  8
0
 62
     7
100
AcDbLine
 10
27.497554
 20
19.780415
 30
0.0
 11
27.497554
 21
19.563715
 31
0.0
  0
ARC
  5
17B
100
AcDbEntity
  8
0
 62
     7
100
AcDbCircle
 10
27.512554
 20
19.732415
 30
0.0
 40
0.048
100
AcDbArc
 50
0.0
 51
90.0
  0
LINE
  5
17C
100
AcDbEntity
  8
0
 62
     7
100
AcDbLine
 10
27.497554
 20
19.780825
 30
0.0
 11
27.497554
 21
19.563715
 31
0.0
  0
LINE
  5
17D
100
AcDbEntity
  8
OBJBEAM
 62
     7
100
AcDbLine
 10
27.435554
 20
19.937565
 30
0.0
 11
27.435554
 21
18.687565
 31
0.0
  0
LINE
  5
17E
100
AcDbEntity
  8
0
 62
     7
100
AcDbLine
 10
27.497554
 20
19.781565
 30
0.0
 11
27.497554
 21
18.843565
 31
0.0
  0
CIRCLE
  5
17F
100
AcDbEntity
  8
OBJHOUSING
 62
     7
100
AcDbCircle
 10
26.449554
 20
18.68739
 30
0.0
 40
0.140625
  0
POINT
  5
180
100
AcDbEntity
  8
DEFPOINTS
  6
BYBLOCK
 62
     7
100
AcDbPoint
 10
26.449554
 20
18.68739
 30
0.0
  0
LINE
  5
181
100
AcDbEntity
  8
0
 62
     7
100
AcDbLine
 10
27.435554
 20
18.843565
 30
0.0
 11
27.497554
 21
18.843565
 31
0.0
  0
LINE
  5
182
100
AcDbEntity
  8
0
 62
     7
100
AcDbLine
 10
27.512554
 20
19.061415
 30
0.0
 11
27.512554
 21
18.844715
 31
0.0
  0
LINE
  5
183
100
AcDbEntity
  8
0
 62
     7
100
AcDbLine
 10
27.497554
 20
19.061415
 30
0.0
 11
27.497554
 21
18.844715
 31
0.0
  0
LINE
  5
184
100
AcDbEntity
  8
0
 62
     7
100
AcDbLine
 10
27.560554
 20
19.013415
 30
0.0
 11
27.560554
 21
18.892715
 31
0.0
  0
ARC
  5
185
100
AcDbEntity
  8
0
 62
     7
100
AcDbCircle
 10
27.512554
 20
18.892715
 30
0.0
 40
0.048
100
AcDbArc
 50
270.0
 51
0.0
  0
LINE
  5
186
100
AcDbEntity
  8
0
 62
     7
100
AcDbLine
 10
27.512554
 20
18.844715
 30
0.0
 11
27.497554
 21
18.844715
 31
0.0
  0
LINE
  5
187
100
AcDbEntity
  8
0
 62
     7
100
AcDbLine
 10
27.497554
 20
19.061415
 30
0.0
 11
27.512554
 21
19.061415
 31
0.0
  0
ARC
  5
188
100
AcDbEntity
  8
0
 62
     7
100
AcDbCircle
 10
27.512554
 20
19.013415
 30
0.0
 40
0.048
100
AcDbArc
 50
0.0
 51
90.0
  0
LINE
  5
189
100
AcDbEntity
  8
0
 62
     7
100
AcDbLine
 10
27.497554
 20
19.061415
 30
0.0
 11
27.497554
 21
18.844305
 31
0.0
  0
LINE
  5
18A
100
AcDbEntity
  8
OBJBEAM
 62
     7
100
AcDbLine
 10
27.435554
 20
18.687565
 30
0.0
 11
27.199554
 21
18.687565
 31
0.0
  0
LINE
  5
18B
100
AcDbEntity
  8
0
 62
     7
100
AcDbLine
 10
27.560554
 20
19.732415
 30
0.0
 11
27.560554
 21
19.611715
 31
0.0
  0
LINE
  5
18C
100
AcDbEntity
  8
0
 62
     7
100
AcDbLine
 10
27.512554
 20
19.563715
 30
0.0
 11
27.497554
 21
19.563715
 31
0.0
  0
ARC
  5
18D
100
AcDbEntity
  8
0
 62
     7
100
AcDbCircle
 10
27.512554
 20
19.611715
 30
0.0
 40
0.048
100
AcDbArc
 50
270.0
 51
0.0
  0
LINE
  5
18E
100
AcDbEntity
  8
OBJHOUSING
 62
     7
100
AcDbLine
 10
27.139554
 20
20.812565
 30
0.0
 11
26.759554
 21
20.812565
 31
0.0
  0
LINE
  5
18F
100
AcDbEntity
  8
HIDDEN
 62
     7
100
AcDbLine
 10
27.199554
 20
20.70319
 30
0.0
 11
26.699554
 21
20.70319
 31
0.0
  0
LINE
  5
190
100
AcDbEntity
  8
HIDDEN
 62
     7
100
AcDbLine
 10
27.199554
 20
20.42194
 30
0.0
 11
26.699554
 21
20.42194
 31
0.0
  0
LINE
  5
191
100
AcDbEntity
  8
OBJHOUSING
  6
CONTINUOUS
 62
     7
100
AcDbLine
 10
26.699554
 20
20.752565
 30
0.0
 11
26.699554
 21
20.247565
 31
0.0
  0
ARC
  5
192
100
AcDbEntity
  8
OBJHOUSING
 62
     7
100
AcDbCircle
 10
26.639554
 20
20.247565
 30
0.0
 40
0.06
100
AcDbArc
 50
270.0
 51
0.0
  0
LINE
  5
193
100
AcDbEntity
  8
OBJHOUSING
 62
     7
100
AcDbLine
 10
26.759554
 20
20.812565
 30
0.0
 11
26.699554
 21
20.752565
 31
0.0
  0
LINE
  5
194
100
AcDbEntity
  8
0
 62
     7
100
AcDbLine
 10
27.435554
 20
19.781565
 30
0.0
 11
27.497554
 21
19.781565
 31
0.0
  0
LINE
  5
195
100
AcDbEntity
  8
0
 62
     7
100
AcDbLine
 10
27.497554
 20
19.780415
 30
0.0
 11
27.512554
 21
19.780415
 31
0.0
  0
LINE
  5
196
100
AcDbEntity
  8
OBJBEAM
 62
     7
100
AcDbLine
 10
27.435554
 20
19.937565
 30
0.0
 11
27.199554
 21
19.937565
 31
0.0
  0
LINE
  5
197
100
AcDbEntity
  8
OBJHOUSING
 62
     7
100
AcDbLine
 10
27.139554
 20
20.812565
 30
0.0
 11
27.199554
 21
20.752565
 31
0.0
  0
POINT
  5
198
100
AcDbEntity
  8
DEFPOINTS
  6
BYBLOCK
 62
     7
100
AcDbPoint
 10
27.199554
 20
20.752565
 30
0.0
  0
LINE
  5
199
100
AcDbEntity
  8
DIM
  6
BYBLOCK
 62
     7
100
AcDbLine
 10
26.449554
 20
21.312344
 30
0.0
 11
27.559554
 21
21.312344
 31
0.0
  0
SOLID
  5
19A
100
AcDbEntity
  8
DIM
  6
BYBLOCK
 62
     7
100
AcDbTrace
 10
27.019554
 20
21.342344
 30
0.0
 11
27.019554
 21
21.282344
 31
0.0
 12
27.199554
 22
21.312344
 32
0.0
 13
27.199554
 23
21.312344
 33
0.0
  0
ARC
  5
19B
100
AcDbEntity
  8
0
 62
     7
100
AcDbCircle
 10
30.6332
 20
16.152496
 30
0.0
 40
0.109
100
AcDbArc
 50
360.0
 51
90.0
  0
CIRCLE
  5
19C
100
AcDbEntity
  8
0
 62
     7
100
AcDbCircle
 10
30.6327
 20
16.151996
 30
0.0
 40
0.10835
  0
ARC
  5
19D
100
AcDbEntity
  8
0
 62
     7
100
AcDbCircle
 10
30.6332
 20
15.432496
 30
0.0
 40
0.109
100
AcDbArc
 50
270.0
 51
360.0
  0
CIRCLE
  5
19E
100
AcDbEntity
  8
0
 62
     7
100
AcDbCircle
 10
30.6327
 20
15.432996
 30
0.0
 40
0.10835
  0
CIRCLE
  5
19F
100
AcDbEntity
  8
OBJBEAM
 62
     7
100
AcDbCircle
 10
30.2732
 20
15.792496
 30
0.0
 40
0.625
  0
LINE
  5
1A0
100
AcDbEntity
  8
OBJHOUSING
 62
     7
100
AcDbLine
 10
31.7132
 20
15.136246
 30
0.0
 11
28.8332
 21
15.136246
 31
0.0
  0
LINE
  5
1A1
100
AcDbEntity
  8
OBJHOUSING
 62
     7
100
AcDbLine
 10
31.7132
 20
16.448746
 30
0.0
 11
28.8332
 21
16.448746
 31
0.0
  0
CIRCLE
  5
1A2
100
AcDbEntity
  8
0
 62
     7
100
AcDbCircle
 10
30.3402
 20
15.908543
 30
0.0
 40
0.03125
  0
CIRCLE
  5
1A3
100
AcDbEntity
  8
0
 62
     7
100
AcDbCircle
 10
30.2062
 20
15.908543
 30
0.0
 40
0.03125
  0
CIRCLE
  5
1A4
100
AcDbEntity
  8
0
 62
     7
100
AcDbCircle
 10
30.2732
 20
15.792496
 30
0.0
 40
0.295
  0
CIRCLE
  5
1A5
100
AcDbEntity
  8
0
 62
     7
100
AcDbCircle
 10
30.2732
 20
15.792496
 30
0.0
 40
0.265
  0
LINE
  5
1A6
100
AcDbEntity
  8
0
 62
     7
100
AcDbLine
 10
29.8042
 20
15.432496
 30
0.0
 11
29.8042
 21
16.152496
 31
0.0
  0
LINE
  5
1A7
100
AcDbEntity
  8
OBJHOUSING
 62
     7
100
AcDbLine
 10
28.7732
 20
16.388746
 30
0.0
 11
28.7732
 21
15.196246
 31
0.0
  0
LINE
  5
1A8
100
AcDbEntity
  8
0
 62
     7
100
AcDbLine
 10
27.928554
 20
16.087496
 30
0.0
 11
27.928554
 21
15.497496
 31
0.0
  0
CIRCLE
  5
1A9
100
AcDbEntity
  8
OBJHOUSING
 62
     7
100
AcDbCircle
 10
29.0232
 20
15.792496
 30
0.0
 40
0.140625
  0
LINE
  5
1AA
100
AcDbEntity
  8
OBJHOUSING
 62
     7
100
AcDbLine
 10
28.7732
 20
15.196246
 30
0.0
 11
28.8332
 21
15.136246
 31
0.0
  0
LWPOLYLINE
  5
1AB
100
AcDbEntity
  8
0
 62
     7
100
AcDbPolyline
 90
        6
 70
     1
 43
0.0
 10
29.936361
 20
15.393746
 10
29.959022
 20
15.432996
 10
29.936361
 20
15.472246
 10
29.891039
 20
15.472246
 10
29.868378
 20
15.432996
 10
29.891039
 20
15.393746
  0
CIRCLE
  5
1B3
100
AcDbEntity
  8
0
 62
     7
100
AcDbCircle
 10
29.9137
 20
15.432996
 30
0.0
 40
0.10835
  0
LINE
  5
1B4
100
AcDbEntity
  8
0
 62
     7
100
AcDbLine
 10
30.6332
 20
15.323496
 30
0.0
 11
29.9132
 21
15.323496
 31
0.0
  0
ARC
  5
1B5
100
AcDbEntity
  8
0
 62
     7
100
AcDbCircle
 10
29.9132
 20
15.432496
 30
0.0
 40
0.109
100
AcDbArc
 50
180.0
 51
270.0
  0
CIRCLE
  5
1B6
100
AcDbEntity
  8
0
 62
     7
100
AcDbCircle
 10
30.3402
 20
15.676448
 30
0.0
 40
0.03125
  0
CIRCLE
  5
1B7
100
AcDbEntity
  8
0
 62
     7
100
AcDbCircle
 10
30.2062
 20
15.676448
 30
0.0
 40
0.03125
  0
CIRCLE
  5
1B8
100
AcDbEntity
  8
0
 62
     7
100
AcDbCircle
 10
30.1392
 20
15.792496
 30
0.0
 40
0.03125
  0
LWPOLYLINE
  5
1B9
100
AcDbEntity
  8
0
 62
     7
100
AcDbPolyline
 90
        6
 70
     1
 43
0.0
 10
30.655361
 20
15.393746
 10
30.678022
 20
15.432996
 10
30.655361
 20
15.472246
 10
30.610039
 20
15.472246
 10
30.587378
 20
15.432996
 10
30.610039
 20
15.393746
  0
CIRCLE
  5
1C1
100
AcDbEntity
  8
0
 62
     7
100
AcDbCircle
 10
30.4072
 20
15.792496
 30
0.0
 40
0.03125
  0
LINE
  5
1C2
100
AcDbEntity
  8
OBJHOUSING
 62
     7
100
AcDbLine
 10
28.8332
 20
16.448746
 30
0.0
 11
28.7732
 21
16.388746
 31
0.0
  0
LWPOLYLINE
  5
1C3
100
AcDbEntity
  8
0
 62
     7
100
AcDbPolyline
 90
        6
 70
     1
 43
0.0
 10
29.936361
 20
16.112746
 10
29.959022
 20
16.151996
 10
29.936361
 20
16.191246
 10
29.891039
 20
16.191246
 10
29.868378
 20
16.151996
 10
29.891039
 20
16.112746
  0
CIRCLE
  5
1CB
100
AcDbEntity
  8
0
 62
     7
100
AcDbCircle
 10
29.9137
 20
16.151996
 30
0.0
 40
0.10835
  0
LINE
  5
1CC
100
AcDbEntity
  8
0
 62
     7
100
AcDbLine
 10
30.6332
 20
16.261496
 30
0.0
 11
29.9132
 21
16.261496
 31
0.0
  0
ARC
  5
1CD
100
AcDbEntity
  8
0
 62
     7
100
AcDbCircle
 10
29.9132
 20
16.152496
 30
0.0
 40
0.109
100
AcDbArc
 50
90.0
 51
180.0
  0
LWPOLYLINE
  5
1CE
100
AcDbEntity
  8
0
 62
     7
100
AcDbPolyline
 90
        6
 70
     1
 43
0.0
 10
30.655361
 20
16.112746
 10
30.678022
 20
16.151996
 10
30.655361
 20
16.191246
 10
30.610039
 20
16.191246
 10
30.587378
 20
16.151996
 10
30.610039
 20
16.112746
  0
LINE
  5
1D6
100
AcDbEntity
  8
OBJHOUSING
 62
     7
100
AcDbLine
 10
31.7732
 20
16.388746
 30
0.0
 11
31.7732
 21
15.196246
 31
0.0
  0
LINE
  5
1D7
100
AcDbEntity
  8
0
 62
     7
100
AcDbLine
 10
30.7422
 20
15.432496
 30
0.0
 11
30.7422
 21
16.152496
 31
0.0
  0
CIRCLE
  5
1D8
100
AcDbEntity
  8
OBJHOUSING
 62
     7
100
AcDbCircle
 10
31.5232
 20
15.792496
 30
0.0
 40
0.140625
  0
LINE
  5
1D9
100
AcDbEntity
  8
OBJHOUSING
 62
     7
100
AcDbLine
 10
31.7132
 20
15.136246
 30
0.0
 11
31.7732
 21
15.196246
 31
0.0
  0
LINE
  5
1DA
100
AcDbEntity
  8
OBJHOUSING
 62
     7
100
AcDbLine
 10
31.7732
 20
16.388746
 30
0.0
 11
31.7132
 21
16.448746
 31
0.0
  0
LINE
  5
1DB
100
AcDbEntity
  8
0
 62
     7
100
AcDbLine
 10
27.928554
 20
19.607565
 30
0.0
 11
27.928554
 21
19.017565
 31
0.0
  0
TEXT
  5
1DC
100
AcDbEntity
  8
DIM
  6
BYBLOCK
 62
     7
100
AcDbText
 10
27.649554
 20
21.222344
 30
0.0
 40
0.18
  1
0.75 [19.0mm]
 72
     1
 11
28.549554
 21
21.312344
 31
0.0
100
AcDbText
 73
     2
  0
TEXT
  5
313
100
AcDbEntity
  8
BORDER
 62
     4
100
AcDbText
 10
20.680302
 20
-8.542425
 30
0.0
 40
0.3
  1

 41
0.77
  7
ROMANS
 72
     1
 11
20.680302
 21
-8.542425
 31
0.0
100
AcDbText
  0
TEXT
  5
314
100
AcDbEntity
  8
BORDER
 62
     4
100
AcDbText
 10
20.763139
 20
-9.330185
 30
0.0
 40
0.3
  1

 41
0.77
  7
ROMANS
 72
     1
 11
20.763139
 21
-9.330185
 31
0.0
100
AcDbText
  0
TEXT
  5
329
100
AcDbEntity
  8
TEXT
 62
     7
100
AcDbText
 10
-6.419594
 20
-6.78388
 30
0.0
 40
0.285
  1
    OUTPUT = PINS A(-) & D(+)
100
AcDbText
  0
TEXT
  5
32A
100
AcDbEntity
  8
TEXT
 62
     7
100
AcDbText
 10
-6.419594
 20
-6.325364
 30
0.0
 40
0.285
  1
    -10V = PINS C & E
100
AcDbText
  0
TEXT
  5
32B
100
AcDbEntity
  8
TEXT
 62
     7
100
AcDbText
 10
-6.419594
 20
-5.83819
 30
0.0
 40
0.285
  1
    +10V = PINS B & F
100
AcDbText
  0
TEXT
  5
32C
100
AcDbEntity
  8
TEXT
 62
     7
100
AcDbText
 10
-6.419594
 20
-5.379674
 30
0.0
 40
0.285
  1
ELECTRICAL CONNECTIONS:
100
AcDbText
  0
TEXT
  5
32D
100
AcDbEntity
  8
TEXT
 62
     7
100
AcDbText
 10
-6.419594
 20
1.447018
 30
0.0
 40
0.285
  1
STANDARD WHEEL WEIGHTS:
100
AcDbText
  0
TEXT
  5
32E
100
AcDbEntity
  8
TEXT
 62
     7
100
AcDbText
 10
-6.419594
 20
0.993682
 30
0.0
 40
0.285
  1
  FILAMENT WHEEL ASSEMBLY .055 LBS [25 grams]
100
AcDbText
  0
TEXT
  5
32F
100
AcDbEntity
  8
TEXT
 62
     7
100
AcDbText
 10
-6.419594
 20
0.507965
 30
0.0
 40
0.285
  1
  RIBBON WHEEL ASSEMBLY   .062 LBS [28 grams]
100
AcDbText
  0
TEXT
  5
330
100
AcDbEntity
  8
TEXT
 62
     7
100
AcDbText
 10
-6.419594
 20
1.932736
 30
0.0
 40
0.285
  1
MAX BREAKAWAY TORQUE: 0.02 OZ-IN [1.5 gram-cm]
100
AcDbText
  0
TEXT
  5
331
100
AcDbEntity
  8
TEXT
 62
     7
100
AcDbText
 10
-6.419594
 20
-4.8925
 30
0.0
 40
0.285
  1
MATING ELECTRICAL CONNECTOR: BENDIX PT06E10-6S
100
AcDbText
  0
TEXT
  5
332
100
AcDbEntity
  8
TEXT
 62
     7
100
AcDbText
 10
-6.419594
 20
-4.4175
 30
0.0
 40
0.285
  1
  [0.036% FS PER C%%D]
100
AcDbText
  0
TEXT
  5
333
100
AcDbEntity
  8
TEXT
 62
     7
100
AcDbText
 10
-6.419594
 20
-3.9425
 30
0.0
 40
0.285
  1
TEMPERATURE COEFFICIENT: 0.02% FS PER F%%D, TYPICAL
100
AcDbText
  0
TEXT
  5
334
100
AcDbEntity
  8
TEXT
 62
     7
100
AcDbText
 10
-6.419594
 20
-3.462631
 30
0.0
 40
0.285
  1
TEMPERATURE RANGE: -10%%DF TO 200%%DF [-23%%DC TO 93%%DC]
100
AcDbText
  0
TEXT
  5
335
100
AcDbEntity
  8
TEXT
 62
     7
100
AcDbText
 10
-6.419594
 20
-2.512631
 30
0.0
 40
0.285
  1
COMBINED NON-LINEARITY & HYSTERESIS: %%P1/2% OF
100
AcDbText
  0
TEXT
  5
336
100
AcDbEntity
  8
TEXT
 62
     7
100
AcDbText
 10
-6.419594
 20
-2.037631
 30
0.0
 40
0.285
  1
NON-REPEATIBILITY: %%P1/4% OF FULL SPAN
100
AcDbText
  0
TEXT
  5
337
100
AcDbEntity
  8
TEXT
 62
     7
100
AcDbText
 10
-6.419594
 20
-1.562631
 30
0.0
 40
0.285
  1
STRAIN GAGE RESISTANCE: 800 OHMS, NOMINAL
100
AcDbText
  0
TEXT
  5
338
100
AcDbEntity
  8
TEXT
 62
     7
100
AcDbText
 10
-6.419594
 20
-1.087631
 30
0.0
 40
0.285
  1
OUTPUT: 500mV NOMINAL AT 10V EXCITATION
100
AcDbText
  0
TEXT
  5
339
100
AcDbEntity
  8
TEXT
 62
     7
100
AcDbText
 10
-6.419594
 20
-0.612631
 30
0.0
 40
0.285
  1
EXCITATION: 10V DC, REGULATED
100
AcDbText
  0
TEXT
  5
33A
100
AcDbEntity
  8
TEXT
 62
     7
100
AcDbText
 10
-6.419594
 20
-2.987631
 30
0.0
 40
0.285
  1
  FULL SPAN
100
AcDbText
  0
TEXT
  5
33B
100
AcDbEntity
  8
TEXT
 62
     7
100
AcDbText
 10
-6.927182
 20
-0.105385
 30
0.0
 40
0.285
  1
ELECTRICAL:
100
AcDbText
  0
TEXT
  5
33C
100
AcDbEntity
  8
TEXT
 62
     7
100
AcDbText
 10
-4.092114
 20
2.407277
 30
0.0
 40
0.285
  1
                    [50 gram]
100
AcDbText
  0
TEXT
  5
33D
100
AcDbEntity
  8
TEXT
 62
     7
100
AcDbText
 10
-4.092114
 20
2.882277
 30
0.0
 40
0.285
  1
                    [100 gram]
100
AcDbText
  0
TEXT
  5
33E
100
AcDbEntity
  8
TEXT
 62
     7
100
AcDbText
 10
-4.092114
 20
3.357277
 30
0.0
 40
0.285
  1
                    [200 gram]
100
AcDbText
  0
TEXT
  5
33F
100
AcDbEntity
  8
TEXT
 62
     7
100
AcDbText
 10
-4.092114
 20
3.832277
 30
0.0
 40
0.285
  1
                    [500 gram]
100
AcDbText
  0
TEXT
  5
340
100
AcDbEntity
  8
TEXT
 62
     7
100
AcDbText
 10
-4.092114
 20
4.307277
 30
0.0
 40
0.285
  1
                    [1000 gram]
100
AcDbText
  0
TEXT
  5
341
100
AcDbEntity
  8
TEXT
 62
     7
100
AcDbText
 10
-6.518635
 20
2.407277
 30
0.0
 40
0.285
  1
                     0.11 LB
100
AcDbText
  0
TEXT
  5
342
100
AcDbEntity
  8
TEXT
 62
     7
100
AcDbText
 10
-6.518635
 20
2.882277
 30
0.0
 40
0.285
  1
                     0.22 LB
100
AcDbText
  0
TEXT
  5
343
100
AcDbEntity
  8
TEXT
 62
     7
100
AcDbText
 10
-6.518635
 20
3.357277
 30
0.0
 40
0.285
  1
                     0.44 LB 
100
AcDbText
  0
TEXT
  5
344
100
AcDbEntity
  8
TEXT
 62
     7
100
AcDbText
 10
-6.518635
 20
3.832277
 30
0.0
 40
0.285
  1
                     1.10 LB
100
AcDbText
  0
TEXT
  5
345
100
AcDbEntity
  8
TEXT
 62
     7
100
AcDbText
 10
-6.518635
 20
4.307277
 30
0.0
 40
0.285
  1
                     2.20 LB
100
AcDbText
  0
TEXT
  5
346
100
AcDbEntity
  8
TEXT
 62
     7
100
AcDbText
 10
-4.461751
 20
7.366697
 30
0.0
 40
0.285
  1
%%UPERFORMANCE SPECIFICATIONS%%U
100
AcDbText
  0
TEXT
  5
347
100
AcDbEntity
  8
TEXT
 62
     7
100
AcDbText
 10
-6.419594
 20
4.782277
 30
0.0
 40
0.285
  1
NOMINAL LOAD RATINGS: 4.40 LB
100
AcDbText
  0
TEXT
  5
348
100
AcDbEntity
  8
TEXT
 62
     7
100
AcDbText
 10
-6.419594
 20
5.257277
 30
0.0
 40
0.285
  1
OVERLOAD CAPACITY: 20 LB [90 N]
100
AcDbText
  0
TEXT
  5
349
100
AcDbEntity
  8
TEXT
 62
     7
100
AcDbText
 10
-6.419594
 20
5.732277
 30
0.0
 40
0.285
  1
TYPICAL SENSOR DEFLECTION: .020 IN [.5mm]
100
AcDbText
  0
TEXT
  5
34A
100
AcDbEntity
  8
TEXT
 62
     7
100
AcDbText
 10
-6.419594
 20
6.207277
 30
0.0
 40
0.285
  1
MATERIAL: ALUMINUM & STAINLESS STEEL.
100
AcDbText
  0
TEXT
  5
34B
100
AcDbEntity
  8
TEXT
 62
     7
100
AcDbText
 10
-6.927182
 20
6.714524
 30
0.0
 40
0.285
  1
MECHANICAL: 
100
AcDbText
  0
TEXT
  5
34C
100
AcDbEntity
  8
TEXT
 62
     7
100
AcDbText
 10
-4.092113
 20
4.782277
 30
0.0
 40
0.285
  1
                    [2000 gram]
100
AcDbText
  0
DIMENSION
  5
34D
100
AcDbEntity
  8
DIM
 62
     7
100
AcDbDimension
  2
*D10
 10
22.24391
 20
10.532474
 30
0.0
 11
20.89391
 21
10.532474
 31
0.0
 12
8.101005
 22
5.879961
 32
0.0
100
AcDbAlignedDimension
 13
22.74391
 23
10.087387
 33
0.0
 14
22.24391
 24
10.087387
 34
0.0
100
AcDbRotatedDimension
  0
LINE
  5
3A0
100
AcDbEntity
  8
CTR
 62
     7
100
AcDbLine
 10
21.809101
 20
15.792496
 30
0.0
 11
21.989101
 21
15.792496
 31
0.0
  0
LINE
  5
3A1
100
AcDbEntity
  8
CTR
 62
     7
100
AcDbLine
 10
21.899101
 20
15.702496
 30
0.0
 11
21.899101
 21
15.882496
 31
0.0
  0
LINE
  5
3A2
100
AcDbEntity
  8
CTR
 62
     7
100
AcDbLine
 10
19.309101
 20
15.792496
 30
0.0
 11
19.489101
 21
15.792496
 31
0.0
  0
LINE
  5
3A3
100
AcDbEntity
  8
CTR
 62
     7
100
AcDbLine
 10
19.399101
 20
15.702496
 30
0.0
 11
19.399101
 21
15.882496
 31
0.0
  0
LINE
  5
3A4
100
AcDbEntity
  8
CTR
 62
     7
100
AcDbLine
 10
26.359554
 20
18.68739
 30
0.0
 11
26.539554
 21
18.68739
 31
0.0
  0
LINE
  5
3A5
100
AcDbEntity
  8
CTR
 62
     7
100
AcDbLine
 10
26.449554
 20
18.59739
 30
0.0
 11
26.449554
 21
18.77739
 31
0.0
  0
LINE
  5
3A6
100
AcDbEntity
  8
CTR
 62
     7
100
AcDbLine
 10
23.984568
 20
19.93774
 30
0.0
 11
24.164568
 21
19.93774
 31
0.0
  0
LINE
  5
3A7
100
AcDbEntity
  8
CTR
 62
     7
100
AcDbLine
 10
24.074568
 20
19.84774
 30
0.0
 11
24.074568
 21
20.02774
 31
0.0
  0
LINE
  5
3A8
100
AcDbEntity
  8
CTR
 62
     7
100
AcDbLine
 10
31.4332
 20
15.792496
 30
0.0
 11
31.6132
 21
15.792496
 31
0.0
  0
LINE
  5
3A9
100
AcDbEntity
  8
CTR
 62
     7
100
AcDbLine
 10
31.5232
 20
15.702496
 30
0.0
 11
31.5232
 21
15.882496
 31
0.0
  0
LINE
  5
3AA
100
AcDbEntity
  8
CTR
 62
     7
100
AcDbLine
 10
28.9332
 20
15.792496
 30
0.0
 11
29.1132
 21
15.792496
 31
0.0
  0
LINE
  5
3AB
100
AcDbEntity
  8
CTR
 62
     7
100
AcDbLine
 10
29.0232
 20
15.702496
 30
0.0
 11
29.0232
 21
15.882496
 31
0.0
  0
CIRCLE
  5
3AC
100
AcDbEntity
  8
OBJHOUSING
 62
     7
100
AcDbCircle
 10
-4.645444
 20
15.66183
 30
0.0
 40
0.601
  0
CIRCLE
  5
3B7
100
AcDbEntity
  8
0
 62
     7
100
AcDbCircle
 10
7.836319
 20
15.66183
 30
0.0
 40
0.265
  0
CIRCLE
  5
3B8
100
AcDbEntity
  8
0
 62
     7
100
AcDbCircle
 10
7.952366
 20
15.59483
 30
0.0
 40
0.03125
  0
CIRCLE
  5
3B9
100
AcDbEntity
  8
0
 62
     7
100
AcDbCircle
 10
7.720271
 20
15.59483
 30
0.0
 40
0.03125
  0
CIRCLE
  5
3BA
100
AcDbEntity
  8
OBJHOUSING
 62
     7
100
AcDbCircle
 10
7.836319
 20
15.66183
 30
0.0
 40
0.708661
  0
CIRCLE
  5
3BB
100
AcDbEntity
  8
HIDDEN
 62
     7
100
AcDbCircle
 10
7.836319
 20
15.66183
 30
0.0
 40
0.648661
  0
ARC
  5
3BC
100
AcDbEntity
  8
OBJBEAM
 62
     7
100
AcDbCircle
 10
7.836319
 20
15.66183
 30
0.0
 40
0.625
100
AcDbArc
 50
91.64065
 51
88.35935
  0
LINE
  5
3BD
100
AcDbEntity
  8
CENTER
 62
     7
100
AcDbLine
 10
7.836319
 20
16.41183
 30
0.0
 11
7.836319
 21
14.86542
 31
0.0
  0
CIRCLE
  5
3BE
100
AcDbEntity
  8
0
 62
     7
100
AcDbCircle
 10
7.836319
 20
15.66183
 30
0.0
 40
0.295
  0
LINE
  5
3BF
100
AcDbEntity
  8
0
 62
     7
100
AcDbLine
 10
8.305319
 20
15.30183
 30
0.0
 11
8.305319
 21
16.02183
 31
0.0
  0
LINE
  5
3C0
100
AcDbEntity
  8
0
 62
     7
100
AcDbLine
 10
7.367319
 20
15.30183
 30
0.0
 11
7.367319
 21
16.02183
 31
0.0
  0
CIRCLE
  5
3C1
100
AcDbEntity
  8
0
 62
     7
100
AcDbCircle
 10
7.476819
 20
15.30233
 30
0.0
 40
0.10835
  0
LINE
  5
3C2
100
AcDbEntity
  8
0
 62
     7
100
AcDbLine
 10
7.476319
 20
15.19283
 30
0.0
 11
8.196319
 21
15.19283
 31
0.0
  0
LWPOLYLINE
  5
3C3
100
AcDbEntity
  8
0
 62
     7
100
AcDbPolyline
 90
        6
 70
     1
 43
0.0
 10
7.437569
 20
15.279669
 10
7.476819
 20
15.257008
 10
7.516069
 20
15.279669
 10
7.516069
 20
15.324991
 10
7.476819
 20
15.347652
 10
7.437569
 20
15.324991
  0
ARC
  5
3CB
100
AcDbEntity
  8
0
 62
     7
100
AcDbCircle
 10
7.476319
 20
15.30183
 30
0.0
 40
0.109
100
AcDbArc
 50
180.0
 51
270.0
  0
CIRCLE
  5
3CC
100
AcDbEntity
  8
0
 62
     7
100
AcDbCircle
 10
8.195819
 20
15.30233
 30
0.0
 40
0.10835
  0
CIRCLE
  5
3CD
100
AcDbEntity
  8
0
 62
     7
100
AcDbCircle
 10
7.836319
 20
15.52783
 30
0.0
 40
0.03125
  0
ARC
  5
3CE
100
AcDbEntity
  8
0
 62
     7
100
AcDbCircle
 10
8.196319
 20
15.30183
 30
0.0
 40
0.109
100
AcDbArc
 50
270.0
 51
0.0
  0
LWPOLYLINE
  5
3CF
100
AcDbEntity
  8
0
 62
     7
100
AcDbPolyline
 90
        6
 70
     1
 43
0.0
 10
8.156569
 20
15.279669
 10
8.195819
 20
15.257008
 10
8.235069
 20
15.279669
 10
8.235069
 20
15.324991
 10
8.195819
 20
15.347652
 10
8.156569
 20
15.324991
  0
CIRCLE
  5
3D7
100
AcDbEntity
  8
0
 62
     7
100
AcDbCircle
 10
7.476819
 20
16.02133
 30
0.0
 40
0.10835
  0
LINE
  5
3D8
100
AcDbEntity
  8
CENTER
 62
     7
100
AcDbLine
 10
8.586319
 20
15.66183
 30
0.0
 11
7.031838
 21
15.66183
 31
0.0
  0
LINE
  5
3D9
100
AcDbEntity
  8
0
 62
     7
100
AcDbLine
 10
7.476319
 20
16.13083
 30
0.0
 11
8.196319
 21
16.13083
 31
0.0
  0
LWPOLYLINE
  5
3DA
100
AcDbEntity
  8
0
 62
     7
100
AcDbPolyline
 90
        6
 70
     1
 43
0.0
 10
7.437569
 20
15.998669
 10
7.476819
 20
15.976008
 10
7.516069
 20
15.998669
 10
7.516069
 20
16.043991
 10
7.476819
 20
16.066652
 10
7.437569
 20
16.043991
  0
ARC
  5
3E2
100
AcDbEntity
  8
0
 62
     7
100
AcDbCircle
 10
7.476319
 20
16.02183
 30
0.0
 40
0.109
100
AcDbArc
 50
90.0
 51
180.0
  0
CIRCLE
  5
3E3
100
AcDbEntity
  8
0
 62
     7
100
AcDbCircle
 10
8.195819
 20
16.02133
 30
0.0
 40
0.10835
  0
CIRCLE
  5
3E4
100
AcDbEntity
  8
0
 62
     7
100
AcDbCircle
 10
7.952366
 20
15.72883
 30
0.0
 40
0.03125
  0
CIRCLE
  5
3E5
100
AcDbEntity
  8
0
 62
     7
100
AcDbCircle
 10
7.836319
 20
15.79583
 30
0.0
 40
0.03125
  0
CIRCLE
  5
3E6
100
AcDbEntity
  8
0
 62
     7
100
AcDbCircle
 10
7.720271
 20
15.72883
 30
0.0
 40
0.03125
  0
ARC
  5
3E7
100
AcDbEntity
  8
0
 62
     7
100
AcDbCircle
 10
8.196319
 20
16.02183
 30
0.0
 40
0.109
100
AcDbArc
 50
0.0
 51
90.0
  0
LWPOLYLINE
  5
3E8
100
AcDbEntity
  8
0
 62
     7
100
AcDbPolyline
 90
        6
 70
     1
 43
0.0
 10
8.156569
 20
15.998669
 10
8.195819
 20
15.976008
 10
8.235069
 20
15.998669
 10
8.235069
 20
16.043991
 10
8.195819
 20
16.066652
 10
8.156569
 20
16.043991
  0
LINE
  5
3F0
100
AcDbEntity
  8
OBJBEAM
 62
     7
100
AcDbLine
 10
7.836319
 20
16.25558
 30
0.0
 11
7.818424
 21
16.286574
 31
0.0
  0
LINE
  5
3F1
100
AcDbEntity
  8
OBJBEAM
 62
     7
100
AcDbLine
 10
7.836319
 20
16.25558
 30
0.0
 11
7.854213
 21
16.286574
 31
0.0
  0
LINE
  5
403
100
AcDbEntity
  8
CENTER
 62
     7
100
AcDbLine
 10
0.352613
 20
15.66183
 30
0.0
 11
4.268297
 21
15.66183
 31
0.0
  0
LINE
  5
404
100
AcDbEntity
  8
CENTER
 62
     7
100
AcDbLine
 10
4.898752
 20
15.66183
 30
0.0
 11
-0.375979
 21
15.66183
 31
0.0
  0
LINE
  5
6A6
100
AcDbEntity
  8
0
 62
     7
100
AcDbLine
 10
4.730607
 20
15.95683
 30
0.0
 11
4.730607
 21
15.36683
 31
0.0
  0
INSERT
  5
E21
100
AcDbEntity
  8
ASHADE
 62
     1
100
AcDbBlockReference
  2
AVE_RENDER
 10
0.0
 20
0.0
 30
0.0
1001
AVE_RENDER
1002
{
1070
     2
1000
Pref
1070
    30
1070
    20
1070
     0
1070
     0
1000

1070
    10
1070
     0
1070
    30
1040
1.0
1070
     1
1040
0.3
1040
0.7
1040
0.0
1040
10.0
1010
-1.0
1020
-1.0
1030
-1.0
1040
0.3
1070
    49
1002
}
  0
INSERT
  5
E22
100
AcDbEntity
  8
ASHADE
 62
     3
100
AcDbBlockReference
  2
AVE_RENDER
 10
0.0
 20
0.0
 30
0.0
1001
AVE_RENDER
1002
{
1070
     0
1000
Full Opt
1070
     0
1070
     1
1070
     1
1070
     1
1070
     0
1070
     0
1070
     0
1070
     1
1070
     1
1040
0.0001
1040
0.0001
1002
}
  0
INSERT
  5
E23
100
AcDbEntity
  8
ASHADE
 62
     4
100
AcDbBlockReference
  2
AVE_RENDER
 10
0.0
 20
0.0
 30
0.0
1001
AVE_RENDER
1002
{
1070
     0
1000
Quick Opt
1070
     0
1070
     1
1070
     1
1070
     1
1070
     0
1070
     0
1070
     1
1002
}
  0
TEXT
  5
F8265
100
AcDbEntity
  8
BORDER
 62
     2
100
AcDbText
 10
25.194194
 20
23.726146
 30
0.0
 40
0.060446
  1

100
AcDbText
  0
TEXT
  5
F826B
100
AcDbEntity
  8
BORDER
 62
     2
100
AcDbText
 10
25.194194
 20
23.976146
 30
0.0
 40
0.060446
  1

100
AcDbText
  0
TEXT
  5
F8271
100
AcDbEntity
  8
BORDER
 62
     2
100
AcDbText
 10
25.194194
 20
24.226146
 30
0.0
 40
0.060446
  1

100
AcDbText
  0
TEXT
  5
F8277
100
AcDbEntity
  8
BORDER
 62
     2
100
AcDbText
 10
25.194194
 20
24.476146
 30
0.0
 40
0.060446
  1

100
AcDbText
  0
TEXT
  5
F827D
100
AcDbEntity
  8
BORDER
 62
     2
100
AcDbText
 10
25.194194
 20
24.726146
 30
0.0
 40
0.060446
  1

100
AcDbText
  0
TEXT
  5
F82A1
100
AcDbEntity
  8
BORDER
 62
     2
100
AcDbText
 10
25.194194
 20
26.226146
 30
0.0
 40
0.060446
  1

100
AcDbText
  0
TEXT
  5
F82A7
100
AcDbEntity
  8
BORDER
 62
     2
100
AcDbText
 10
25.194194
 20
26.476146
 30
0.0
 40
0.060446
  1

100
AcDbText
  0
TEXT
  5
F82AD
100
AcDbEntity
  8
BORDER
 62
     2
100
AcDbText
 10
25.194194
 20
26.726146
 30
0.0
 40
0.060446
  1

100
AcDbText
  0
TEXT
  5
F82B3
100
AcDbEntity
  8
BORDER
 62
     2
100
AcDbText
 10
25.194194
 20
26.976146
 30
0.0
 40
0.060446
  1

100
AcDbText
  0
TEXT
  5
F82B9
100
AcDbEntity
  8
BORDER
 62
     2
100
AcDbText
 10
25.194194
 20
27.226146
 30
0.0
 40
0.060446
  1

100
AcDbText
  0
TEXT
  5
F82BF
100
AcDbEntity
  8
BORDER
 62
     2
100
AcDbText
 10
25.194194
 20
27.476146
 30
0.0
 40
0.060446
  1

100
AcDbText
  0
TEXT
  5
F8B41
100
AcDbEntity
  8
3
 62
     7
100
AcDbText
 10
-8.313814
 20
35.953485
 30
0.0
 40
0.088891
  1

  7
ITALICC
100
AcDbText
  0
TEXT
  5
F8B42
100
AcDbEntity
  8
3
 62
     7
100
AcDbText
 10
-8.424927
 20
36.175713
 30
0.0
 40
0.088891
  1

  7
ITALICC
100
AcDbText
  0
TEXT
  5
F8B43
100
AcDbEntity
  8
3
 62
     7
100
AcDbText
 10
-8.358259
 20
36.064599
 30
0.0
 40
0.088891
  1

  7
ITALICC
100
AcDbText
  0
TEXT
  5
F8B44
100
AcDbEntity
  8
3
 62
     7
100
AcDbText
 10
13.686186
 20
53.953485
 30
0.0
 40
0.088891
  1

  7
ITALICC
100
AcDbText
  0
TEXT
  5
F8B45
100
AcDbEntity
  8
3
 62
     7
100
AcDbText
 10
13.575073
 20
54.175713
 30
0.0
 40
0.088891
  1

  7
ITALICC
100
AcDbText
  0
TEXT
  5
F8B46
100
AcDbEntity
  8
3
 62
     7
100
AcDbText
 10
13.641741
 20
54.064599
 30
0.0
 40
0.088891
  1

  7
ITALICC
100
AcDbText
  0
TEXT
  5
F8B47
100
AcDbEntity
  8
3
 62
     7
100
AcDbText
 10
35.686186
 20
53.953485
 30
0.0
 40
0.088891
  1

  7
ITALICC
100
AcDbText
  0
TEXT
  5
F8B48
100
AcDbEntity
  8
3
 62
     7
100
AcDbText
 10
35.575073
 20
54.175713
 30
0.0
 40
0.088891
  1

  7
ITALICC
100
AcDbText
  0
TEXT
  5
F8B49
100
AcDbEntity
  8
3
 62
     7
100
AcDbText
 10
35.641741
 20
54.064599
 30
0.0
 40
0.088891
  1

  7
ITALICC
100
AcDbText
  0
TEXT
  5
F8B5C
100
AcDbEntity
  8
3
 62
     7
100
AcDbText
 10
-14.065913
 20
65.985551
 30
0.0
 40
0.044446
  1

  7
ITALICC
100
AcDbText
  0
TEXT
  5
F8B5D
100
AcDbEntity
  8
3
 62
     7
100
AcDbText
 10
-14.12147
 20
66.096665
 30
0.0
 40
0.044446
  1

  7
ITALICC
100
AcDbText
  0
TEXT
  5
F8B5E
100
AcDbEntity
  8
3
 62
     7
100
AcDbText
 10
-14.088136
 20
66.041108
 30
0.0
 40
0.044446
  1

  7
ITALICC
100
AcDbText
  0
TEXT
  5
F8B5F
100
AcDbEntity
  8
3
 62
     7
100
AcDbText
 10
12.622529
 20
35.953485
 30
0.0
 40
0.088891
  1

  7
ITALICC
100
AcDbText
  0
TEXT
  5
F8B60
100
AcDbEntity
  8
3
 62
     7
100
AcDbText
 10
12.511415
 20
36.175713
 30
0.0
 40
0.088891
  1

  7
ITALICC
100
AcDbText
  0
TEXT
  5
F8B61
100
AcDbEntity
  8
3
 62
     7
100
AcDbText
 10
12.578084
 20
36.064599
 30
0.0
 40
0.088891
  1

  7
ITALICC
100
AcDbText
  0
TEXT
  5
F8B62
100
AcDbEntity
  8
3
 62
     7
100
AcDbText
 10
33.027044
 20
35.953485
 30
0.0
 40
0.088891
  1

  7
ITALICC
100
AcDbText
  0
TEXT
  5
F8B63
100
AcDbEntity
  8
3
 62
     7
100
AcDbText
 10
32.91593
 20
36.175713
 30
0.0
 40
0.088891
  1

  7
ITALICC
100
AcDbText
  0
TEXT
  5
F8B64
100
AcDbEntity
  8
3
 62
     7
100
AcDbText
 10
32.982598
 20
36.064599
 30
0.0
 40
0.088891
  1

  7
ITALICC
100
AcDbText
  0
TEXT
  5
F8B65
100
AcDbEntity
  8
3
 62
     7
100
AcDbText
 10
12.622529
 20
66.78563
 30
0.0
 40
0.088891
  1

  7
ITALICC
100
AcDbText
  0
TEXT
  5
F8B66
100
AcDbEntity
  8
3
 62
     7
100
AcDbText
 10
12.511415
 20
67.007858
 30
0.0
 40
0.088891
  1

  7
ITALICC
100
AcDbText
  0
TEXT
  5
F8B67
100
AcDbEntity
  8
3
 62
     7
100
AcDbText
 10
12.578084
 20
66.896744
 30
0.0
 40
0.088891
  1

  7
ITALICC
100
AcDbText
  0
TEXT
  5
F8B7A
100
AcDbEntity
  8
3
 62
     7
100
AcDbText
 10
26.525606
 20
64.959248
 30
0.0
 40
0.044446
  1

  7
ITALICC
100
AcDbText
  0
TEXT
  5
F8B7B
100
AcDbEntity
  8
3
 62
     7
100
AcDbText
 10
26.470049
 20
65.070362
 30
0.0
 40
0.044446
  1

  7
ITALICC
100
AcDbText
  0
TEXT
  5
F8B7C
100
AcDbEntity
  8
3
 62
     7
100
AcDbText
 10
26.503383
 20
65.014805
 30
0.0
 40
0.044446
  1

  7
ITALICC
100
AcDbText
  0
TEXT
  5
F8BA4
100
AcDbEntity
  8
3
 62
     7
100
AcDbText
 10
-11.66323
 20
45.456883
 30
0.0
 40
0.044446
  1

  7
ITALICC
100
AcDbText
  0
TEXT
  5
F8BA5
100
AcDbEntity
  8
3
 62
     7
100
AcDbText
 10
-11.718787
 20
45.567997
 30
0.0
 40
0.044446
  1

  7
ITALICC
100
AcDbText
  0
TEXT
  5
F8BA6
100
AcDbEntity
  8
3
 62
     7
100
AcDbText
 10
-11.685453
 20
45.51244
 30
0.0
 40
0.044446
  1

  7
ITALICC
100
AcDbText
  0
TEXT
  5
F8BDB
100
AcDbEntity
  8
TEXT
100
AcDbText
 10
9.554218
 20
27.426606
 30
0.0
 40
0.18
  1

100
AcDbText
  0
LINE
  5
F8DAC
100
AcDbEntity
  8
OBJBEAM
 62
     7
100
AcDbLine
 10
0.549621
 20
15.41183
 30
0.0
 11
0.374021
 21
15.41183
 31
0.0
  0
LINE
  5
F8DAD
100
AcDbEntity
  8
OBJBEAM
 62
     7
100
AcDbLine
 10
0.549621
 20
15.466474
 30
0.0
 11
0.374021
 21
15.466474
 31
0.0
  0
LINE
  5
F8DAE
100
AcDbEntity
  8
OBJBEAM
 62
     7
100
AcDbLine
 10
0.549621
 20
15.91183
 30
0.0
 11
0.374021
 21
15.91183
 31
0.0
  0
LINE
  5
F8DAF
100
AcDbEntity
  8
OBJBEAM
 62
     7
100
AcDbLine
 10
0.549621
 20
15.857186
 30
0.0
 11
0.374021
 21
15.857186
 31
0.0
  0
LINE
  5
F8DB0
100
AcDbEntity
  8
CENTER
 62
     7
100
AcDbLine
 10
4.898752
 20
15.66183
 30
0.0
 11
-0.360986
 21
15.66183
 31
0.0
  0
LINE
  5
F8DB1
100
AcDbEntity
  8
CENTER
 62
     7
100
AcDbLine
 10
0.352613
 20
15.66183
 30
0.0
 11
4.268297
 21
15.66183
 31
0.0
  0
LINE
  5
F8DB2
100
AcDbEntity
  8
CENTER
 62
     7
100
AcDbLine
 10
0.352613
 20
15.66183
 30
0.0
 11
4.268297
 21
15.66183
 31
0.0
  0
LINE
  5
F8DB3
100
AcDbEntity
  8
CENTER
 62
     7
100
AcDbLine
 10
4.826228
 20
15.66183
 30
0.0
 11
-0.178829
 21
15.66183
 31
0.0
  0
LINE
  5
F8DB6
100
AcDbEntity
  8
OBJWHEEL
 62
     7
100
AcDbLine
 10
0.374021
 20
16.256069
 30
0.0
 11
0.374021
 21
15.06759
 31
0.0
  0
LWPOLYLINE
  5
F8DBE
100
AcDbEntity
  8
OBJNUT
 62
     7
100
AcDbPolyline
 90
        9
 70
     0
 43
0.0
 10
3.629829
 20
15.08448
 42
-0.319527
 10
3.640449
 20
15.076921
 42
-0.047807
 10
3.65914
 20
14.999929
 42
-0.020806
 10
3.667736
 20
14.915124
 42
-0.014853
 10
3.671281
 20
14.795804
 42
-0.014853
 10
3.667736
 20
14.676484
 42
-0.020806
 10
3.65914
 20
14.59168
 42
-0.047807
 10
3.640449
 20
14.514687
 42
-0.319527
 10
3.629829
 20
14.507129
 42
-0.319527
  0
LWPOLYLINE
  5
F8DC9
100
AcDbEntity
  8
OBJNUT
 62
     7
100
AcDbPolyline
 90
        9
 70
     0
 43
0.0
 10
3.462733
 20
14.507129
 42
-0.319527
 10
3.452114
 20
14.514687
 42
-0.047807
 10
3.433422
 20
14.59168
 42
-0.020806
 10
3.424827
 20
14.676484
 42
-0.014853
 10
3.421281
 20
14.795804
 42
-0.014853
 10
3.424827
 20
14.915124
 42
-0.020806
 10
3.433422
 20
14.999929
 42
-0.047807
 10
3.452114
 20
15.076921
 42
-0.319527
 10
3.462733
 20
15.08448
 42
-0.319527
  0
LWPOLYLINE
  5
F8DD4
100
AcDbEntity
  8
OBJNUT
 62
     7
100
AcDbPolyline
 90
        9
 70
     0
 43
0.0
 10
1.168118
 20
15.08448
 42
-0.319527
 10
1.178737
 20
15.076921
 42
-0.047807
 10
1.197429
 20
14.999929
 42
-0.020806
 10
1.206024
 20
14.915124
 42
-0.014853
 10
1.20957
 20
14.795804
 42
-0.014853
 10
1.206024
 20
14.676484
 42
-0.020806
 10
1.197429
 20
14.59168
 42
-0.047807
 10
1.178737
 20
14.514687
 42
-0.319527
 10
1.168118
 20
14.507129
 42
-0.319527
  0
LWPOLYLINE
  5
F8DDF
100
AcDbEntity
  8
OBJNUT
 62
     7
100
AcDbPolyline
 90
        9
 70
     0
 43
0.0
 10
1.001022
 20
14.507129
 42
-0.319527
 10
0.990402
 20
14.514687
 42
-0.047807
 10
0.971711
 20
14.59168
 42
-0.020806
 10
0.963115
 20
14.676484
 42
-0.014853
 10
0.95957
 20
14.795804
 42
-0.014853
 10
0.963115
 20
14.915124
 42
-0.020806
 10
0.971711
 20
14.999929
 42
-0.047807
 10
0.990402
 20
15.076921
 42
-0.319527
 10
1.001022
 20
15.08448
 42
-0.319527
  0
LINE
  5
F8DEA
100
AcDbEntity
  8
OBJNUT
 62
     7
100
AcDbLine
 10
0.95957
 20
16.527855
 30
0.0
 11
0.95957
 21
14.795804
 31
0.0
  0
LINE
  5
F8DEB
100
AcDbEntity
  8
OBJNUT
 62
     7
100
AcDbLine
 10
1.20957
 20
16.527855
 30
0.0
 11
1.20957
 21
14.795804
 31
0.0
  0
LINE
  5
F8DEC
100
AcDbEntity
  8
OBJNUT
 62
     7
100
AcDbLine
 10
3.421281
 20
16.527855
 30
0.0
 11
3.421281
 21
14.795804
 31
0.0
  0
LINE
  5
F8DED
100
AcDbEntity
  8
OBJNUT
 62
     7
100
AcDbLine
 10
3.671281
 20
16.527855
 30
0.0
 11
3.671281
 21
14.795804
 31
0.0
  0
LINE
  5
F8DEF
100
AcDbEntity
  8
OBJNUT
 62
     7
100
AcDbLine
 10
1.001022
 20
14.507129
 30
0.0
 11
1.168118
 21
14.507129
 31
0.0
  0
LINE
  5
F8DF0
100
AcDbEntity
  8
OBJNUT
 62
     7
100
AcDbLine
 10
1.001022
 20
14.507129
 30
0.0
 11
1.168118
 21
14.507129
 31
0.0
  0
LINE
  5
F8DF5
100
AcDbEntity
  8
OBJNUT
 62
     7
100
AcDbLine
 10
3.462733
 20
14.507129
 30
0.0
 11
3.629829
 21
14.507129
 31
0.0
  0
LINE
  5
F8DF6
100
AcDbEntity
  8
OBJNUT
 62
     7
100
AcDbLine
 10
3.462733
 20
14.507129
 30
0.0
 11
3.629829
 21
14.507129
 31
0.0
  0
LWPOLYLINE
  5
F8DFA
100
AcDbEntity
  8
OBJHOUSING
 62
     7
100
AcDbPolyline
 90
        5
 70
     0
 43
0.0
 10
3.822353
 20
15.663802
 42
0.003113
 10
3.824041
 20
15.392641
 42
0.004401
 10
3.828118
 20
15.200859
 42
0.010601
 10
3.837752
 20
15.013088
 42
0.393146
 10
3.842038
 20
15.009102
 42
0.393146
  0
LINE
  5
F8E01
100
AcDbEntity
  8
OBJHOUSING
 62
     7
100
AcDbLine
 10
3.843053
 20
15.009102
 30
0.0
 11
3.804191
 21
14.955902
 31
0.0
  0
LINE
  5
F8E02
100
AcDbEntity
  8
OBJHOUSING
 62
     7
100
AcDbLine
 10
3.842546
 20
16.371702
 30
0.0
 11
3.803683
 21
16.318502
 31
0.0
  0
LINE
  5
F8E03
100
AcDbEntity
  8
0
 62
     7
100
AcDbLine
 10
1.564114
 20
15.97433
 30
0.0
 11
3.064114
 21
15.97433
 31
0.0
  0
LINE
  5
F8E04
100
AcDbEntity
  8
0
 62
     7
100
AcDbLine
 10
3.064114
 20
15.97433
 30
0.0
 11
1.564114
 21
15.97433
 31
0.0
  0
LINE
  5
F8E05
100
AcDbEntity
  8
0
 62
     7
100
AcDbLine
 10
3.064114
 20
15.97433
 30
0.0
 11
1.564114
 21
15.97433
 31
0.0
  0
LINE
  5
F8E06
100
AcDbEntity
  8
OBJHOUSING
 62
     7
100
AcDbLine
 10
2.201843
 20
16.18896
 30
0.0
 11
2.163392
 21
16.115086
 31
0.0
  0
LINE
  5
F8E07
100
AcDbEntity
  8
OBJHOUSING
 62
     7
100
AcDbLine
 10
2.189006
 20
16.371702
 30
0.0
 11
2.150143
 21
16.318502
 31
0.0
  0
TEXT
  5
F8E08
100
AcDbEntity
  8
0
 62
     7
100
AcDbText
 10
2.200367
 20
15.909575
 30
0.0
 40
0.125
  1
F
 50
180.0
 41
0.77
  7
ROMANS
100
AcDbText
  0
LINE
  5
F8E09
100
AcDbEntity
  8
0
 62
     7
100
AcDbLine
 10
1.564114
 20
15.34933
 30
0.0
 11
3.064114
 21
15.34933
 31
0.0
  0
LINE
  5
F8E0A
100
AcDbEntity
  8
0
 62
     7
100
AcDbLine
 10
3.064114
 20
15.34933
 30
0.0
 11
1.564114
 21
15.34933
 31
0.0
  0
LINE
  5
F8E0B
100
AcDbEntity
  8
0
 62
     7
100
AcDbLine
 10
3.064114
 20
15.34933
 30
0.0
 11
1.564114
 21
15.34933
 31
0.0
  0
LINE
  5
F8E0C
100
AcDbEntity
  8
OBJHOUSING
 62
     7
100
AcDbLine
 10
2.215665
 20
15.1347
 30
0.0
 11
2.174578
 21
15.200859
 31
0.0
  0
LWPOLYLINE
  5
F8E0D
100
AcDbEntity
  8
OBJHOUSING
 62
     7
100
AcDbPolyline
 90
        4
 70
     0
 43
0.0
 10
2.174349
 20
15.208573
 42
0.000177
 10
2.174578
 20
15.200859
 42
0.010601
 10
2.184212
 20
15.013088
 42
0.393146
 10
2.188498
 20
15.009102
 42
0.393146
  0
LINE
  5
F8E13
100
AcDbEntity
  8
OBJHOUSING
 62
     7
100
AcDbLine
 10
2.189513
 20
15.009102
 30
0.0
 11
2.150651
 21
14.955902
 31
0.0
  0
LWPOLYLINE
  5
F8E14
100
AcDbEntity
  8
OBJNUT
 62
     7
100
AcDbPolyline
 90
        9
 70
     0
 43
0.0
 10
1.001022
 20
16.81653
 42
0.319527
 10
0.990402
 20
16.808972
 42
0.047807
 10
0.971711
 20
16.731979
 42
0.020806
 10
0.963115
 20
16.647175
 42
0.014853
 10
0.95957
 20
16.527855
 42
0.014853
 10
0.963115
 20
16.408535
 42
0.020806
 10
0.971711
 20
16.323731
 42
0.047807
 10
0.990402
 20
16.246738
 42
0.319527
 10
1.001022
 20
16.23918
 42
0.319527
  0
LWPOLYLINE
  5
F8E1F
100
AcDbEntity
  8
OBJNUT
 62
     7
100
AcDbPolyline
 90
        9
 70
     0
 43
0.0
 10
1.168118
 20
16.23918
 42
0.319527
 10
1.178737
 20
16.246738
 42
0.047807
 10
1.197429
 20
16.323731
 42
0.020806
 10
1.206024
 20
16.408535
 42
0.014853
 10
1.20957
 20
16.527855
 42
0.014853
 10
1.206024
 20
16.647175
 42
0.020806
 10
1.197429
 20
16.731979
 42
0.047807
 10
1.178737
 20
16.808972
 42
0.319527
 10
1.168118
 20
16.81653
 42
0.319527
  0
LINE
  5
F8E2A
100
AcDbEntity
  8
OBJHOUSING
 62
     7
100
AcDbLine
 10
1.322994
 20
16.36973
 30
0.0
 11
1.361856
 21
16.31653
 31
0.0
  0
LINE
  5
F8E2B
100
AcDbEntity
  8
OBJHOUSING
 62
     7
100
AcDbLine
 10
1.323502
 20
15.00713
 30
0.0
 11
1.362364
 21
14.95393
 31
0.0
  0
LWPOLYLINE
  5
F8E2C
100
AcDbEntity
  8
OBJHOUSING
 62
     7
100
AcDbPolyline
 90
        5
 70
     0
 43
0.0
 10
1.343187
 20
15.66183
 42
0.002805
 10
1.344832
 20
15.36863
 42
0.003966
 10
1.348804
 20
15.161269
 42
0.009557
 10
1.358209
 20
14.957822
 42
0.395212
 10
1.362364
 20
14.95393
 42
0.395212
  0
LWPOLYLINE
  5
F8E33
100
AcDbEntity
  8
OBJHOUSING
 62
     7
100
AcDbPolyline
 90
        4
 70
     0
 43
0.0
 10
1.224061
 20
15.66183
 42
0.003113
 10
1.222373
 20
15.93299
 42
0.004401
 10
1.218296
 20
16.124773
 42
0.00988
 10
1.20957
 20
16.299787
 42
0.393146
  0
LWPOLYLINE
  5
F8E39
100
AcDbEntity
  8
OBJHOUSING
 62
     7
100
AcDbPolyline
 90
        5
 70
     0
 43
0.0
 10
1.263431
 20
15.66183
 42
0.002805
 10
1.261786
 20
15.955029
 42
0.003966
 10
1.257815
 20
16.162391
 42
0.009557
 10
1.248409
 20
16.365837
 42
0.395212
 10
1.244254
 20
16.36973
 42
0.395212
  0
LWPOLYLINE
  5
F8E40
100
AcDbEntity
  8
OBJHOUSING
 62
     7
100
AcDbPolyline
 90
        5
 70
     0
 43
0.0
 10
1.342171
 20
15.66183
 42
0.002805
 10
1.340526
 20
15.955029
 42
0.003966
 10
1.336555
 20
16.162391
 42
0.009557
 10
1.327149
 20
16.365837
 42
0.395212
 10
1.322994
 20
16.36973
 42
0.395212
  0
LWPOLYLINE
  5
F8E47
100
AcDbEntity
  8
OBJHOUSING
 62
     7
100
AcDbPolyline
 90
        5
 70
     0
 43
0.0
 10
1.302801
 20
15.66183
 42
0.003113
 10
1.301113
 20
15.93299
 42
0.004401
 10
1.297036
 20
16.124773
 42
0.010601
 10
1.287402
 20
16.312544
 42
0.393146
 10
1.283116
 20
16.31653
 42
0.393146
  0
LWPOLYLINE
  5
F8E4E
100
AcDbEntity
  8
OBJHOUSING
 62
     7
100
AcDbPolyline
 90
        5
 70
     0
 43
0.0
 10
0.869731
 20
15.66183
 42
0.002805
 10
0.868086
 20
15.955029
 42
0.003966
 10
0.864115
 20
16.162391
 42
0.009557
 10
0.854709
 20
16.365837
 42
0.395212
 10
0.850554
 20
16.36973
 42
0.395212
  0
LWPOLYLINE
  5
F8E55
100
AcDbEntity
  8
OBJHOUSING
 62
     7
100
AcDbPolyline
 90
        5
 70
     0
 43
0.0
 10
0.830361
 20
15.66183
 42
0.003113
 10
0.828673
 20
15.93299
 42
0.004401
 10
0.824596
 20
16.124773
 42
0.010601
 10
0.814962
 20
16.312544
 42
0.393146
 10
0.810676
 20
16.31653
 42
0.393146
  0
LWPOLYLINE
  5
F8E5C
100
AcDbEntity
  8
OBJHOUSING
 62
     7
100
AcDbPolyline
 90
        5
 70
     0
 43
0.0
 10
0.790991
 20
15.66183
 42
0.002805
 10
0.789346
 20
15.955029
 42
0.003966
 10
0.785375
 20
16.162391
 42
0.009557
 10
0.775969
 20
16.365837
 42
0.395212
 10
0.771814
 20
16.36973
 42
0.395212
  0
LWPOLYLINE
  5
F8E63
100
AcDbEntity
  8
OBJHOUSING
 62
     7
100
AcDbPolyline
 90
        5
 70
     0
 43
0.0
 10
0.909101
 20
15.66183
 42
0.003113
 10
0.907413
 20
15.93299
 42
0.004401
 10
0.903336
 20
16.124773
 42
0.010601
 10
0.893702
 20
16.312544
 42
0.393146
 10
0.889416
 20
16.31653
 42
0.393146
  0
LWPOLYLINE
  5
F8E6A
100
AcDbEntity
  8
OBJHOUSING
 62
     7
100
AcDbPolyline
 90
        5
 70
     0
 43
0.0
 10
0.948471
 20
15.66183
 42
0.002805
 10
0.946826
 20
15.955029
 42
0.003966
 10
0.942855
 20
16.162391
 42
0.009557
 10
0.933449
 20
16.365837
 42
0.395212
 10
0.929294
 20
16.36973
 42
0.395212
  0
LWPOLYLINE
  5
F8E71
100
AcDbEntity
  8
OBJNUT
 62
     7
100
AcDbPolyline
 90
        9
 70
     0
 43
0.0
 10
1.168118
 20
15.08448
 42
0.364793
 10
1.177746
 20
15.092582
 42
0.024994
 10
1.197429
 20
15.253581
 42
0.010486
 10
1.206016
 20
15.422811
 42
0.007433
 10
1.20957
 20
15.66183
 42
0.007433
 10
1.206016
 20
15.900849
 42
0.010486
 10
1.197429
 20
16.070078
 42
0.024994
 10
1.177746
 20
16.231077
 42
0.364793
 10
1.168118
 20
16.23918
 42
0.364793
  0
LWPOLYLINE
  5
F8E7C
100
AcDbEntity
  8
OBJNUT
 62
     7
100
AcDbPolyline
 90
        9
 70
     0
 43
0.0
 10
1.001022
 20
16.23918
 42
0.364793
 10
0.991394
 20
16.231077
 42
0.024994
 10
0.971711
 20
16.070078
 42
0.010486
 10
0.963123
 20
15.900849
 42
0.007433
 10
0.95957
 20
15.66183
 42
0.007433
 10
0.963123
 20
15.422811
 42
0.010486
 10
0.971711
 20
15.253581
 42
0.024994
 10
0.991394
 20
15.092582
 42
0.364793
 10
1.001022
 20
15.08448
 42
0.364793
  0
LINE
  5
F8E87
100
AcDbEntity
  8
OBJHOUSING
 62
     7
100
AcDbLine
 10
0.751621
 20
16.342087
 30
0.0
 11
0.751621
 21
14.978792
 31
0.0
  0
LINE
  5
F8E88
100
AcDbEntity
  8
OBJBEAM
 62
     7
100
AcDbLine
 10
0.579621
 20
15.91183
 30
0.0
 11
0.579621
 21
15.41183
 31
0.0
  0
LINE
  5
F8E89
100
AcDbEntity
  8
OBJHOUSING
 62
     7
100
AcDbLine
 10
0.626621
 20
16.26283
 30
0.0
 11
0.626621
 21
15.06083
 31
0.0
  0
LINE
  5
F8E8A
100
AcDbEntity
  8
OBJHOUSING
 62
     7
100
AcDbLine
 10
0.751621
 20
16.342087
 30
0.0
 11
0.751621
 21
14.995269
 31
0.0
  0
LINE
  5
F8E8B
100
AcDbEntity
  8
OBJHOUSING
 62
     7
100
AcDbLine
 10
0.929802
 20
15.00713
 30
0.0
 11
0.95957
 21
14.966379
 31
0.0
  0
LWPOLYLINE
  5
F8E8C
100
AcDbEntity
  8
OBJHOUSING
 62
     7
100
AcDbPolyline
 90
        2
 70
     0
 43
0.0
 10
0.752637
 20
15.66183
 42
0.003586
 10
0.751621
 20
15.803434
 42
0.009228
  0
LINE
  5
F8E90
100
AcDbEntity
  8
OBJHOUSING
 62
     7
100
AcDbLine
 10
0.851062
 20
15.00713
 30
0.0
 11
0.889924
 21
14.95393
 31
0.0
  0
LINE
  5
F8E91
100
AcDbEntity
  8
OBJBEAM
 62
     7
100
AcDbLine
 10
0.624621
 20
15.35633
 30
0.0
 11
0.624621
 21
15.36283
 31
0.0
  0
LINE
  5
F8E92
100
AcDbEntity
  8
OBJBEAM
 62
     7
100
AcDbLine
 10
0.624621
 20
15.35633
 30
0.0
 11
0.549621
 21
15.387396
 31
0.0
  0
LINE
  5
F8E93
100
AcDbEntity
  8
OBJBEAM
  6
CONTINUOUS
 62
     7
100
AcDbLine
 10
0.549621
 20
15.387396
 30
0.0
 11
0.549621
 21
15.466474
 31
0.0
  0
LINE
  5
F8E94
100
AcDbEntity
  8
OBJBEAM
 62
     7
100
AcDbLine
 10
0.549621
 20
15.436047
 30
0.0
 11
0.579621
 21
15.41183
 31
0.0
  0
LINE
  5
F8E95
100
AcDbEntity
  8
OBJHOUSING
 62
     7
100
AcDbLine
 10
0.772322
 20
15.00713
 30
0.0
 11
0.751621
 21
14.978792
 31
0.0
  0
LINE
  5
F8E96
100
AcDbEntity
  8
OBJHOUSING
 62
     7
100
AcDbLine
 10
0.851062
 20
15.00713
 30
0.0
 11
0.8122
 21
14.95393
 31
0.0
  0
LINE
  5
F8E97
100
AcDbEntity
  8
OBJHOUSING
 62
     7
100
AcDbLine
 10
0.772322
 20
15.00713
 30
0.0
 11
0.811184
 21
14.95393
 31
0.0
  0
LINE
  5
F8E98
100
AcDbEntity
  8
OBJHOUSING
 62
     7
100
AcDbLine
 10
0.626621
 20
15.06083
 30
0.0
 11
0.751621
 21
15.06083
 31
0.0
  0
LINE
  5
F8E99
100
AcDbEntity
  8
OBJHOUSING
 62
     7
100
AcDbLine
 10
0.929802
 20
15.00713
 30
0.0
 11
0.89094
 21
14.95393
 31
0.0
  0
LWPOLYLINE
  5
F8E9A
100
AcDbEntity
  8
OBJHOUSING
 62
     7
100
AcDbPolyline
 90
        5
 70
     0
 43
0.0
 10
0.751621
 20
15.66183
 42
0.003113
 10
0.75331
 20
15.39067
 42
0.004401
 10
0.757387
 20
15.198887
 42
0.010601
 10
0.767021
 20
15.011116
 42
0.393146
 10
0.771306
 20
15.00713
 42
0.393146
  0
LWPOLYLINE
  5
F8EA1
100
AcDbEntity
  8
OBJHOUSING
 62
     7
100
AcDbPolyline
 90
        5
 70
     0
 43
0.0
 10
0.909101
 20
15.66183
 42
0.003113
 10
0.91079
 20
15.39067
 42
0.004401
 10
0.914867
 20
15.198887
 42
0.010601
 10
0.924501
 20
15.011116
 42
0.393146
 10
0.928786
 20
15.00713
 42
0.393146
  0
LWPOLYLINE
  5
F8EA8
100
AcDbEntity
  8
OBJHOUSING
 62
     7
100
AcDbPolyline
 90
        5
 70
     0
 43
0.0
 10
0.830361
 20
15.66183
 42
0.003113
 10
0.83205
 20
15.39067
 42
0.004401
 10
0.836127
 20
15.198887
 42
0.010601
 10
0.845761
 20
15.011116
 42
0.393146
 10
0.850046
 20
15.00713
 42
0.393146
  0
LWPOLYLINE
  5
F8EAF
100
AcDbEntity
  8
OBJHOUSING
 62
     7
100
AcDbPolyline
 90
        5
 70
     0
 43
0.0
 10
0.870747
 20
15.66183
 42
0.002805
 10
0.872392
 20
15.36863
 42
0.003966
 10
0.876364
 20
15.161269
 42
0.009557
 10
0.885769
 20
14.957822
 42
0.395212
 10
0.889924
 20
14.95393
 42
0.395212
  0
LWPOLYLINE
  5
F8EB6
100
AcDbEntity
  8
OBJHOUSING
 62
     7
100
AcDbPolyline
 90
        5
 70
     0
 43
0.0
 10
0.792007
 20
15.66183
 42
0.002805
 10
0.793652
 20
15.36863
 42
0.003966
 10
0.797624
 20
15.161269
 42
0.009557
 10
0.807029
 20
14.957822
 42
0.395212
 10
0.811184
 20
14.95393
 42
0.395212
  0
LINE
  5
F8EBD
100
AcDbEntity
  8
OBJHOUSING
 62
     7
100
AcDbLine
 10
1.244762
 20
15.00713
 30
0.0
 11
1.283624
 21
14.95393
 31
0.0
  0
LINE
  5
F8EBE
100
AcDbEntity
  8
OBJNUT
 62
     7
100
AcDbLine
 10
1.001022
 20
15.08448
 30
0.0
 11
1.168118
 21
15.08448
 31
0.0
  0
LINE
  5
F8EBF
100
AcDbEntity
  8
OBJHOUSING
 62
     7
100
AcDbLine
 10
1.244762
 20
15.00713
 30
0.0
 11
1.20957
 21
14.958954
 31
0.0
  0
LINE
  5
F8EC0
100
AcDbEntity
  8
OBJHOUSING
 62
     7
100
AcDbLine
 10
1.323502
 20
15.00713
 30
0.0
 11
1.28464
 21
14.95393
 31
0.0
  0
LWPOLYLINE
  5
F8EC1
100
AcDbEntity
  8
OBJHOUSING
 62
     7
100
AcDbPolyline
 90
        5
 70
     0
 43
0.0
 10
1.264447
 20
15.66183
 42
0.002805
 10
1.266092
 20
15.36863
 42
0.003966
 10
1.270064
 20
15.161269
 42
0.009557
 10
1.279469
 20
14.957822
 42
0.395212
 10
1.283624
 20
14.95393
 42
0.395212
  0
LWPOLYLINE
  5
F8EC8
100
AcDbEntity
  8
OBJHOUSING
 62
     7
100
AcDbPolyline
 90
        4
 70
     0
 43
0.0
 10
0.949487
 20
15.66183
 42
0.002805
 10
0.951132
 20
15.36863
 42
0.003966
 10
0.955104
 20
15.161269
 42
0.005503
 10
0.95957
 20
15.044076
 42
0.395212
  0
LWPOLYLINE
  5
F8ECE
100
AcDbEntity
  8
OBJHOUSING
 62
     7
100
AcDbPolyline
 90
        5
 70
     0
 43
0.0
 10
1.224061
 20
15.66183
 42
0.003113
 10
1.22575
 20
15.39067
 42
0.004401
 10
1.229827
 20
15.198887
 42
0.010601
 10
1.239461
 20
15.011116
 42
0.393146
 10
1.243746
 20
15.00713
 42
0.393146
  0
LWPOLYLINE
  5
F8ED5
100
AcDbEntity
  8
OBJHOUSING
 62
     7
100
AcDbPolyline
 90
        5
 70
     0
 43
0.0
 10
1.302801
 20
15.66183
 42
0.003113
 10
1.30449
 20
15.39067
 42
0.004401
 10
1.308567
 20
15.198887
 42
0.010601
 10
1.318201
 20
15.011116
 42
0.393146
 10
1.322486
 20
15.00713
 42
0.393146
  0
LINE
  5
F8EDC
100
AcDbEntity
  8
OBJHOUSING
 62
     7
100
AcDbLine
 10
0.929294
 20
16.36973
 30
0.0
 11
0.95957
 21
16.328284
 31
0.0
  0
LINE
  5
F8EDD
100
AcDbEntity
  8
OBJHOUSING
 62
     7
100
AcDbLine
 10
0.850554
 20
16.36973
 30
0.0
 11
0.889416
 21
16.31653
 31
0.0
  0
LINE
  5
F8EDE
100
AcDbEntity
  8
OBJBEAM
 62
     7
100
AcDbLine
 10
0.549621
 20
15.887613
 30
0.0
 11
0.579621
 21
15.91183
 31
0.0
  0
LINE
  5
F8EDF
100
AcDbEntity
  8
OBJBEAM
  6
CONTINUOUS
 62
     7
100
AcDbLine
 10
0.549621
 20
15.936264
 30
0.0
 11
0.549621
 21
15.857186
 31
0.0
  0
LINE
  5
F8EE0
100
AcDbEntity
  8
OBJBEAM
 62
     7
100
AcDbLine
 10
0.624621
 20
15.96733
 30
0.0
 11
0.549621
 21
15.936264
 31
0.0
  0
LINE
  5
F8EE1
100
AcDbEntity
  8
OBJBEAM
 62
     7
100
AcDbLine
 10
0.624621
 20
15.96733
 30
0.0
 11
0.624621
 21
15.96083
 31
0.0
  0
LINE
  5
F8EE2
100
AcDbEntity
  8
OBJHOUSING
 62
     7
100
AcDbLine
 10
0.771814
 20
16.36973
 30
0.0
 11
0.751621
 21
16.342087
 31
0.0
  0
LINE
  5
F8EE3
100
AcDbEntity
  8
OBJHOUSING
 62
     7
100
AcDbLine
 10
0.850554
 20
16.36973
 30
0.0
 11
0.811692
 21
16.31653
 31
0.0
  0
LINE
  5
F8EE4
100
AcDbEntity
  8
OBJHOUSING
 62
     7
100
AcDbLine
 10
0.771814
 20
16.36973
 30
0.0
 11
0.810676
 21
16.31653
 31
0.0
  0
LINE
  5
F8EE5
100
AcDbEntity
  8
OBJHOUSING
 62
     7
100
AcDbLine
 10
0.626621
 20
16.26283
 30
0.0
 11
0.751621
 21
16.26283
 31
0.0
  0
LINE
  5
F8EE6
100
AcDbEntity
  8
OBJHOUSING
 62
     7
100
AcDbLine
 10
0.929294
 20
16.36973
 30
0.0
 11
0.890432
 21
16.31653
 31
0.0
  0
LINE
  5
F8EE8
100
AcDbEntity
  8
OBJHOUSING
 62
     7
100
AcDbLine
 10
1.244254
 20
16.36973
 30
0.0
 11
1.283116
 21
16.31653
 31
0.0
  0
LINE
  5
F8EE9
100
AcDbEntity
  8
OBJNUT
 62
     7
100
AcDbLine
 10
1.001022
 20
16.23918
 30
0.0
 11
1.168118
 21
16.23918
 31
0.0
  0
LINE
  5
F8EEA
100
AcDbEntity
  8
OBJHOUSING
 62
     7
100
AcDbLine
 10
1.244254
 20
16.36973
 30
0.0
 11
1.20957
 21
16.322249
 31
0.0
  0
LINE
  5
F8EEB
100
AcDbEntity
  8
OBJHOUSING
 62
     7
100
AcDbLine
 10
1.322994
 20
16.36973
 30
0.0
 11
1.284132
 21
16.31653
 31
0.0
  0
LWPOLYLINE
  5
F8EEC
100
AcDbEntity
  8
OBJHOUSING
 62
     7
100
AcDbPolyline
 90
        5
 70
     0
 43
0.0
 10
1.420911
 20
15.66183
 42
0.002805
 10
1.419266
 20
15.955029
 42
0.003966
 10
1.415295
 20
16.162391
 42
0.009557
 10
1.405889
 20
16.365837
 42
0.395212
 10
1.401734
 20
16.36973
 42
0.395212
  0
LWPOLYLINE
  5
F8EF3
100
AcDbEntity
  8
OBJHOUSING
 62
     7
100
AcDbPolyline
 90
        5
 70
     0
 43
0.0
 10
1.381541
 20
15.66183
 42
0.003113
 10
1.379853
 20
15.93299
 42
0.004401
 10
1.375776
 20
16.124773
 42
0.010601
 10
1.366142
 20
16.312544
 42
0.393146
 10
1.361856
 20
16.31653
 42
0.393146
  0
LINE
  5
F8EFA
100
AcDbEntity
  8
OBJHOUSING
 62
     7
100
AcDbLine
 10
1.439114
 20
16.143849
 30
0.0
 11
1.439114
 21
15.155984
 31
0.0
  0
LINE
  5
F8EFB
100
AcDbEntity
  8
0
 62
     7
100
AcDbLine
 10
1.564114
 20
15.34933
 30
0.0
 11
1.564114
 21
15.97433
 31
0.0
  0
LINE
  5
F8EFC
100
AcDbEntity
  8
0
 62
     7
100
AcDbLine
 10
1.564114
 20
15.97433
 30
0.0
 11
1.564114
 21
15.34933
 31
0.0
  0
LINE
  5
F8EFD
100
AcDbEntity
  8
0
 62
     7
100
AcDbLine
 10
1.564114
 20
15.97433
 30
0.0
 11
1.564114
 21
15.34933
 31
0.0
  0
CIRCLE
  5
F8EFE
100
AcDbEntity
  8
0
 62
     7
100
AcDbCircle
 10
1.714114
 20
15.66183
 30
0.0
 40
0.0625
  0
LINE
  5
F8EFF
100
AcDbEntity
  8
OBJHOUSING
 62
     7
100
AcDbLine
 10
1.78072
 20
15.208573
 30
0.0
 11
1.74329
 21
15.1347
 31
0.0
  0
LINE
  5
F8F00
100
AcDbEntity
  8
OBJHOUSING
 62
     7
100
AcDbLine
 10
1.795942
 20
15.00713
 30
0.0
 11
1.75708
 21
14.95393
 31
0.0
  0
LINE
  5
F8F01
100
AcDbEntity
  8
OBJHOUSING
 62
     7
100
AcDbLine
 10
1.70198
 20
15.208573
 30
0.0
 11
1.66455
 21
15.1347
 31
0.0
  0
LINE
  5
F8F02
100
AcDbEntity
  8
OBJHOUSING
 62
     7
100
AcDbLine
 10
1.717202
 20
15.00713
 30
0.0
 11
1.67834
 21
14.95393
 31
0.0
  0
LWPOLYLINE
  5
F8F03
100
AcDbEntity
  8
OBJHOUSING
 62
     7
100
AcDbPolyline
 90
        3
 70
     0
 43
0.0
 10
1.50707
 20
15.1347
 42
0.008309
 10
1.515689
 20
14.957822
 42
0.395212
 10
1.519844
 20
14.95393
 42
0.395212
  0
LWPOLYLINE
  5
F8F08
100
AcDbEntity
  8
OBJHOUSING
 62
     7
100
AcDbPolyline
 90
        4
 70
     0
 43
0.0
 10
1.5445
 20
15.208573
 42
0.000222
 10
1.544787
 20
15.198887
 42
0.010601
 10
1.554421
 20
15.011116
 42
0.393146
 10
1.558706
 20
15.00713
 42
0.393146
  0
LWPOLYLINE
  5
F8F0E
100
AcDbEntity
  8
OBJHOUSING
 62
     7
100
AcDbPolyline
 90
        4
 70
     0
 43
0.0
 10
1.46576
 20
15.208573
 42
0.000222
 10
1.466047
 20
15.198887
 42
0.010601
 10
1.475681
 20
15.011116
 42
0.393146
 10
1.479966
 20
15.00713
 42
0.393146
  0
LINE
  5
F8F14
100
AcDbEntity
  8
OBJHOUSING
 62
     7
100
AcDbLine
 10
1.58581
 20
15.1347
 30
0.0
 11
1.5445
 21
15.208573
 31
0.0
  0
LINE
  5
F8F15
100
AcDbEntity
  8
OBJHOUSING
 62
     7
100
AcDbLine
 10
1.5445
 20
15.208573
 30
0.0
 11
1.50707
 21
15.1347
 31
0.0
  0
LINE
  5
F8F16
100
AcDbEntity
  8
OBJHOUSING
 62
     7
100
AcDbLine
 10
1.50707
 20
15.1347
 30
0.0
 11
1.46576
 21
15.208573
 31
0.0
  0
LINE
  5
F8F17
100
AcDbEntity
  8
OBJHOUSING
 62
     7
100
AcDbLine
 10
1.46576
 20
15.208573
 30
0.0
 11
1.439114
 21
15.155984
 31
0.0
  0
LINE
  5
F8F18
100
AcDbEntity
  8
OBJHOUSING
 62
     7
100
AcDbLine
 10
1.62324
 20
15.208573
 30
0.0
 11
1.58581
 21
15.1347
 31
0.0
  0
LINE
  5
F8F19
100
AcDbEntity
  8
OBJHOUSING
 62
     7
100
AcDbLine
 10
1.66455
 20
15.1347
 30
0.0
 11
1.62324
 21
15.208573
 31
0.0
  0
LWPOLYLINE
  5
F8F1A
100
AcDbEntity
  8
OBJHOUSING
 62
     7
100
AcDbPolyline
 90
        3
 70
     0
 43
0.0
 10
1.66455
 20
15.1347
 42
0.008309
 10
1.673169
 20
14.957822
 42
0.395212
 10
1.677324
 20
14.95393
 42
0.395212
  0
LWPOLYLINE
  5
F8F1F
100
AcDbEntity
  8
OBJHOUSING
 62
     7
100
AcDbPolyline
 90
        3
 70
     0
 43
0.0
 10
1.58581
 20
15.1347
 42
0.008309
 10
1.594429
 20
14.957822
 42
0.395212
 10
1.598584
 20
14.95393
 42
0.395212
  0
LWPOLYLINE
  5
F8F24
100
AcDbEntity
  8
OBJHOUSING
 62
     7
100
AcDbPolyline
 90
        4
 70
     0
 43
0.0
 10
1.62324
 20
15.208573
 42
0.000222
 10
1.623527
 20
15.198887
 42
0.010601
 10
1.633161
 20
15.011116
 42
0.393146
 10
1.637446
 20
15.00713
 42
0.393146
  0
LINE
  5
F8F2A
100
AcDbEntity
  8
OBJHOUSING
 62
     7
100
AcDbLine
 10
1.480982
 20
15.00713
 30
0.0
 11
1.44212
 21
14.95393
 31
0.0
  0
LINE
  5
F8F2B
100
AcDbEntity
  8
OBJHOUSING
 62
     7
100
AcDbLine
 10
1.480982
 20
15.00713
 30
0.0
 11
1.519844
 21
14.95393
 31
0.0
  0
LINE
  5
F8F2C
100
AcDbEntity
  8
OBJHOUSING
 62
     7
100
AcDbLine
 10
1.559722
 20
15.00713
 30
0.0
 11
1.598584
 21
14.95393
 31
0.0
  0
LINE
  5
F8F2D
100
AcDbEntity
  8
OBJHOUSING
 62
     7
100
AcDbLine
 10
1.559722
 20
15.00713
 30
0.0
 11
1.52086
 21
14.95393
 31
0.0
  0
LINE
  5
F8F2E
100
AcDbEntity
  8
OBJHOUSING
 62
     7
100
AcDbLine
 10
1.638462
 20
15.00713
 30
0.0
 11
1.677324
 21
14.95393
 31
0.0
  0
LINE
  5
F8F2F
100
AcDbEntity
  8
OBJHOUSING
 62
     7
100
AcDbLine
 10
1.638462
 20
15.00713
 30
0.0
 11
1.5996
 21
14.95393
 31
0.0
  0
LINE
  5
F8F30
100
AcDbEntity
  8
OBJHOUSING
 62
     7
100
AcDbLine
 10
1.402242
 20
15.00713
 30
0.0
 11
1.439114
 21
14.956654
 31
0.0
  0
LINE
  5
F8F31
100
AcDbEntity
  8
OBJHOUSING
 62
     7
100
AcDbLine
 10
1.402242
 20
15.00713
 30
0.0
 11
1.36338
 21
14.95393
 31
0.0
  0
LINE
  5
F8F32
100
AcDbEntity
  8
OBJHOUSING
 62
     7
100
AcDbLine
 10
1.74329
 20
15.1347
 30
0.0
 11
1.70198
 21
15.208573
 31
0.0
  0
LWPOLYLINE
  5
F8F33
100
AcDbEntity
  8
OBJHOUSING
 62
     7
100
AcDbPolyline
 90
        3
 70
     0
 43
0.0
 10
1.74329
 20
15.1347
 42
0.008309
 10
1.751909
 20
14.957822
 42
0.395212
 10
1.756064
 20
14.95393
 42
0.395212
  0
LWPOLYLINE
  5
F8F38
100
AcDbEntity
  8
OBJHOUSING
 62
     7
100
AcDbPolyline
 90
        4
 70
     0
 43
0.0
 10
1.70198
 20
15.208573
 42
0.000222
 10
1.702267
 20
15.198887
 42
0.010601
 10
1.711901
 20
15.011116
 42
0.393146
 10
1.716186
 20
15.00713
 42
0.393146
  0
LINE
  5
F8F3E
100
AcDbEntity
  8
OBJHOUSING
 62
     7
100
AcDbLine
 10
1.717202
 20
15.00713
 30
0.0
 11
1.756064
 21
14.95393
 31
0.0
  0
LWPOLYLINE
  5
F8F3F
100
AcDbEntity
  8
OBJHOUSING
 62
     7
100
AcDbPolyline
 90
        5
 70
     0
 43
0.0
 10
1.381541
 20
15.66183
 42
0.003113
 10
1.38323
 20
15.39067
 42
0.004401
 10
1.387307
 20
15.198887
 42
0.010601
 10
1.396941
 20
15.011116
 42
0.393146
 10
1.401226
 20
15.00713
 42
0.393146
  0
LWPOLYLINE
  5
F8F46
100
AcDbEntity
  8
OBJHOUSING
 62
     7
100
AcDbPolyline
 90
        5
 70
     0
 43
0.0
 10
1.421927
 20
15.66183
 42
0.002805
 10
1.423572
 20
15.36863
 42
0.003966
 10
1.427544
 20
15.161269
 42
0.009557
 10
1.436949
 20
14.957822
 42
0.395212
 10
1.441104
 20
14.95393
 42
0.395212
  0
LINE
  5
F8F4D
100
AcDbEntity
  8
OBJHOUSING
 62
     7
100
AcDbLine
 10
2.095838
 20
15.200859
 30
0.0
 11
2.05825
 21
15.1347
 31
0.0
  0
LINE
  5
F8F4E
100
AcDbEntity
  8
OBJHOUSING
 62
     7
100
AcDbLine
 10
2.110773
 20
15.009102
 30
0.0
 11
2.071911
 21
14.955902
 31
0.0
  0
LINE
  5
F8F4F
100
AcDbEntity
  8
OBJHOUSING
 62
     7
100
AcDbLine
 10
1.82203
 20
15.1347
 30
0.0
 11
1.78072
 21
15.208573
 31
0.0
  0
LINE
  5
F8F50
100
AcDbEntity
  8
OBJHOUSING
 62
     7
100
AcDbLine
 10
1.85946
 20
15.208573
 30
0.0
 11
1.82203
 21
15.1347
 31
0.0
  0
LINE
  5
F8F51
100
AcDbEntity
  8
OBJHOUSING
 62
     7
100
AcDbLine
 10
1.90077
 20
15.1347
 30
0.0
 11
1.85946
 21
15.208573
 31
0.0
  0
LINE
  5
F8F52
100
AcDbEntity
  8
OBJHOUSING
 62
     7
100
AcDbLine
 10
1.9382
 20
15.208573
 30
0.0
 11
1.90077
 21
15.1347
 31
0.0
  0
LINE
  5
F8F53
100
AcDbEntity
  8
OBJHOUSING
 62
     7
100
AcDbLine
 10
1.97951
 20
15.1347
 30
0.0
 11
1.9382
 21
15.208573
 31
0.0
  0
LINE
  5
F8F54
100
AcDbEntity
  8
OBJHOUSING
 62
     7
100
AcDbLine
 10
2.017227
 20
15.198887
 30
0.0
 11
1.97951
 21
15.1347
 31
0.0
  0
LINE
  5
F8F55
100
AcDbEntity
  8
OBJHOUSING
 62
     7
100
AcDbLine
 10
2.05825
 20
15.1347
 30
0.0
 11
2.017227
 21
15.198887
 31
0.0
  0
LWPOLYLINE
  5
F8F56
100
AcDbEntity
  8
OBJHOUSING
 62
     7
100
AcDbPolyline
 90
        3
 70
     0
 43
0.0
 10
2.05825
 20
15.1347
 42
0.008309
 10
2.066869
 20
14.957822
 42
0.395212
 10
2.071024
 20
14.95393
 42
0.395212
  0
LWPOLYLINE
  5
F8F5B
100
AcDbEntity
  8
OBJHOUSING
 62
     7
100
AcDbPolyline
 90
        3
 70
     0
 43
0.0
 10
1.97951
 20
15.1347
 42
0.008309
 10
1.988129
 20
14.957822
 42
0.395212
 10
1.992284
 20
14.95393
 42
0.395212
  0
LWPOLYLINE
  5
F8F60
100
AcDbEntity
  8
OBJHOUSING
 62
     7
100
AcDbPolyline
 90
        3
 70
     0
 43
0.0
 10
1.90077
 20
15.1347
 42
0.008309
 10
1.909389
 20
14.957822
 42
0.395212
 10
1.913544
 20
14.95393
 42
0.395212
  0
LWPOLYLINE
  5
F8F65
100
AcDbEntity
  8
OBJHOUSING
 62
     7
100
AcDbPolyline
 90
        3
 70
     0
 43
0.0
 10
1.82203
 20
15.1347
 42
0.008309
 10
1.830649
 20
14.957822
 42
0.395212
 10
1.834804
 20
14.95393
 42
0.395212
  0
LWPOLYLINE
  5
F8F6A
100
AcDbEntity
  8
OBJHOUSING
 62
     7
100
AcDbPolyline
 90
        4
 70
     0
 43
0.0
 10
2.01694
 20
15.208573
 42
0.000222
 10
2.017227
 20
15.198887
 42
0.010601
 10
2.026861
 20
15.011116
 42
0.393146
 10
2.031146
 20
15.00713
 42
0.393146
  0
LWPOLYLINE
  5
F8F70
100
AcDbEntity
  8
OBJHOUSING
 62
     7
100
AcDbPolyline
 90
        4
 70
     0
 43
0.0
 10
1.9382
 20
15.208573
 42
0.000222
 10
1.938487
 20
15.198887
 42
0.010601
 10
1.948121
 20
15.011116
 42
0.393146
 10
1.952406
 20
15.00713
 42
0.393146
  0
LWPOLYLINE
  5
F8F76
100
AcDbEntity
  8
OBJHOUSING
 62
     7
100
AcDbPolyline
 90
        4
 70
     0
 43
0.0
 10
1.85946
 20
15.208573
 42
0.000222
 10
1.859747
 20
15.198887
 42
0.010601
 10
1.869381
 20
15.011116
 42
0.393146
 10
1.873666
 20
15.00713
 42
0.393146
  0
LWPOLYLINE
  5
F8F7C
100
AcDbEntity
  8
OBJHOUSING
 62
     7
100
AcDbPolyline
 90
        4
 70
     0
 43
0.0
 10
1.78072
 20
15.208573
 42
0.000222
 10
1.781007
 20
15.198887
 42
0.010601
 10
1.790641
 20
15.011116
 42
0.393146
 10
1.794926
 20
15.00713
 42
0.393146
  0
LINE
  5
F8F82
100
AcDbEntity
  8
OBJHOUSING
 62
     7
100
AcDbLine
 10
1.795942
 20
15.00713
 30
0.0
 11
1.834804
 21
14.95393
 31
0.0
  0
LINE
  5
F8F83
100
AcDbEntity
  8
OBJHOUSING
 62
     7
100
AcDbLine
 10
1.874682
 20
15.00713
 30
0.0
 11
1.913544
 21
14.95393
 31
0.0
  0
LINE
  5
F8F84
100
AcDbEntity
  8
OBJHOUSING
 62
     7
100
AcDbLine
 10
1.874682
 20
15.00713
 30
0.0
 11
1.83582
 21
14.95393
 31
0.0
  0
LINE
  5
F8F85
100
AcDbEntity
  8
OBJHOUSING
 62
     7
100
AcDbLine
 10
1.953422
 20
15.00713
 30
0.0
 11
1.992284
 21
14.95393
 31
0.0
  0
LINE
  5
F8F86
100
AcDbEntity
  8
OBJHOUSING
 62
     7
100
AcDbLine
 10
1.953422
 20
15.00713
 30
0.0
 11
1.91456
 21
14.95393
 31
0.0
  0
LINE
  5
F8F87
100
AcDbEntity
  8
OBJHOUSING
 62
     7
100
AcDbLine
 10
2.032162
 20
15.00713
 30
0.0
 11
1.9933
 21
14.95393
 31
0.0
  0
LINE
  5
F8F88
100
AcDbEntity
  8
OBJHOUSING
 62
     7
100
AcDbLine
 10
2.032162
 20
15.00713
 30
0.0
 11
2.069034
 21
14.956654
 31
0.0
  0
LINE
  5
F8F89
100
AcDbEntity
  8
OBJHOUSING
 62
     7
100
AcDbLine
 10
2.136925
 20
15.1347
 30
0.0
 11
2.095838
 21
15.200859
 31
0.0
  0
LINE
  5
F8F8A
100
AcDbEntity
  8
OBJHOUSING
 62
     7
100
AcDbLine
 10
2.174578
 20
15.200859
 30
0.0
 11
2.136925
 21
15.1347
 31
0.0
  0
LWPOLYLINE
  5
F8F8B
100
AcDbEntity
  8
OBJHOUSING
 62
     7
100
AcDbPolyline
 90
        3
 70
     0
 43
0.0
 10
2.136925
 20
15.1347
 42
0.008217
 10
2.14548
 20
14.959794
 42
0.395212
 10
2.149636
 20
14.955902
 42
0.395212
  0
LWPOLYLINE
  5
F8F90
100
AcDbEntity
  8
OBJHOUSING
 62
     7
100
AcDbPolyline
 90
        4
 70
     0
 43
0.0
 10
2.095609
 20
15.208573
 42
0.000177
 10
2.095838
 20
15.200859
 42
0.010601
 10
2.105472
 20
15.013088
 42
0.393146
 10
2.109758
 20
15.009102
 42
0.393146
  0
LINE
  5
F8F96
100
AcDbEntity
  8
OBJHOUSING
 62
     7
100
AcDbLine
 10
2.110773
 20
15.009102
 30
0.0
 11
2.149636
 21
14.955902
 31
0.0
  0
LINE
  5
F8F97
100
AcDbEntity
  8
OBJHOUSING
 62
     7
100
AcDbLine
 10
1.808208
 20
16.18896
 30
0.0
 11
1.769763
 21
16.115086
 31
0.0
  0
LWPOLYLINE
  5
F8F98
100
AcDbEntity
  8
OBJHOUSING
 62
     7
100
AcDbPolyline
 90
        4
 70
     0
 43
0.0
 10
1.769763
 20
16.115086
 42
0.000222
 10
1.769476
 20
16.124773
 42
0.010601
 10
1.759842
 20
16.312544
 42
0.393146
 10
1.755556
 20
16.31653
 42
0.393146
  0
LINE
  5
F8F9E
100
AcDbEntity
  8
OBJHOUSING
 62
     7
100
AcDbLine
 10
1.795434
 20
16.36973
 30
0.0
 11
1.756572
 21
16.31653
 31
0.0
  0
LINE
  5
F8F9F
100
AcDbEntity
  8
OBJHOUSING
 62
     7
100
AcDbLine
 10
1.690736
 20
16.124773
 30
0.0
 11
1.650728
 21
16.18896
 31
0.0
  0
LWPOLYLINE
  5
F8FA0
100
AcDbEntity
  8
OBJHOUSING
 62
     7
100
AcDbPolyline
 90
        4
 70
     0
 43
0.0
 10
1.691023
 20
16.115086
 42
0.000222
 10
1.690736
 20
16.124773
 42
0.010601
 10
1.681102
 20
16.312544
 42
0.393146
 10
1.676816
 20
16.31653
 42
0.393146
  0
LINE
  5
F8FA6
100
AcDbEntity
  8
OBJHOUSING
 62
     7
100
AcDbLine
 10
1.716694
 20
16.36973
 30
0.0
 11
1.677832
 21
16.31653
 31
0.0
  0
LWPOLYLINE
  5
F8FA7
100
AcDbEntity
  8
OBJHOUSING
 62
     7
100
AcDbPolyline
 90
        3
 70
     0
 43
0.0
 10
1.533256
 20
16.124773
 42
0.010601
 10
1.523622
 20
16.312544
 42
0.393146
 10
1.519336
 20
16.31653
 42
0.393146
  0
LWPOLYLINE
  5
F8FAC
100
AcDbEntity
  8
OBJHOUSING
 62
     7
100
AcDbPolyline
 90
        3
 70
     0
 43
0.0
 10
1.493248
 20
16.18896
 42
0.008309
 10
1.484629
 20
16.365837
 42
0.395212
 10
1.480474
 20
16.36973
 42
0.395212
  0
LWPOLYLINE
  5
F8FB1
100
AcDbEntity
  8
OBJHOUSING
 62
     7
100
AcDbPolyline
 90
        4
 70
     0
 43
0.0
 10
1.454803
 20
16.115086
 42
0.000222
 10
1.454516
 20
16.124773
 42
0.010601
 10
1.444882
 20
16.312544
 42
0.393146
 10
1.440596
 20
16.31653
 42
0.393146
  0
LINE
  5
F8FB7
100
AcDbEntity
  8
OBJHOUSING
 62
     7
100
AcDbLine
 10
1.571988
 20
16.18896
 30
0.0
 11
1.533256
 21
16.124773
 31
0.0
  0
LINE
  5
F8FB8
100
AcDbEntity
  8
OBJHOUSING
 62
     7
100
AcDbLine
 10
1.533256
 20
16.124773
 30
0.0
 11
1.493248
 21
16.18896
 31
0.0
  0
LINE
  5
F8FB9
100
AcDbEntity
  8
OBJHOUSING
 62
     7
100
AcDbLine
 10
1.493248
 20
16.18896
 30
0.0
 11
1.454803
 21
16.115086
 31
0.0
  0
LINE
  5
F8FBA
100
AcDbEntity
  8
OBJHOUSING
 62
     7
100
AcDbLine
 10
1.454803
 20
16.115086
 30
0.0
 11
1.439114
 21
16.143849
 31
0.0
  0
LINE
  5
F8FBB
100
AcDbEntity
  8
OBJHOUSING
 62
     7
100
AcDbLine
 10
1.612283
 20
16.115086
 30
0.0
 11
1.571988
 21
16.18896
 31
0.0
  0
LINE
  5
F8FBC
100
AcDbEntity
  8
OBJHOUSING
 62
     7
100
AcDbLine
 10
1.650728
 20
16.18896
 30
0.0
 11
1.612283
 21
16.115086
 31
0.0
  0
LWPOLYLINE
  5
F8FBD
100
AcDbEntity
  8
OBJHOUSING
 62
     7
100
AcDbPolyline
 90
        3
 70
     0
 43
0.0
 10
1.650728
 20
16.18896
 42
0.008309
 10
1.642109
 20
16.365837
 42
0.395212
 10
1.637954
 20
16.36973
 42
0.395212
  0
LWPOLYLINE
  5
F8FC2
100
AcDbEntity
  8
OBJHOUSING
 62
     7
100
AcDbPolyline
 90
        3
 70
     0
 43
0.0
 10
1.571988
 20
16.18896
 42
0.008309
 10
1.563369
 20
16.365837
 42
0.395212
 10
1.559214
 20
16.36973
 42
0.395212
  0
LWPOLYLINE
  5
F8FC7
100
AcDbEntity
  8
OBJHOUSING
 62
     7
100
AcDbPolyline
 90
        4
 70
     0
 43
0.0
 10
1.612283
 20
16.115086
 42
0.000222
 10
1.611996
 20
16.124773
 42
0.010601
 10
1.602362
 20
16.312544
 42
0.393146
 10
1.598076
 20
16.31653
 42
0.393146
  0
LINE
  5
F8FCD
100
AcDbEntity
  8
OBJHOUSING
 62
     7
100
AcDbLine
 10
1.480474
 20
16.36973
 30
0.0
 11
1.441612
 21
16.31653
 31
0.0
  0
LINE
  5
F8FCE
100
AcDbEntity
  8
OBJHOUSING
 62
     7
100
AcDbLine
 10
1.480474
 20
16.36973
 30
0.0
 11
1.519336
 21
16.31653
 31
0.0
  0
LINE
  5
F8FCF
100
AcDbEntity
  8
OBJHOUSING
 62
     7
100
AcDbLine
 10
1.559214
 20
16.36973
 30
0.0
 11
1.520352
 21
16.31653
 31
0.0
  0
LINE
  5
F8FD0
100
AcDbEntity
  8
OBJHOUSING
 62
     7
100
AcDbLine
 10
1.559214
 20
16.36973
 30
0.0
 11
1.598076
 21
16.31653
 31
0.0
  0
LINE
  5
F8FD1
100
AcDbEntity
  8
OBJHOUSING
 62
     7
100
AcDbLine
 10
1.637954
 20
16.36973
 30
0.0
 11
1.599092
 21
16.31653
 31
0.0
  0
LINE
  5
F8FD2
100
AcDbEntity
  8
OBJHOUSING
 62
     7
100
AcDbLine
 10
1.637954
 20
16.36973
 30
0.0
 11
1.676816
 21
16.31653
 31
0.0
  0
LINE
  5
F8FD3
100
AcDbEntity
  8
OBJHOUSING
 62
     7
100
AcDbLine
 10
1.401734
 20
16.36973
 30
0.0
 11
1.440596
 21
16.31653
 31
0.0
  0
LINE
  5
F8FD4
100
AcDbEntity
  8
OBJHOUSING
 62
     7
100
AcDbLine
 10
1.401734
 20
16.36973
 30
0.0
 11
1.362872
 21
16.31653
 31
0.0
  0
LINE
  5
F8FD5
100
AcDbEntity
  8
OBJHOUSING
 62
     7
100
AcDbLine
 10
1.729468
 20
16.18896
 30
0.0
 11
1.690736
 21
16.124773
 31
0.0
  0
LINE
  5
F8FD6
100
AcDbEntity
  8
OBJHOUSING
 62
     7
100
AcDbLine
 10
1.769763
 20
16.115086
 30
0.0
 11
1.729468
 21
16.18896
 31
0.0
  0
LWPOLYLINE
  5
F8FD7
100
AcDbEntity
  8
OBJHOUSING
 62
     7
100
AcDbPolyline
 90
        3
 70
     0
 43
0.0
 10
1.729468
 20
16.18896
 42
0.008309
 10
1.720849
 20
16.365837
 42
0.395212
 10
1.716694
 20
16.36973
 42
0.395212
  0
LINE
  5
F8FDC
100
AcDbEntity
  8
OBJHOUSING
 62
     7
100
AcDbLine
 10
1.716694
 20
16.36973
 30
0.0
 11
1.755556
 21
16.31653
 31
0.0
  0
LINE
  5
F8FDD
100
AcDbEntity
  8
OBJHOUSING
 62
     7
100
AcDbLine
 10
2.123103
 20
16.18896
 30
0.0
 11
2.084307
 21
16.126745
 31
0.0
  0
LINE
  5
F8FDE
100
AcDbEntity
  8
OBJHOUSING
 62
     7
100
AcDbLine
 10
2.110266
 20
16.371702
 30
0.0
 11
2.071403
 21
16.318502
 31
0.0
  0
LINE
  5
F8FDF
100
AcDbEntity
  8
OBJHOUSING
 62
     7
100
AcDbLine
 10
1.848216
 20
16.124773
 30
0.0
 11
1.808208
 21
16.18896
 31
0.0
  0
LINE
  5
F8FE0
100
AcDbEntity
  8
OBJHOUSING
 62
     7
100
AcDbLine
 10
1.886948
 20
16.18896
 30
0.0
 11
1.848216
 21
16.124773
 31
0.0
  0
LINE
  5
F8FE1
100
AcDbEntity
  8
OBJHOUSING
 62
     7
100
AcDbLine
 10
1.926956
 20
16.124773
 30
0.0
 11
1.886948
 21
16.18896
 31
0.0
  0
LINE
  5
F8FE2
100
AcDbEntity
  8
OBJHOUSING
 62
     7
100
AcDbLine
 10
1.965688
 20
16.18896
 30
0.0
 11
1.926956
 21
16.124773
 31
0.0
  0
LINE
  5
F8FE3
100
AcDbEntity
  8
OBJHOUSING
 62
     7
100
AcDbLine
 10
2.005696
 20
16.124773
 30
0.0
 11
1.965688
 21
16.18896
 31
0.0
  0
LINE
  5
F8FE4
100
AcDbEntity
  8
OBJHOUSING
 62
     7
100
AcDbLine
 10
2.044428
 20
16.18896
 30
0.0
 11
2.005696
 21
16.124773
 31
0.0
  0
LINE
  5
F8FE5
100
AcDbEntity
  8
OBJHOUSING
 62
     7
100
AcDbLine
 10
2.084307
 20
16.126745
 30
0.0
 11
2.044428
 21
16.18896
 31
0.0
  0
LWPOLYLINE
  5
F8FE6
100
AcDbEntity
  8
OBJHOUSING
 62
     7
100
AcDbPolyline
 90
        3
 70
     0
 43
0.0
 10
2.044428
 20
16.18896
 42
0.008309
 10
2.035809
 20
16.365837
 42
0.395212
 10
2.031654
 20
16.36973
 42
0.395212
  0
LWPOLYLINE
  5
F8FEB
100
AcDbEntity
  8
OBJHOUSING
 62
     7
100
AcDbPolyline
 90
        3
 70
     0
 43
0.0
 10
1.965688
 20
16.18896
 42
0.008309
 10
1.957069
 20
16.365837
 42
0.395212
 10
1.952914
 20
16.36973
 42
0.395212
  0
LWPOLYLINE
  5
F8FF0
100
AcDbEntity
  8
OBJHOUSING
 62
     7
100
AcDbPolyline
 90
        3
 70
     0
 43
0.0
 10
1.886948
 20
16.18896
 42
0.008309
 10
1.878329
 20
16.365837
 42
0.395212
 10
1.874174
 20
16.36973
 42
0.395212
  0
LWPOLYLINE
  5
F8FF5
100
AcDbEntity
  8
OBJHOUSING
 62
     7
100
AcDbPolyline
 90
        3
 70
     0
 43
0.0
 10
1.808208
 20
16.18896
 42
0.008309
 10
1.799589
 20
16.365837
 42
0.395212
 10
1.795434
 20
16.36973
 42
0.395212
  0
LWPOLYLINE
  5
F8FFA
100
AcDbEntity
  8
OBJHOUSING
 62
     7
100
AcDbPolyline
 90
        4
 70
     0
 43
0.0
 10
1.848503
 20
16.115086
 42
0.000222
 10
1.848216
 20
16.124773
 42
0.010601
 10
1.838582
 20
16.312544
 42
0.393146
 10
1.834296
 20
16.31653
 42
0.393146
  0
LWPOLYLINE
  5
F9000
100
AcDbEntity
  8
OBJHOUSING
 62
     7
100
AcDbPolyline
 90
        4
 70
     0
 43
0.0
 10
1.927243
 20
16.115086
 42
0.000222
 10
1.926956
 20
16.124773
 42
0.010601
 10
1.917322
 20
16.312544
 42
0.393146
 10
1.913036
 20
16.31653
 42
0.393146
  0
LWPOLYLINE
  5
F9006
100
AcDbEntity
  8
OBJHOUSING
 62
     7
100
AcDbPolyline
 90
        4
 70
     0
 43
0.0
 10
2.005983
 20
16.115086
 42
0.000222
 10
2.005696
 20
16.124773
 42
0.010601
 10
1.996062
 20
16.312544
 42
0.393146
 10
1.991776
 20
16.31653
 42
0.393146
  0
LWPOLYLINE
  5
F900C
100
AcDbEntity
  8
OBJHOUSING
 62
     7
100
AcDbPolyline
 90
        4
 70
     0
 43
0.0
 10
2.084652
 20
16.115086
 42
0.000268
 10
2.084307
 20
16.126745
 42
0.010601
 10
2.074674
 20
16.314516
 42
0.393146
 10
2.070388
 20
16.318502
 42
0.393146
  0
LINE
  5
F9012
100
AcDbEntity
  8
OBJHOUSING
 62
     7
100
AcDbLine
 10
2.031526
 20
16.371702
 30
0.0
 11
2.070388
 21
16.318502
 31
0.0
  0
LINE
  5
F9013
100
AcDbEntity
  8
OBJHOUSING
 62
     7
100
AcDbLine
 10
1.795434
 20
16.36973
 30
0.0
 11
1.834296
 21
16.31653
 31
0.0
  0
LINE
  5
F9014
100
AcDbEntity
  8
OBJHOUSING
 62
     7
100
AcDbLine
 10
1.874174
 20
16.36973
 30
0.0
 11
1.835312
 21
16.31653
 31
0.0
  0
LINE
  5
F9015
100
AcDbEntity
  8
OBJHOUSING
 62
     7
100
AcDbLine
 10
1.874174
 20
16.36973
 30
0.0
 11
1.913036
 21
16.31653
 31
0.0
  0
LINE
  5
F9016
100
AcDbEntity
  8
OBJHOUSING
 62
     7
100
AcDbLine
 10
1.952914
 20
16.36973
 30
0.0
 11
1.914052
 21
16.31653
 31
0.0
  0
LINE
  5
F9017
100
AcDbEntity
  8
OBJHOUSING
 62
     7
100
AcDbLine
 10
1.952914
 20
16.36973
 30
0.0
 11
1.991776
 21
16.31653
 31
0.0
  0
LINE
  5
F9018
100
AcDbEntity
  8
OBJHOUSING
 62
     7
100
AcDbLine
 10
2.031654
 20
16.36973
 30
0.0
 11
1.992792
 21
16.31653
 31
0.0
  0
LINE
  5
F9019
100
AcDbEntity
  8
OBJHOUSING
 62
     7
100
AcDbLine
 10
2.163392
 20
16.115086
 30
0.0
 11
2.123103
 21
16.18896
 31
0.0
  0
LWPOLYLINE
  5
F901A
100
AcDbEntity
  8
OBJHOUSING
 62
     7
100
AcDbPolyline
 90
        3
 70
     0
 43
0.0
 10
2.123103
 20
16.18896
 42
0.008402
 10
2.114421
 20
16.367809
 42
0.395212
 10
2.110266
 20
16.371702
 42
0.395212
  0
LWPOLYLINE
  5
F901F
100
AcDbEntity
  8
OBJHOUSING
 62
     7
100
AcDbPolyline
 90
        4
 70
     0
 43
0.0
 10
2.163392
 20
16.115086
 42
0.000268
 10
2.163047
 20
16.126745
 42
0.010601
 10
2.153414
 20
16.314516
 42
0.393146
 10
2.149128
 20
16.318502
 42
0.393146
  0
LINE
  5
F9025
100
AcDbEntity
  8
OBJHOUSING
 62
     7
100
AcDbLine
 10
2.110266
 20
16.371702
 30
0.0
 11
2.149128
 21
16.318502
 31
0.0
  0
TEXT
  5
F9026
100
AcDbEntity
  8
0
 62
     7
100
AcDbText
 10
2.149322
 20
15.942367
 30
0.0
 40
0.0625
  1
T
 50
180.0
 41
0.77
  7
ROMANS
100
AcDbText
  0
LINE
  5
F9027
100
AcDbEntity
  8
OBJNUT
 62
     7
100
AcDbLine
 10
1.001022
 20
16.81653
 30
0.0
 11
1.168118
 21
16.81653
 31
0.0
  0
LWPOLYLINE
  5
F9028
100
AcDbEntity
  8
OBJNUT
 62
     7
100
AcDbPolyline
 90
        9
 70
     0
 43
0.0
 10
3.462733
 20
16.81653
 42
0.319527
 10
3.452114
 20
16.808972
 42
0.047807
 10
3.433422
 20
16.731979
 42
0.020806
 10
3.424827
 20
16.647175
 42
0.014853
 10
3.421281
 20
16.527855
 42
0.014853
 10
3.424827
 20
16.408535
 42
0.020806
 10
3.433422
 20
16.323731
 42
0.047807
 10
3.452114
 20
16.246738
 42
0.319527
 10
3.462733
 20
16.23918
 42
0.319527
  0
LWPOLYLINE
  5
F9033
100
AcDbEntity
  8
OBJNUT
 62
     7
100
AcDbPolyline
 90
        9
 70
     0
 43
0.0
 10
3.629829
 20
16.23918
 42
0.319527
 10
3.640449
 20
16.246738
 42
0.047807
 10
3.65914
 20
16.323731
 42
0.020806
 10
3.667736
 20
16.408535
 42
0.014853
 10
3.671281
 20
16.527855
 42
0.014853
 10
3.667736
 20
16.647175
 42
0.020806
 10
3.65914
 20
16.731979
 42
0.047807
 10
3.640449
 20
16.808972
 42
0.319527
 10
3.629829
 20
16.81653
 42
0.319527
  0
LINE
  5
F903E
100
AcDbEntity
  8
OBJHOUSING
 62
     7
100
AcDbLine
 10
3.029532
 20
16.115086
 30
0.0
 11
2.989243
 21
16.18896
 31
0.0
  0
LINE
  5
F903F
100
AcDbEntity
  8
OBJHOUSING
 62
     7
100
AcDbLine
 10
2.976406
 20
16.371702
 30
0.0
 11
3.015268
 21
16.318502
 31
0.0
  0
LINE
  5
F9040
100
AcDbEntity
  8
OBJHOUSING
 62
     7
100
AcDbLine
 10
3.040718
 20
15.200859
 30
0.0
 11
3.003065
 21
15.1347
 31
0.0
  0
LWPOLYLINE
  5
F9041
100
AcDbEntity
  8
OBJHOUSING
 62
     7
100
AcDbPolyline
 90
        3
 70
     0
 43
0.0
 10
3.003065
 20
15.1347
 42
0.008217
 10
3.01162
 20
14.959794
 42
0.395212
 10
3.015776
 20
14.955902
 42
0.395212
  0
LINE
  5
F9046
100
AcDbEntity
  8
OBJHOUSING
 62
     7
100
AcDbLine
 10
2.976913
 20
15.009102
 30
0.0
 11
3.015776
 21
14.955902
 31
0.0
  0
LWPOLYLINE
  5
F9047
100
AcDbEntity
  8
0
 62
     7
100
AcDbPolyline
 90
        2
 70
     0
 10
2.314114
 20
15.72433
 40
0.1875
 41
0.0
 10
2.314114
 20
15.91183
 40
0.0
 41
0.0
  0
LINE
  5
F904B
100
AcDbEntity
  8
OBJHOUSING
 62
     7
100
AcDbLine
 10
2.609365
 20
15.1347
 30
0.0
 11
2.568049
 21
15.208573
 31
0.0
  0
LINE
  5
F904C
100
AcDbEntity
  8
OBJHOUSING
 62
     7
100
AcDbLine
 10
2.583213
 20
15.009102
 30
0.0
 11
2.622076
 21
14.955902
 31
0.0
  0
LINE
  5
F904D
100
AcDbEntity
  8
OBJHOUSING
 62
     7
100
AcDbLine
 10
2.530625
 20
15.1347
 30
0.0
 11
2.489538
 21
15.200859
 31
0.0
  0
LINE
  5
F904E
100
AcDbEntity
  8
OBJHOUSING
 62
     7
100
AcDbLine
 10
2.504473
 20
15.009102
 30
0.0
 11
2.543336
 21
14.955902
 31
0.0
  0
LINE
  5
F904F
100
AcDbEntity
  8
OBJHOUSING
 62
     7
100
AcDbLine
 10
2.253318
 20
15.200859
 30
0.0
 11
2.215665
 21
15.1347
 31
0.0
  0
LINE
  5
F9050
100
AcDbEntity
  8
OBJHOUSING
 62
     7
100
AcDbLine
 10
2.294405
 20
15.1347
 30
0.0
 11
2.253318
 21
15.200859
 31
0.0
  0
LINE
  5
F9051
100
AcDbEntity
  8
OBJHOUSING
 62
     7
100
AcDbLine
 10
2.331829
 20
15.208573
 30
0.0
 11
2.294405
 21
15.1347
 31
0.0
  0
LINE
  5
F9052
100
AcDbEntity
  8
OBJHOUSING
 62
     7
100
AcDbLine
 10
2.373145
 20
15.1347
 30
0.0
 11
2.331829
 21
15.208573
 31
0.0
  0
LINE
  5
F9053
100
AcDbEntity
  8
OBJHOUSING
 62
     7
100
AcDbLine
 10
2.410569
 20
15.208573
 30
0.0
 11
2.373145
 21
15.1347
 31
0.0
  0
LINE
  5
F9054
100
AcDbEntity
  8
OBJHOUSING
 62
     7
100
AcDbLine
 10
2.451885
 20
15.1347
 30
0.0
 11
2.410569
 21
15.208573
 31
0.0
  0
LINE
  5
F9055
100
AcDbEntity
  8
OBJHOUSING
 62
     7
100
AcDbLine
 10
2.489538
 20
15.200859
 30
0.0
 11
2.451885
 21
15.1347
 31
0.0
  0
LWPOLYLINE
  5
F9056
100
AcDbEntity
  8
OBJHOUSING
 62
     7
100
AcDbPolyline
 90
        3
 70
     0
 43
0.0
 10
2.451885
 20
15.1347
 42
0.008217
 10
2.46044
 20
14.959794
 42
0.395212
 10
2.464596
 20
14.955902
 42
0.395212
  0
LWPOLYLINE
  5
F905B
100
AcDbEntity
  8
OBJHOUSING
 62
     7
100
AcDbPolyline
 90
        3
 70
     0
 43
0.0
 10
2.373145
 20
15.1347
 42
0.008217
 10
2.3817
 20
14.959794
 42
0.395212
 10
2.385856
 20
14.955902
 42
0.395212
  0
LWPOLYLINE
  5
F9060
100
AcDbEntity
  8
OBJHOUSING
 62
     7
100
AcDbPolyline
 90
        3
 70
     0
 43
0.0
 10
2.294405
 20
15.1347
 42
0.008217
 10
2.30296
 20
14.959794
 42
0.395212
 10
2.307116
 20
14.955902
 42
0.395212
  0
LWPOLYLINE
  5
F9065
100
AcDbEntity
  8
OBJHOUSING
 62
     7
100
AcDbPolyline
 90
        3
 70
     0
 43
0.0
 10
2.215665
 20
15.1347
 42
0.008217
 10
2.22422
 20
14.959794
 42
0.395212
 10
2.228376
 20
14.955902
 42
0.395212
  0
LWPOLYLINE
  5
F906A
100
AcDbEntity
  8
OBJHOUSING
 62
     7
100
AcDbPolyline
 90
        4
 70
     0
 43
0.0
 10
2.489309
 20
15.208573
 42
0.000177
 10
2.489538
 20
15.200859
 42
0.010601
 10
2.499172
 20
15.013088
 42
0.393146
 10
2.503458
 20
15.009102
 42
0.393146
  0
LWPOLYLINE
  5
F9070
100
AcDbEntity
  8
OBJHOUSING
 62
     7
100
AcDbPolyline
 90
        4
 70
     0
 43
0.0
 10
2.410569
 20
15.208573
 42
0.000177
 10
2.410798
 20
15.200859
 42
0.010601
 10
2.420432
 20
15.013088
 42
0.393146
 10
2.424718
 20
15.009102
 42
0.393146
  0
LWPOLYLINE
  5
F9076
100
AcDbEntity
  8
OBJHOUSING
 62
     7
100
AcDbPolyline
 90
        4
 70
     0
 43
0.0
 10
2.331829
 20
15.208573
 42
0.000177
 10
2.332058
 20
15.200859
 42
0.010601
 10
2.341692
 20
15.013088
 42
0.393146
 10
2.345978
 20
15.009102
 42
0.393146
  0
LWPOLYLINE
  5
F907C
100
AcDbEntity
  8
OBJHOUSING
 62
     7
100
AcDbPolyline
 90
        4
 70
     0
 43
0.0
 10
2.253089
 20
15.208573
 42
0.000177
 10
2.253318
 20
15.200859
 42
0.010601
 10
2.262952
 20
15.013088
 42
0.393146
 10
2.267238
 20
15.009102
 42
0.393146
  0
LINE
  5
F9082
100
AcDbEntity
  8
OBJHOUSING
 62
     7
100
AcDbLine
 10
2.425733
 20
15.009102
 30
0.0
 11
2.464596
 21
14.955902
 31
0.0
  0
LINE
  5
F9083
100
AcDbEntity
  8
OBJHOUSING
 62
     7
100
AcDbLine
 10
2.425733
 20
15.009102
 30
0.0
 11
2.386871
 21
14.955902
 31
0.0
  0
LINE
  5
F9084
100
AcDbEntity
  8
OBJHOUSING
 62
     7
100
AcDbLine
 10
2.504473
 20
15.009102
 30
0.0
 11
2.465611
 21
14.955902
 31
0.0
  0
LINE
  5
F9085
100
AcDbEntity
  8
OBJHOUSING
 62
     7
100
AcDbLine
 10
2.189513
 20
15.009102
 30
0.0
 11
2.228376
 21
14.955902
 31
0.0
  0
LINE
  5
F9086
100
AcDbEntity
  8
OBJHOUSING
 62
     7
100
AcDbLine
 10
2.268253
 20
15.009102
 30
0.0
 11
2.307116
 21
14.955902
 31
0.0
  0
LINE
  5
F9087
100
AcDbEntity
  8
OBJHOUSING
 62
     7
100
AcDbLine
 10
2.268253
 20
15.009102
 30
0.0
 11
2.229391
 21
14.955902
 31
0.0
  0
LINE
  5
F9088
100
AcDbEntity
  8
OBJHOUSING
 62
     7
100
AcDbLine
 10
2.346993
 20
15.009102
 30
0.0
 11
2.308131
 21
14.955902
 31
0.0
  0
LINE
  5
F9089
100
AcDbEntity
  8
OBJHOUSING
 62
     7
100
AcDbLine
 10
2.346993
 20
15.009102
 30
0.0
 11
2.385856
 21
14.955902
 31
0.0
  0
TEXT
  5
F908A
100
AcDbEntity
  8
0
 62
     7
100
AcDbText
 10
2.446092
 20
15.381292
 30
0.0
 40
0.0625
  1
T
 41
0.77
  7
ROMANS
100
AcDbText
  0
TEXT
  5
F908B
100
AcDbEntity
  8
0
 62
     7
100
AcDbText
 10
2.395047
 20
15.414085
 30
0.0
 40
0.125
  1
F
 41
0.77
  7
ROMANS
100
AcDbText
  0
LINE
  5
F908C
100
AcDbEntity
  8
OBJHOUSING
 62
     7
100
AcDbLine
 10
2.568049
 20
15.208573
 30
0.0
 11
2.530625
 21
15.1347
 31
0.0
  0
LWPOLYLINE
  5
F908D
100
AcDbEntity
  8
OBJHOUSING
 62
     7
100
AcDbPolyline
 90
        3
 70
     0
 43
0.0
 10
2.530625
 20
15.1347
 42
0.008217
 10
2.53918
 20
14.959794
 42
0.395212
 10
2.543336
 20
14.955902
 42
0.395212
  0
LWPOLYLINE
  5
F9092
100
AcDbEntity
  8
OBJHOUSING
 62
     7
100
AcDbPolyline
 90
        4
 70
     0
 43
0.0
 10
2.568049
 20
15.208573
 42
0.000177
 10
2.568278
 20
15.200859
 42
0.010601
 10
2.577912
 20
15.013088
 42
0.393146
 10
2.582198
 20
15.009102
 42
0.393146
  0
LINE
  5
F9098
100
AcDbEntity
  8
OBJHOUSING
 62
     7
100
AcDbLine
 10
2.583213
 20
15.009102
 30
0.0
 11
2.544351
 21
14.955902
 31
0.0
  0
LWPOLYLINE
  5
F9099
100
AcDbEntity
  8
0
 62
     7
100
AcDbPolyline
 90
        2
 70
     0
 43
0.0625
 10
2.314114
 20
15.41183
 10
2.314114
 20
15.72433
  0
CIRCLE
  5
F909D
100
AcDbEntity
  8
0
 62
     7
100
AcDbCircle
 10
2.914114
 20
15.66183
 30
0.0
 40
0.0625
  0
LINE
  5
F909E
100
AcDbEntity
  8
OBJHOUSING
 62
     7
100
AcDbLine
 10
2.924325
 20
15.1347
 30
0.0
 11
2.883238
 21
15.200859
 31
0.0
  0
LINE
  5
F909F
100
AcDbEntity
  8
OBJHOUSING
 62
     7
100
AcDbLine
 10
2.898173
 20
15.009102
 30
0.0
 11
2.937036
 21
14.955902
 31
0.0
  0
LINE
  5
F90A0
100
AcDbEntity
  8
OBJHOUSING
 62
     7
100
AcDbLine
 10
2.646789
 20
15.208573
 30
0.0
 11
2.609365
 21
15.1347
 31
0.0
  0
LINE
  5
F90A1
100
AcDbEntity
  8
OBJHOUSING
 62
     7
100
AcDbLine
 10
2.688105
 20
15.1347
 30
0.0
 11
2.646789
 21
15.208573
 31
0.0
  0
LINE
  5
F90A2
100
AcDbEntity
  8
OBJHOUSING
 62
     7
100
AcDbLine
 10
2.725758
 20
15.200859
 30
0.0
 11
2.688105
 21
15.1347
 31
0.0
  0
LINE
  5
F90A3
100
AcDbEntity
  8
OBJHOUSING
 62
     7
100
AcDbLine
 10
2.766845
 20
15.1347
 30
0.0
 11
2.725758
 21
15.200859
 31
0.0
  0
LINE
  5
F90A4
100
AcDbEntity
  8
OBJHOUSING
 62
     7
100
AcDbLine
 10
2.804498
 20
15.200859
 30
0.0
 11
2.766845
 21
15.1347
 31
0.0
  0
LINE
  5
F90A5
100
AcDbEntity
  8
OBJHOUSING
 62
     7
100
AcDbLine
 10
2.845585
 20
15.1347
 30
0.0
 11
2.804498
 21
15.200859
 31
0.0
  0
LINE
  5
F90A6
100
AcDbEntity
  8
OBJHOUSING
 62
     7
100
AcDbLine
 10
2.883238
 20
15.200859
 30
0.0
 11
2.845585
 21
15.1347
 31
0.0
  0
LWPOLYLINE
  5
F90A7
100
AcDbEntity
  8
OBJHOUSING
 62
     7
100
AcDbPolyline
 90
        3
 70
     0
 43
0.0
 10
2.766845
 20
15.1347
 42
0.008217
 10
2.7754
 20
14.959794
 42
0.395212
 10
2.779556
 20
14.955902
 42
0.395212
  0
LWPOLYLINE
  5
F90AC
100
AcDbEntity
  8
OBJHOUSING
 62
     7
100
AcDbPolyline
 90
        3
 70
     0
 43
0.0
 10
2.845585
 20
15.1347
 42
0.008217
 10
2.85414
 20
14.959794
 42
0.395212
 10
2.858296
 20
14.955902
 42
0.395212
  0
LWPOLYLINE
  5
F90B1
100
AcDbEntity
  8
OBJHOUSING
 62
     7
100
AcDbPolyline
 90
        3
 70
     0
 43
0.0
 10
2.688105
 20
15.1347
 42
0.008217
 10
2.69666
 20
14.959794
 42
0.395212
 10
2.700816
 20
14.955902
 42
0.395212
  0
LWPOLYLINE
  5
F90B6
100
AcDbEntity
  8
OBJHOUSING
 62
     7
100
AcDbPolyline
 90
        3
 70
     0
 43
0.0
 10
2.609365
 20
15.1347
 42
0.008217
 10
2.61792
 20
14.959794
 42
0.395212
 10
2.622076
 20
14.955902
 42
0.395212
  0
LWPOLYLINE
  5
F90BB
100
AcDbEntity
  8
OBJHOUSING
 62
     7
100
AcDbPolyline
 90
        4
 70
     0
 43
0.0
 10
2.883009
 20
15.208573
 42
0.000177
 10
2.883238
 20
15.200859
 42
0.010601
 10
2.892872
 20
15.013088
 42
0.393146
 10
2.897158
 20
15.009102
 42
0.393146
  0
LWPOLYLINE
  5
F90C1
100
AcDbEntity
  8
OBJHOUSING
 62
     7
100
AcDbPolyline
 90
        4
 70
     0
 43
0.0
 10
2.804269
 20
15.208573
 42
0.000177
 10
2.804498
 20
15.200859
 42
0.010601
 10
2.814132
 20
15.013088
 42
0.393146
 10
2.818418
 20
15.009102
 42
0.393146
  0
LWPOLYLINE
  5
F90C7
100
AcDbEntity
  8
OBJHOUSING
 62
     7
100
AcDbPolyline
 90
        4
 70
     0
 43
0.0
 10
2.725529
 20
15.208573
 42
0.000177
 10
2.725758
 20
15.200859
 42
0.010601
 10
2.735392
 20
15.013088
 42
0.393146
 10
2.739678
 20
15.009102
 42
0.393146
  0
LWPOLYLINE
  5
F90CD
100
AcDbEntity
  8
OBJHOUSING
 62
     7
100
AcDbPolyline
 90
        4
 70
     0
 43
0.0
 10
2.646789
 20
15.208573
 42
0.000177
 10
2.647018
 20
15.200859
 42
0.010601
 10
2.656652
 20
15.013088
 42
0.393146
 10
2.660938
 20
15.009102
 42
0.393146
  0
LINE
  5
F90D3
100
AcDbEntity
  8
OBJHOUSING
 62
     7
100
AcDbLine
 10
2.898173
 20
15.009102
 30
0.0
 11
2.859311
 21
14.955902
 31
0.0
  0
LINE
  5
F90D4
100
AcDbEntity
  8
OBJHOUSING
 62
     7
100
AcDbLine
 10
2.819433
 20
15.009102
 30
0.0
 11
2.780571
 21
14.955902
 31
0.0
  0
LINE
  5
F90D5
100
AcDbEntity
  8
OBJHOUSING
 62
     7
100
AcDbLine
 10
2.819433
 20
15.009102
 30
0.0
 11
2.858296
 21
14.955902
 31
0.0
  0
LINE
  5
F90D6
100
AcDbEntity
  8
OBJHOUSING
 62
     7
100
AcDbLine
 10
2.661953
 20
15.009102
 30
0.0
 11
2.623091
 21
14.955902
 31
0.0
  0
LINE
  5
F90D7
100
AcDbEntity
  8
OBJHOUSING
 62
     7
100
AcDbLine
 10
2.661953
 20
15.009102
 30
0.0
 11
2.698826
 21
14.958626
 31
0.0
  0
LINE
  5
F90D8
100
AcDbEntity
  8
OBJHOUSING
 62
     7
100
AcDbLine
 10
2.740693
 20
15.009102
 30
0.0
 11
2.701831
 21
14.955902
 31
0.0
  0
LINE
  5
F90D9
100
AcDbEntity
  8
OBJHOUSING
 62
     7
100
AcDbLine
 10
2.740693
 20
15.009102
 30
0.0
 11
2.779556
 21
14.955902
 31
0.0
  0
LINE
  5
F90DA
100
AcDbEntity
  8
OBJHOUSING
 62
     7
100
AcDbLine
 10
2.961749
 20
15.208573
 30
0.0
 11
2.924325
 21
15.1347
 31
0.0
  0
LINE
  5
F90DB
100
AcDbEntity
  8
OBJHOUSING
 62
     7
100
AcDbLine
 10
3.003065
 20
15.1347
 30
0.0
 11
2.961749
 21
15.208573
 31
0.0
  0
LWPOLYLINE
  5
F90DC
100
AcDbEntity
  8
OBJHOUSING
 62
     7
100
AcDbPolyline
 90
        3
 70
     0
 43
0.0
 10
2.924325
 20
15.1347
 42
0.008217
 10
2.93288
 20
14.959794
 42
0.395212
 10
2.937036
 20
14.955902
 42
0.395212
  0
LWPOLYLINE
  5
F90E1
100
AcDbEntity
  8
OBJHOUSING
 62
     7
100
AcDbPolyline
 90
        4
 70
     0
 43
0.0
 10
2.961749
 20
15.208573
 42
0.000177
 10
2.961978
 20
15.200859
 42
0.010601
 10
2.971612
 20
15.013088
 42
0.393146
 10
2.975898
 20
15.009102
 42
0.393146
  0
LINE
  5
F90E7
100
AcDbEntity
  8
OBJHOUSING
 62
     7
100
AcDbLine
 10
2.976913
 20
15.009102
 30
0.0
 11
2.938051
 21
14.955902
 31
0.0
  0
LINE
  5
F90E8
100
AcDbEntity
  8
OBJHOUSING
 62
     7
100
AcDbLine
 10
2.595543
 20
16.18896
 30
0.0
 11
2.557092
 21
16.115086
 31
0.0
  0
LWPOLYLINE
  5
F90E9
100
AcDbEntity
  8
OBJHOUSING
 62
     7
100
AcDbPolyline
 90
        3
 70
     0
 43
0.0
 10
2.595543
 20
16.18896
 42
0.008402
 10
2.586861
 20
16.367809
 42
0.395212
 10
2.582706
 20
16.371702
 42
0.395212
  0
LINE
  5
F90EE
100
AcDbEntity
  8
OBJHOUSING
 62
     7
100
AcDbLine
 10
2.582706
 20
16.371702
 30
0.0
 11
2.621568
 21
16.318502
 31
0.0
  0
LINE
  5
F90EF
100
AcDbEntity
  8
OBJHOUSING
 62
     7
100
AcDbLine
 10
2.516803
 20
16.18896
 30
0.0
 11
2.478352
 21
16.115086
 31
0.0
  0
LWPOLYLINE
  5
F90F0
100
AcDbEntity
  8
OBJHOUSING
 62
     7
100
AcDbPolyline
 90
        3
 70
     0
 43
0.0
 10
2.516803
 20
16.18896
 42
0.008402
 10
2.508121
 20
16.367809
 42
0.395212
 10
2.503966
 20
16.371702
 42
0.395212
  0
LINE
  5
F90F5
100
AcDbEntity
  8
OBJHOUSING
 62
     7
100
AcDbLine
 10
2.503966
 20
16.371702
 30
0.0
 11
2.542828
 21
16.318502
 31
0.0
  0
LINE
  5
F90F6
100
AcDbEntity
  8
OBJHOUSING
 62
     7
100
AcDbLine
 10
2.242132
 20
16.115086
 30
0.0
 11
2.201843
 21
16.18896
 31
0.0
  0
LINE
  5
F90F7
100
AcDbEntity
  8
OBJHOUSING
 62
     7
100
AcDbLine
 10
2.280583
 20
16.18896
 30
0.0
 11
2.242132
 21
16.115086
 31
0.0
  0
LINE
  5
F90F8
100
AcDbEntity
  8
OBJHOUSING
 62
     7
100
AcDbLine
 10
2.320872
 20
16.115086
 30
0.0
 11
2.280583
 21
16.18896
 31
0.0
  0
LINE
  5
F90F9
100
AcDbEntity
  8
OBJHOUSING
 62
     7
100
AcDbLine
 10
2.359323
 20
16.18896
 30
0.0
 11
2.320872
 21
16.115086
 31
0.0
  0
LINE
  5
F90FA
100
AcDbEntity
  8
OBJHOUSING
 62
     7
100
AcDbLine
 10
2.399267
 20
16.126745
 30
0.0
 11
2.359323
 21
16.18896
 31
0.0
  0
LINE
  5
F90FB
100
AcDbEntity
  8
OBJHOUSING
 62
     7
100
AcDbLine
 10
2.438063
 20
16.18896
 30
0.0
 11
2.399267
 21
16.126745
 31
0.0
  0
LINE
  5
F90FC
100
AcDbEntity
  8
OBJHOUSING
 62
     7
100
AcDbLine
 10
2.478352
 20
16.115086
 30
0.0
 11
2.438063
 21
16.18896
 31
0.0
  0
LWPOLYLINE
  5
F90FD
100
AcDbEntity
  8
OBJHOUSING
 62
     7
100
AcDbPolyline
 90
        3
 70
     0
 43
0.0
 10
2.359323
 20
16.18896
 42
0.008402
 10
2.350641
 20
16.367809
 42
0.395212
 10
2.346486
 20
16.371702
 42
0.395212
  0
LWPOLYLINE
  5
F9102
100
AcDbEntity
  8
OBJHOUSING
 62
     7
100
AcDbPolyline
 90
        3
 70
     0
 43
0.0
 10
2.280583
 20
16.18896
 42
0.008402
 10
2.271901
 20
16.367809
 42
0.395212
 10
2.267746
 20
16.371702
 42
0.395212
  0
LWPOLYLINE
  5
F9107
100
AcDbEntity
  8
OBJHOUSING
 62
     7
100
AcDbPolyline
 90
        3
 70
     0
 43
0.0
 10
2.201843
 20
16.18896
 42
0.008402
 10
2.193161
 20
16.367809
 42
0.395212
 10
2.189006
 20
16.371702
 42
0.395212
  0
LWPOLYLINE
  5
F910C
100
AcDbEntity
  8
OBJHOUSING
 62
     7
100
AcDbPolyline
 90
        3
 70
     0
 43
0.0
 10
2.438063
 20
16.18896
 42
0.008402
 10
2.429381
 20
16.367809
 42
0.395212
 10
2.425226
 20
16.371702
 42
0.395212
  0
LWPOLYLINE
  5
F9111
100
AcDbEntity
  8
OBJHOUSING
 62
     7
100
AcDbPolyline
 90
        4
 70
     0
 43
0.0
 10
2.242132
 20
16.115086
 42
0.000268
 10
2.241787
 20
16.126745
 42
0.010601
 10
2.232154
 20
16.314516
 42
0.393146
 10
2.227868
 20
16.318502
 42
0.393146
  0
LWPOLYLINE
  5
F9117
100
AcDbEntity
  8
OBJHOUSING
 62
     7
100
AcDbPolyline
 90
        4
 70
     0
 43
0.0
 10
2.320872
 20
16.115086
 42
0.000268
 10
2.320527
 20
16.126745
 42
0.010601
 10
2.310894
 20
16.314516
 42
0.393146
 10
2.306608
 20
16.318502
 42
0.393146
  0
LWPOLYLINE
  5
F911D
100
AcDbEntity
  8
OBJHOUSING
 62
     7
100
AcDbPolyline
 90
        4
 70
     0
 43
0.0
 10
2.399612
 20
16.115086
 42
0.000268
 10
2.399267
 20
16.126745
 42
0.010601
 10
2.389634
 20
16.314516
 42
0.393146
 10
2.385348
 20
16.318502
 42
0.393146
  0
LWPOLYLINE
  5
F9123
100
AcDbEntity
  8
OBJHOUSING
 62
     7
100
AcDbPolyline
 90
        4
 70
     0
 43
0.0
 10
2.478352
 20
16.115086
 42
0.000268
 10
2.478007
 20
16.126745
 42
0.010601
 10
2.468374
 20
16.314516
 42
0.393146
 10
2.464088
 20
16.318502
 42
0.393146
  0
LINE
  5
F9129
100
AcDbEntity
  8
OBJHOUSING
 62
     7
100
AcDbLine
 10
2.425226
 20
16.371702
 30
0.0
 11
2.386363
 21
16.318502
 31
0.0
  0
LINE
  5
F912A
100
AcDbEntity
  8
OBJHOUSING
 62
     7
100
AcDbLine
 10
2.425226
 20
16.371702
 30
0.0
 11
2.464088
 21
16.318502
 31
0.0
  0
LINE
  5
F912B
100
AcDbEntity
  8
OBJHOUSING
 62
     7
100
AcDbLine
 10
2.503966
 20
16.371702
 30
0.0
 11
2.465103
 21
16.318502
 31
0.0
  0
LINE
  5
F912C
100
AcDbEntity
  8
OBJHOUSING
 62
     7
100
AcDbLine
 10
2.189006
 20
16.371702
 30
0.0
 11
2.227868
 21
16.318502
 31
0.0
  0
LINE
  5
F912D
100
AcDbEntity
  8
OBJHOUSING
 62
     7
100
AcDbLine
 10
2.267746
 20
16.371702
 30
0.0
 11
2.228883
 21
16.318502
 31
0.0
  0
LINE
  5
F912E
100
AcDbEntity
  8
OBJHOUSING
 62
     7
100
AcDbLine
 10
2.267746
 20
16.371702
 30
0.0
 11
2.306608
 21
16.318502
 31
0.0
  0
LINE
  5
F912F
100
AcDbEntity
  8
OBJHOUSING
 62
     7
100
AcDbLine
 10
2.346486
 20
16.371702
 30
0.0
 11
2.307623
 21
16.318502
 31
0.0
  0
LINE
  5
F9130
100
AcDbEntity
  8
OBJHOUSING
 62
     7
100
AcDbLine
 10
2.346486
 20
16.371702
 30
0.0
 11
2.385348
 21
16.318502
 31
0.0
  0
LINE
  5
F9131
100
AcDbEntity
  8
OBJHOUSING
 62
     7
100
AcDbLine
 10
2.557092
 20
16.115086
 30
0.0
 11
2.516803
 21
16.18896
 31
0.0
  0
LWPOLYLINE
  5
F9132
100
AcDbEntity
  8
OBJHOUSING
 62
     7
100
AcDbPolyline
 90
        4
 70
     0
 43
0.0
 10
2.557092
 20
16.115086
 42
0.000268
 10
2.556747
 20
16.126745
 42
0.010601
 10
2.547114
 20
16.314516
 42
0.393146
 10
2.542828
 20
16.318502
 42
0.393146
  0
LINE
  5
F9138
100
AcDbEntity
  8
OBJHOUSING
 62
     7
100
AcDbLine
 10
2.582706
 20
16.371702
 30
0.0
 11
2.543843
 21
16.318502
 31
0.0
  0
LINE
  5
F9139
100
AcDbEntity
  8
OBJHOUSING
 62
     7
100
AcDbLine
 10
2.950792
 20
16.115086
 30
0.0
 11
2.910503
 21
16.18896
 31
0.0
  0
LINE
  5
F913A
100
AcDbEntity
  8
OBJHOUSING
 62
     7
100
AcDbLine
 10
2.897666
 20
16.371702
 30
0.0
 11
2.936528
 21
16.318502
 31
0.0
  0
LINE
  5
F913B
100
AcDbEntity
  8
OBJHOUSING
 62
     7
100
AcDbLine
 10
2.635487
 20
16.126745
 30
0.0
 11
2.595543
 21
16.18896
 31
0.0
  0
LINE
  5
F913C
100
AcDbEntity
  8
OBJHOUSING
 62
     7
100
AcDbLine
 10
2.674283
 20
16.18896
 30
0.0
 11
2.635487
 21
16.126745
 31
0.0
  0
LINE
  5
F913D
100
AcDbEntity
  8
OBJHOUSING
 62
     7
100
AcDbLine
 10
2.714227
 20
16.126745
 30
0.0
 11
2.674283
 21
16.18896
 31
0.0
  0
LINE
  5
F913E
100
AcDbEntity
  8
OBJHOUSING
 62
     7
100
AcDbLine
 10
2.753023
 20
16.18896
 30
0.0
 11
2.714227
 21
16.126745
 31
0.0
  0
LINE
  5
F913F
100
AcDbEntity
  8
OBJHOUSING
 62
     7
100
AcDbLine
 10
2.793312
 20
16.115086
 30
0.0
 11
2.753023
 21
16.18896
 31
0.0
  0
LINE
  5
F9140
100
AcDbEntity
  8
OBJHOUSING
 62
     7
100
AcDbLine
 10
2.831763
 20
16.18896
 30
0.0
 11
2.793312
 21
16.115086
 31
0.0
  0
LINE
  5
F9141
100
AcDbEntity
  8
OBJHOUSING
 62
     7
100
AcDbLine
 10
2.872052
 20
16.115086
 30
0.0
 11
2.831763
 21
16.18896
 31
0.0
  0
LINE
  5
F9142
100
AcDbEntity
  8
OBJHOUSING
 62
     7
100
AcDbLine
 10
2.910503
 20
16.18896
 30
0.0
 11
2.872052
 21
16.115086
 31
0.0
  0
LWPOLYLINE
  5
F9143
100
AcDbEntity
  8
OBJHOUSING
 62
     7
100
AcDbPolyline
 90
        3
 70
     0
 43
0.0
 10
2.674283
 20
16.18896
 42
0.008402
 10
2.665601
 20
16.367809
 42
0.395212
 10
2.661446
 20
16.371702
 42
0.395212
  0
LWPOLYLINE
  5
F9148
100
AcDbEntity
  8
OBJHOUSING
 62
     7
100
AcDbPolyline
 90
        3
 70
     0
 43
0.0
 10
2.753023
 20
16.18896
 42
0.008402
 10
2.744341
 20
16.367809
 42
0.395212
 10
2.740186
 20
16.371702
 42
0.395212
  0
LWPOLYLINE
  5
F914D
100
AcDbEntity
  8
OBJHOUSING
 62
     7
100
AcDbPolyline
 90
        3
 70
     0
 43
0.0
 10
2.831763
 20
16.18896
 42
0.008402
 10
2.823081
 20
16.367809
 42
0.395212
 10
2.818926
 20
16.371702
 42
0.395212
  0
LWPOLYLINE
  5
F9152
100
AcDbEntity
  8
OBJHOUSING
 62
     7
100
AcDbPolyline
 90
        3
 70
     0
 43
0.0
 10
2.910503
 20
16.18896
 42
0.008402
 10
2.901821
 20
16.367809
 42
0.395212
 10
2.897666
 20
16.371702
 42
0.395212
  0
LWPOLYLINE
  5
F9157
100
AcDbEntity
  8
OBJHOUSING
 62
     7
100
AcDbPolyline
 90
        4
 70
     0
 43
0.0
 10
2.635832
 20
16.115086
 42
0.000268
 10
2.635487
 20
16.126745
 42
0.010601
 10
2.625854
 20
16.314516
 42
0.393146
 10
2.621568
 20
16.318502
 42
0.393146
  0
LWPOLYLINE
  5
F915D
100
AcDbEntity
  8
OBJHOUSING
 62
     7
100
AcDbPolyline
 90
        4
 70
     0
 43
0.0
 10
2.714572
 20
16.115086
 42
0.000268
 10
2.714227
 20
16.126745
 42
0.010601
 10
2.704594
 20
16.314516
 42
0.393146
 10
2.700308
 20
16.318502
 42
0.393146
  0
LWPOLYLINE
  5
F9163
100
AcDbEntity
  8
OBJHOUSING
 62
     7
100
AcDbPolyline
 90
        4
 70
     0
 43
0.0
 10
2.793312
 20
16.115086
 42
0.000268
 10
2.792967
 20
16.126745
 42
0.010601
 10
2.783334
 20
16.314516
 42
0.393146
 10
2.779048
 20
16.318502
 42
0.393146
  0
LWPOLYLINE
  5
F9169
100
AcDbEntity
  8
OBJHOUSING
 62
     7
100
AcDbPolyline
 90
        4
 70
     0
 43
0.0
 10
2.872052
 20
16.115086
 42
0.000268
 10
2.871707
 20
16.126745
 42
0.010601
 10
2.862074
 20
16.314516
 42
0.393146
 10
2.857788
 20
16.318502
 42
0.393146
  0
LINE
  5
F916F
100
AcDbEntity
  8
OBJHOUSING
 62
     7
100
AcDbLine
 10
2.897666
 20
16.371702
 30
0.0
 11
2.858803
 21
16.318502
 31
0.0
  0
LINE
  5
F9170
100
AcDbEntity
  8
OBJHOUSING
 62
     7
100
AcDbLine
 10
2.818926
 20
16.371702
 30
0.0
 11
2.857788
 21
16.318502
 31
0.0
  0
LINE
  5
F9171
100
AcDbEntity
  8
OBJHOUSING
 62
     7
100
AcDbLine
 10
2.818926
 20
16.371702
 30
0.0
 11
2.780063
 21
16.318502
 31
0.0
  0
LINE
  5
F9172
100
AcDbEntity
  8
OBJHOUSING
 62
     7
100
AcDbLine
 10
2.661446
 20
16.371702
 30
0.0
 11
2.622583
 21
16.318502
 31
0.0
  0
LINE
  5
F9173
100
AcDbEntity
  8
OBJHOUSING
 62
     7
100
AcDbLine
 10
2.661446
 20
16.371702
 30
0.0
 11
2.700308
 21
16.318502
 31
0.0
  0
LINE
  5
F9174
100
AcDbEntity
  8
OBJHOUSING
 62
     7
100
AcDbLine
 10
2.740186
 20
16.371702
 30
0.0
 11
2.701323
 21
16.318502
 31
0.0
  0
LINE
  5
F9175
100
AcDbEntity
  8
OBJHOUSING
 62
     7
100
AcDbLine
 10
2.740186
 20
16.371702
 30
0.0
 11
2.779048
 21
16.318502
 31
0.0
  0
LINE
  5
F9176
100
AcDbEntity
  8
OBJHOUSING
 62
     7
100
AcDbLine
 10
2.989243
 20
16.18896
 30
0.0
 11
2.950792
 21
16.115086
 31
0.0
  0
LWPOLYLINE
  5
F9177
100
AcDbEntity
  8
OBJHOUSING
 62
     7
100
AcDbPolyline
 90
        3
 70
     0
 43
0.0
 10
2.989243
 20
16.18896
 42
0.008402
 10
2.980561
 20
16.367809
 42
0.395212
 10
2.976406
 20
16.371702
 42
0.395212
  0
LWPOLYLINE
  5
F917C
100
AcDbEntity
  8
OBJHOUSING
 62
     7
100
AcDbPolyline
 90
        4
 70
     0
 43
0.0
 10
2.950792
 20
16.115086
 42
0.000268
 10
2.950447
 20
16.126745
 42
0.010601
 10
2.940814
 20
16.314516
 42
0.393146
 10
2.936528
 20
16.318502
 42
0.393146
  0
LINE
  5
F9182
100
AcDbEntity
  8
OBJHOUSING
 62
     7
100
AcDbLine
 10
2.976406
 20
16.371702
 30
0.0
 11
2.937543
 21
16.318502
 31
0.0
  0
LWPOLYLINE
  5
F9183
100
AcDbEntity
  8
OBJHOUSING
 62
     7
100
AcDbPolyline
 90
        5
 70
     0
 43
0.0
 10
3.743613
 20
15.663802
 42
0.003113
 10
3.741924
 20
15.934962
 42
0.004401
 10
3.737847
 20
16.126745
 42
0.010601
 10
3.728214
 20
16.314516
 42
0.393146
 10
3.723928
 20
16.318502
 42
0.393146
  0
LWPOLYLINE
  5
F918A
100
AcDbEntity
  8
OBJHOUSING
 62
     7
100
AcDbPolyline
 90
        5
 70
     0
 43
0.0
 10
3.704243
 20
15.663802
 42
0.002805
 10
3.702598
 20
15.957001
 42
0.003966
 10
3.698626
 20
16.164363
 42
0.009557
 10
3.689221
 20
16.367809
 42
0.395212
 10
3.685066
 20
16.371702
 42
0.395212
  0
LWPOLYLINE
  5
F9191
100
AcDbEntity
  8
OBJHOUSING
 62
     7
100
AcDbPolyline
 90
        5
 70
     0
 43
0.0
 10
3.822353
 20
15.663802
 42
0.003113
 10
3.820664
 20
15.934962
 42
0.004401
 10
3.816587
 20
16.126745
 42
0.010601
 10
3.806954
 20
16.314516
 42
0.393146
 10
3.802668
 20
16.318502
 42
0.393146
  0
LWPOLYLINE
  5
F9198
100
AcDbEntity
  8
OBJHOUSING
 62
     7
100
AcDbPolyline
 90
        5
 70
     0
 43
0.0
 10
3.782983
 20
15.663802
 42
0.002805
 10
3.781338
 20
15.957001
 42
0.003966
 10
3.777366
 20
16.164363
 42
0.009557
 10
3.767961
 20
16.367809
 42
0.395212
 10
3.763806
 20
16.371702
 42
0.395212
  0
LWPOLYLINE
  5
F919F
100
AcDbEntity
  8
OBJHOUSING
 62
     7
100
AcDbPolyline
 90
        3
 70
     0
 43
0.0
 10
3.192433
 20
15.663802
 42
0.003113
 10
3.190744
 20
15.934962
 42
0.002215
 10
3.189114
 20
16.031502
 42
0.010601
  0
LWPOLYLINE
  5
F91A4
100
AcDbEntity
  8
OBJHOUSING
 62
     7
100
AcDbPolyline
 90
        5
 70
     0
 43
0.0
 10
3.310543
 20
15.663802
 42
0.002805
 10
3.308898
 20
15.957001
 42
0.003966
 10
3.304926
 20
16.164363
 42
0.009557
 10
3.295521
 20
16.367809
 42
0.395212
 10
3.291366
 20
16.371702
 42
0.395212
  0
LWPOLYLINE
  5
F91AB
100
AcDbEntity
  8
OBJHOUSING
 62
     7
100
AcDbPolyline
 90
        5
 70
     0
 43
0.0
 10
3.231803
 20
15.663802
 42
0.002805
 10
3.230158
 20
15.957001
 42
0.003966
 10
3.226186
 20
16.164363
 42
0.009557
 10
3.216781
 20
16.367809
 42
0.395212
 10
3.212626
 20
16.371702
 42
0.395212
  0
LWPOLYLINE
  5
F91B2
100
AcDbEntity
  8
OBJHOUSING
 62
     7
100
AcDbPolyline
 90
        5
 70
     0
 43
0.0
 10
3.271173
 20
15.663802
 42
0.003113
 10
3.269484
 20
15.934962
 42
0.004401
 10
3.265407
 20
16.126745
 42
0.010601
 10
3.255774
 20
16.314516
 42
0.393146
 10
3.251488
 20
16.318502
 42
0.393146
  0
LWPOLYLINE
  5
F91B9
100
AcDbEntity
  8
OBJHOUSING
 62
     7
100
AcDbPolyline
 90
        5
 70
     0
 43
0.0
 10
3.389283
 20
15.663802
 42
0.002805
 10
3.387638
 20
15.957001
 42
0.003966
 10
3.383666
 20
16.164363
 42
0.009557
 10
3.374261
 20
16.367809
 42
0.395212
 10
3.370106
 20
16.371702
 42
0.395212
  0
LWPOLYLINE
  5
F91C0
100
AcDbEntity
  8
OBJHOUSING
 62
     7
100
AcDbPolyline
 90
        5
 70
     0
 43
0.0
 10
3.349913
 20
15.663802
 42
0.003113
 10
3.348224
 20
15.934962
 42
0.004401
 10
3.344147
 20
16.126745
 42
0.010601
 10
3.334514
 20
16.314516
 42
0.393146
 10
3.330228
 20
16.318502
 42
0.393146
  0
LWPOLYLINE
  5
F91C7
100
AcDbEntity
  8
OBJHOUSING
 62
     7
100
AcDbPolyline
 90
        5
 70
     0
 43
0.0
 10
3.428653
 20
15.663802
 42
0.003113
 10
3.426964
 20
15.934962
 42
0.004401
 10
3.422887
 20
16.126745
 42
0.010601
 10
3.413254
 20
16.314516
 42
0.393146
 10
3.408968
 20
16.318502
 42
0.393146
  0
LWPOLYLINE
  5
F91CE
100
AcDbEntity
  8
OBJNUT
 62
     7
100
AcDbPolyline
 90
        9
 70
     0
 43
0.0
 10
3.629829
 20
15.08448
 42
0.364793
 10
3.639457
 20
15.092582
 42
0.024994
 10
3.65914
 20
15.253581
 42
0.010486
 10
3.667728
 20
15.422811
 42
0.007433
 10
3.671281
 20
15.66183
 42
0.007433
 10
3.667728
 20
15.900849
 42
0.010486
 10
3.65914
 20
16.070078
 42
0.024994
 10
3.639457
 20
16.231077
 42
0.364793
 10
3.629829
 20
16.23918
 42
0.364793
  0
LWPOLYLINE
  5
F91D9
100
AcDbEntity
  8
OBJNUT
 62
     7
100
AcDbPolyline
 90
        9
 70
     0
 43
0.0
 10
3.462733
 20
16.23918
 42
0.364793
 10
3.453105
 20
16.231077
 42
0.024994
 10
3.433422
 20
16.070078
 42
0.010486
 10
3.424835
 20
15.900849
 42
0.007433
 10
3.421281
 20
15.66183
 42
0.007433
 10
3.424835
 20
15.422811
 42
0.010486
 10
3.433422
 20
15.253581
 42
0.024994
 10
3.453105
 20
15.092582
 42
0.364793
 10
3.462733
 20
15.08448
 42
0.364793
  0
LINE
  5
F91E4
100
AcDbEntity
  8
OBJHOUSING
 62
     7
100
AcDbLine
 10
3.189114
 20
16.119126
 30
0.0
 11
3.189114
 21
15.191094
 31
0.0
  0
LINE
  5
F91E5
100
AcDbEntity
  8
0
 62
     7
100
AcDbLine
 10
3.064114
 20
15.34933
 30
0.0
 11
3.064114
 21
15.97433
 31
0.0
  0
LINE
  5
F91E6
100
AcDbEntity
  8
0
 62
     7
100
AcDbLine
 10
3.064114
 20
15.97433
 30
0.0
 11
3.064114
 21
15.34933
 31
0.0
  0
LINE
  5
F91E7
100
AcDbEntity
  8
0
 62
     7
100
AcDbLine
 10
3.064114
 20
15.97433
 30
0.0
 11
3.064114
 21
15.34933
 31
0.0
  0
LINE
  5
F91E8
100
AcDbEntity
  8
OBJHOUSING
 62
     7
100
AcDbLine
 10
3.421281
 20
14.970673
 30
0.0
 11
3.410491
 21
14.955902
 31
0.0
  0
LINE
  5
F91E9
100
AcDbEntity
  8
OBJHOUSING
 62
     7
100
AcDbLine
 10
3.291873
 20
15.009102
 30
0.0
 11
3.328746
 21
14.958626
 31
0.0
  0
LINE
  5
F91EA
100
AcDbEntity
  8
OBJHOUSING
 62
     7
100
AcDbLine
 10
3.189114
 20
15.191094
 30
0.0
 11
3.160545
 21
15.1347
 31
0.0
  0
LINE
  5
F91EB
100
AcDbEntity
  8
OBJHOUSING
 62
     7
100
AcDbLine
 10
3.081805
 20
15.1347
 30
0.0
 11
3.040718
 21
15.200859
 31
0.0
  0
LINE
  5
F91EC
100
AcDbEntity
  8
OBJHOUSING
 62
     7
100
AcDbLine
 10
3.119229
 20
15.208573
 30
0.0
 11
3.081805
 21
15.1347
 31
0.0
  0
LINE
  5
F91ED
100
AcDbEntity
  8
OBJHOUSING
 62
     7
100
AcDbLine
 10
3.160545
 20
15.1347
 30
0.0
 11
3.119229
 21
15.208573
 31
0.0
  0
LWPOLYLINE
  5
F91EE
100
AcDbEntity
  8
OBJHOUSING
 62
     7
100
AcDbPolyline
 90
        3
 70
     0
 43
0.0
 10
3.081805
 20
15.1347
 42
0.008217
 10
3.09036
 20
14.959794
 42
0.395212
 10
3.094516
 20
14.955902
 42
0.395212
  0
LWPOLYLINE
  5
F91F3
100
AcDbEntity
  8
OBJHOUSING
 62
     7
100
AcDbPolyline
 90
        3
 70
     0
 43
0.0
 10
3.160545
 20
15.1347
 42
0.008217
 10
3.1691
 20
14.959794
 42
0.395212
 10
3.173256
 20
14.955902
 42
0.395212
  0
LWPOLYLINE
  5
F91F8
100
AcDbEntity
  8
OBJHOUSING
 62
     7
100
AcDbPolyline
 90
        4
 70
     0
 43
0.0
 10
3.119229
 20
15.208573
 42
0.000177
 10
3.119458
 20
15.200859
 42
0.010601
 10
3.129092
 20
15.013088
 42
0.393146
 10
3.133378
 20
15.009102
 42
0.393146
  0
LWPOLYLINE
  5
F91FE
100
AcDbEntity
  8
OBJHOUSING
 62
     7
100
AcDbPolyline
 90
        4
 70
     0
 43
0.0
 10
3.040489
 20
15.208573
 42
0.000177
 10
3.040718
 20
15.200859
 42
0.010601
 10
3.050352
 20
15.013088
 42
0.393146
 10
3.054638
 20
15.009102
 42
0.393146
  0
LINE
  5
F9204
100
AcDbEntity
  8
OBJHOUSING
 62
     7
100
AcDbLine
 10
3.291873
 20
15.009102
 30
0.0
 11
3.253011
 21
14.955902
 31
0.0
  0
LINE
  5
F9205
100
AcDbEntity
  8
OBJHOUSING
 62
     7
100
AcDbLine
 10
3.213133
 20
15.009102
 30
0.0
 11
3.251996
 21
14.955902
 31
0.0
  0
LINE
  5
F9206
100
AcDbEntity
  8
OBJHOUSING
 62
     7
100
AcDbLine
 10
3.134393
 20
15.009102
 30
0.0
 11
3.095531
 21
14.955902
 31
0.0
  0
LINE
  5
F9207
100
AcDbEntity
  8
OBJHOUSING
 62
     7
100
AcDbLine
 10
3.134393
 20
15.009102
 30
0.0
 11
3.173256
 21
14.955902
 31
0.0
  0
LINE
  5
F9208
100
AcDbEntity
  8
OBJHOUSING
 62
     7
100
AcDbLine
 10
3.055653
 20
15.009102
 30
0.0
 11
3.016791
 21
14.955902
 31
0.0
  0
LINE
  5
F9209
100
AcDbEntity
  8
OBJHOUSING
 62
     7
100
AcDbLine
 10
3.055653
 20
15.009102
 30
0.0
 11
3.094516
 21
14.955902
 31
0.0
  0
LINE
  5
F920A
100
AcDbEntity
  8
OBJHOUSING
 62
     7
100
AcDbLine
 10
3.213133
 20
15.009102
 30
0.0
 11
3.174271
 21
14.955902
 31
0.0
  0
LINE
  5
F920B
100
AcDbEntity
  8
OBJHOUSING
 62
     7
100
AcDbLine
 10
3.370613
 20
15.009102
 30
0.0
 11
3.407486
 21
14.958626
 31
0.0
  0
LINE
  5
F920C
100
AcDbEntity
  8
OBJHOUSING
 62
     7
100
AcDbLine
 10
3.370613
 20
15.009102
 30
0.0
 11
3.331751
 21
14.955902
 31
0.0
  0
LWPOLYLINE
  5
F920D
100
AcDbEntity
  8
OBJHOUSING
 62
     7
100
AcDbPolyline
 90
        5
 70
     0
 43
0.0
 10
3.349913
 20
15.663802
 42
0.003113
 10
3.351601
 20
15.392641
 42
0.004401
 10
3.355678
 20
15.200859
 42
0.010601
 10
3.365312
 20
15.013088
 42
0.393146
 10
3.369598
 20
15.009102
 42
0.393146
  0
LWPOLYLINE
  5
F9214
100
AcDbEntity
  8
OBJHOUSING
 62
     7
100
AcDbPolyline
 90
        5
 70
     0
 43
0.0
 10
3.390298
 20
15.663802
 42
0.002805
 10
3.391943
 20
15.370602
 42
0.003966
 10
3.395915
 20
15.163241
 42
0.009557
 10
3.40532
 20
14.959794
 42
0.395212
 10
3.409476
 20
14.955902
 42
0.395212
  0
LWPOLYLINE
  5
F921B
100
AcDbEntity
  8
OBJHOUSING
 62
     7
100
AcDbPolyline
 90
        5
 70
     0
 43
0.0
 10
3.271173
 20
15.663802
 42
0.003113
 10
3.272861
 20
15.392641
 42
0.004401
 10
3.276938
 20
15.200859
 42
0.010601
 10
3.286572
 20
15.013088
 42
0.393146
 10
3.290858
 20
15.009102
 42
0.393146
  0
LWPOLYLINE
  5
F9222
100
AcDbEntity
  8
OBJHOUSING
 62
     7
100
AcDbPolyline
 90
        5
 70
     0
 43
0.0
 10
3.311558
 20
15.663802
 42
0.002805
 10
3.313203
 20
15.370602
 42
0.003966
 10
3.317175
 20
15.163241
 42
0.009557
 10
3.32658
 20
14.959794
 42
0.395212
 10
3.330736
 20
14.955902
 42
0.395212
  0
LWPOLYLINE
  5
F9229
100
AcDbEntity
  8
OBJHOUSING
 62
     7
100
AcDbPolyline
 90
        5
 70
     0
 43
0.0
 10
3.192433
 20
15.663802
 42
0.003113
 10
3.194121
 20
15.392641
 42
0.004401
 10
3.198198
 20
15.200859
 42
0.010601
 10
3.207832
 20
15.013088
 42
0.393146
 10
3.212118
 20
15.009102
 42
0.393146
  0
LWPOLYLINE
  5
F9230
100
AcDbEntity
  8
OBJHOUSING
 62
     7
100
AcDbPolyline
 90
        5
 70
     0
 43
0.0
 10
3.232818
 20
15.663802
 42
0.002805
 10
3.234463
 20
15.370602
 42
0.003966
 10
3.238435
 20
15.163241
 42
0.009557
 10
3.24784
 20
14.959794
 42
0.395212
 10
3.251996
 20
14.955902
 42
0.395212
  0
LINE
  5
F9237
100
AcDbEntity
  8
OBJHOUSING
 62
     7
100
AcDbLine
 10
3.764313
 20
15.009102
 30
0.0
 11
3.725451
 21
14.955902
 31
0.0
  0
LWPOLYLINE
  5
F9238
100
AcDbEntity
  8
OBJHOUSING
 62
     7
100
AcDbPolyline
 90
        3
 70
     0
 43
0.0
 10
3.671281
 20
15.180966
 42
0.009479
 10
3.680272
 20
15.013088
 42
0.393146
 10
3.684558
 20
15.009102
 42
0.393146
  0
LINE
  5
F923D
100
AcDbEntity
  8
OBJNUT
 62
     7
100
AcDbLine
 10
3.462733
 20
15.08448
 30
0.0
 11
3.629829
 21
15.08448
 31
0.0
  0
LINE
  5
F923E
100
AcDbEntity
  8
OBJHOUSING
 62
     7
100
AcDbLine
 10
3.685573
 20
15.009102
 30
0.0
 11
3.671281
 21
14.989537
 31
0.0
  0
LINE
  5
F923F
100
AcDbEntity
  8
OBJHOUSING
 62
     7
100
AcDbLine
 10
3.685573
 20
15.009102
 30
0.0
 11
3.724436
 21
14.955902
 31
0.0
  0
LINE
  5
F9240
100
AcDbEntity
  8
OBJHOUSING
 62
     7
100
AcDbLine
 10
3.764313
 20
15.009102
 30
0.0
 11
3.803176
 21
14.955902
 31
0.0
  0
LWPOLYLINE
  5
F9241
100
AcDbEntity
  8
OBJHOUSING
 62
     7
100
AcDbPolyline
 90
        5
 70
     0
 43
0.0
 10
3.705258
 20
15.663802
 42
0.002805
 10
3.706903
 20
15.370602
 42
0.003966
 10
3.710875
 20
15.163241
 42
0.009557
 10
3.72028
 20
14.959794
 42
0.395212
 10
3.724436
 20
14.955902
 42
0.395212
  0
LWPOLYLINE
  5
F9248
100
AcDbEntity
  8
OBJHOUSING
 62
     7
100
AcDbPolyline
 90
        5
 70
     0
 43
0.0
 10
3.783998
 20
15.663802
 42
0.002805
 10
3.785643
 20
15.370602
 42
0.003966
 10
3.789615
 20
15.163241
 42
0.009557
 10
3.79902
 20
14.959794
 42
0.395212
 10
3.803176
 20
14.955902
 42
0.395212
  0
LWPOLYLINE
  5
F924F
100
AcDbEntity
  8
OBJHOUSING
 62
     7
100
AcDbPolyline
 90
        5
 70
     0
 43
0.0
 10
3.743613
 20
15.663802
 42
0.003113
 10
3.745301
 20
15.392641
 42
0.004401
 10
3.749378
 20
15.200859
 42
0.010601
 10
3.759012
 20
15.013088
 42
0.393146
 10
3.763298
 20
15.009102
 42
0.393146
  0
LINE
  5
F9256
100
AcDbEntity
  8
OBJHOUSING
 62
     7
100
AcDbLine
 10
3.421281
 20
16.333968
 30
0.0
 11
3.409983
 21
16.318502
 31
0.0
  0
LINE
  5
F9257
100
AcDbEntity
  8
OBJHOUSING
 62
     7
100
AcDbLine
 10
3.291366
 20
16.371702
 30
0.0
 11
3.330228
 21
16.318502
 31
0.0
  0
LWPOLYLINE
  5
F9258
100
AcDbEntity
  8
OBJHOUSING
 62
     7
100
AcDbPolyline
 90
        4
 70
     0
 43
0.0
 10
3.187012
 20
16.115086
 42
0.000268
 10
3.186667
 20
16.126745
 42
0.010601
 10
3.177034
 20
16.314516
 42
0.393146
 10
3.172748
 20
16.318502
 42
0.393146
  0
LINE
  5
F925E
100
AcDbEntity
  8
OBJHOUSING
 62
     7
100
AcDbLine
 10
3.189114
 20
16.119126
 30
0.0
 11
3.187012
 21
16.115086
 31
0.0
  0
LINE
  5
F925F
100
AcDbEntity
  8
OBJHOUSING
 62
     7
100
AcDbLine
 10
3.187012
 20
16.115086
 30
0.0
 11
3.146723
 21
16.18896
 31
0.0
  0
LINE
  5
F9260
100
AcDbEntity
  8
OBJHOUSING
 62
     7
100
AcDbLine
 10
3.067983
 20
16.18896
 30
0.0
 11
3.029532
 21
16.115086
 31
0.0
  0
LINE
  5
F9261
100
AcDbEntity
  8
OBJHOUSING
 62
     7
100
AcDbLine
 10
3.108272
 20
16.115086
 30
0.0
 11
3.067983
 21
16.18896
 31
0.0
  0
LINE
  5
F9262
100
AcDbEntity
  8
OBJHOUSING
 62
     7
100
AcDbLine
 10
3.146723
 20
16.18896
 30
0.0
 11
3.108272
 21
16.115086
 31
0.0
  0
LWPOLYLINE
  5
F9263
100
AcDbEntity
  8
OBJHOUSING
 62
     7
100
AcDbPolyline
 90
        3
 70
     0
 43
0.0
 10
3.067983
 20
16.18896
 42
0.008402
 10
3.059301
 20
16.367809
 42
0.395212
 10
3.055146
 20
16.371702
 42
0.395212
  0
LWPOLYLINE
  5
F9268
100
AcDbEntity
  8
OBJHOUSING
 62
     7
100
AcDbPolyline
 90
        3
 70
     0
 43
0.0
 10
3.146723
 20
16.18896
 42
0.008402
 10
3.138041
 20
16.367809
 42
0.395212
 10
3.133886
 20
16.371702
 42
0.395212
  0
LWPOLYLINE
  5
F926D
100
AcDbEntity
  8
OBJHOUSING
 62
     7
100
AcDbPolyline
 90
        4
 70
     0
 43
0.0
 10
3.108272
 20
16.115086
 42
0.000268
 10
3.107927
 20
16.126745
 42
0.010601
 10
3.098294
 20
16.314516
 42
0.393146
 10
3.094008
 20
16.318502
 42
0.393146
  0
LWPOLYLINE
  5
F9273
100
AcDbEntity
  8
OBJHOUSING
 62
     7
100
AcDbPolyline
 90
        4
 70
     0
 43
0.0
 10
3.029532
 20
16.115086
 42
0.000268
 10
3.029187
 20
16.126745
 42
0.010601
 10
3.019554
 20
16.314516
 42
0.393146
 10
3.015268
 20
16.318502
 42
0.393146
  0
LINE
  5
F9279
100
AcDbEntity
  8
OBJHOUSING
 62
     7
100
AcDbLine
 10
3.291366
 20
16.371702
 30
0.0
 11
3.252503
 21
16.318502
 31
0.0
  0
LINE
  5
F927A
100
AcDbEntity
  8
OBJHOUSING
 62
     7
100
AcDbLine
 10
3.212626
 20
16.371702
 30
0.0
 11
3.251488
 21
16.318502
 31
0.0
  0
LINE
  5
F927B
100
AcDbEntity
  8
OBJHOUSING
 62
     7
100
AcDbLine
 10
3.133886
 20
16.371702
 30
0.0
 11
3.172748
 21
16.318502
 31
0.0
  0
LINE
  5
F927C
100
AcDbEntity
  8
OBJHOUSING
 62
     7
100
AcDbLine
 10
3.133886
 20
16.371702
 30
0.0
 11
3.095023
 21
16.318502
 31
0.0
  0
LINE
  5
F927D
100
AcDbEntity
  8
OBJHOUSING
 62
     7
100
AcDbLine
 10
3.055146
 20
16.371702
 30
0.0
 11
3.094008
 21
16.318502
 31
0.0
  0
LINE
  5
F927E
100
AcDbEntity
  8
OBJHOUSING
 62
     7
100
AcDbLine
 10
3.055146
 20
16.371702
 30
0.0
 11
3.016283
 21
16.318502
 31
0.0
  0
LINE
  5
F927F
100
AcDbEntity
  8
OBJHOUSING
 62
     7
100
AcDbLine
 10
3.212626
 20
16.371702
 30
0.0
 11
3.173763
 21
16.318502
 31
0.0
  0
LINE
  5
F9280
100
AcDbEntity
  8
OBJHOUSING
 62
     7
100
AcDbLine
 10
3.370106
 20
16.371702
 30
0.0
 11
3.408968
 21
16.318502
 31
0.0
  0
LINE
  5
F9281
100
AcDbEntity
  8
OBJHOUSING
 62
     7
100
AcDbLine
 10
3.370106
 20
16.371702
 30
0.0
 11
3.331243
 21
16.318502
 31
0.0
  0
LINE
  5
F9283
100
AcDbEntity
  8
OBJHOUSING
 62
     7
100
AcDbLine
 10
3.763806
 20
16.371702
 30
0.0
 11
3.724943
 21
16.318502
 31
0.0
  0
LINE
  5
F9284
100
AcDbEntity
  8
OBJNUT
 62
     7
100
AcDbLine
 10
3.462733
 20
16.23918
 30
0.0
 11
3.629829
 21
16.23918
 31
0.0
  0
LINE
  5
F9285
100
AcDbEntity
  8
OBJHOUSING
 62
     7
100
AcDbLine
 10
3.685066
 20
16.371702
 30
0.0
 11
3.671281
 21
16.352832
 31
0.0
  0
LINE
  5
F9286
100
AcDbEntity
  8
OBJHOUSING
 62
     7
100
AcDbLine
 10
3.685066
 20
16.371702
 30
0.0
 11
3.723928
 21
16.318502
 31
0.0
  0
LINE
  5
F9287
100
AcDbEntity
  8
OBJHOUSING
 62
     7
100
AcDbLine
 10
3.763806
 20
16.371702
 30
0.0
 11
3.802668
 21
16.318502
 31
0.0
  0
LINE
  5
F9288
100
AcDbEntity
  8
OBJNUT
 62
     7
100
AcDbLine
 10
3.462733
 20
16.81653
 30
0.0
 11
3.629829
 21
16.81653
 31
0.0
  0
LINE
  5
F9289
100
AcDbEntity
  8
0
 62
     7
100
AcDbLine
 10
4.362427
 20
15.95683
 30
0.0
 11
4.730607
 21
15.95683
 31
0.0
  0
LINE
  5
F928A
100
AcDbEntity
  8
0
 62
     7
100
AcDbLine
 10
4.362427
 20
15.36683
 30
0.0
 11
4.730607
 21
15.36683
 31
0.0
  0
LWPOLYLINE
  5
F928B
100
AcDbEntity
  8
OBJHOUSING
 62
     7
100
AcDbPolyline
 90
        5
 70
     0
 43
0.0
 10
3.901093
 20
15.663802
 42
0.003113
 10
3.899404
 20
15.934962
 42
0.004401
 10
3.895327
 20
16.126745
 42
0.010601
 10
3.885694
 20
16.314516
 42
0.393146
 10
3.881408
 20
16.318502
 42
0.393146
  0
LWPOLYLINE
  5
F9292
100
AcDbEntity
  8
OBJHOUSING
 62
     7
100
AcDbPolyline
 90
        5
 70
     0
 43
0.0
 10
3.861723
 20
15.663802
 42
0.002805
 10
3.860078
 20
15.957001
 42
0.003966
 10
3.856106
 20
16.164363
 42
0.009557
 10
3.846701
 20
16.367809
 42
0.395212
 10
3.842546
 20
16.371702
 42
0.395212
  0
LWPOLYLINE
  5
F9299
100
AcDbEntity
  8
OBJHOUSING
 62
     7
100
AcDbPolyline
 90
        5
 70
     0
 43
0.0
 10
3.979833
 20
15.663802
 42
0.003113
 10
3.978144
 20
15.934962
 42
0.004401
 10
3.974067
 20
16.126745
 42
0.010601
 10
3.964434
 20
16.314516
 42
0.393146
 10
3.960148
 20
16.318502
 42
0.393146
  0
LWPOLYLINE
  5
F92A0
100
AcDbEntity
  8
OBJHOUSING
 62
     7
100
AcDbPolyline
 90
        5
 70
     0
 43
0.0
 10
3.940463
 20
15.663802
 42
0.002805
 10
3.938818
 20
15.957001
 42
0.003966
 10
3.934846
 20
16.164363
 42
0.009557
 10
3.925441
 20
16.367809
 42
0.395212
 10
3.921286
 20
16.371702
 42
0.395212
  0
LINE
  5
F92A7
100
AcDbEntity
  8
0
 62
     7
100
AcDbLine
 10
4.299607
 20
16.13083
 30
0.0
 11
4.299607
 21
15.19283
 31
0.0
  0
LINE
  5
F92A8
100
AcDbEntity
  8
OBJHOUSING
 62
     7
100
AcDbLine
 10
4.001607
 20
16.36973
 30
0.0
 11
4.001607
 21
15.01435
 31
0.0
  0
LINE
  5
F92A9
100
AcDbEntity
  8
OBJBEAM
 62
     7
100
AcDbLine
 10
4.237607
 20
16.28683
 30
0.0
 11
4.237607
 21
15.03683
 31
0.0
  0
LINE
  5
F92AA
100
AcDbEntity
  8
OBJBEAM
 62
     7
100
AcDbLine
 10
4.237607
 20
15.03683
 30
0.0
 11
4.001607
 21
15.03683
 31
0.0
  0
LINE
  5
F92AB
100
AcDbEntity
  8
OBJHOUSING
 62
     7
100
AcDbLine
 10
3.921793
 20
15.009102
 30
0.0
 11
3.882931
 21
14.955902
 31
0.0
  0
LINE
  5
F92AC
100
AcDbEntity
  8
OBJHOUSING
 62
     7
100
AcDbLine
 10
3.921793
 20
15.009102
 30
0.0
 11
3.960656
 21
14.955902
 31
0.0
  0
LINE
  5
F92AD
100
AcDbEntity
  8
OBJHOUSING
 62
     7
100
AcDbLine
 10
4.000533
 20
15.009102
 30
0.0
 11
3.961671
 21
14.955902
 31
0.0
  0
LINE
  5
F92AE
100
AcDbEntity
  8
OBJHOUSING
 62
     7
100
AcDbLine
 10
3.843053
 20
15.009102
 30
0.0
 11
3.881916
 21
14.955902
 31
0.0
  0
LWPOLYLINE
  5
F92AF
100
AcDbEntity
  8
OBJHOUSING
 62
     7
100
AcDbPolyline
 90
        5
 70
     0
 43
0.0
 10
3.862738
 20
15.663802
 42
0.002805
 10
3.864383
 20
15.370602
 42
0.003966
 10
3.868355
 20
15.163241
 42
0.009557
 10
3.87776
 20
14.959794
 42
0.395212
 10
3.881916
 20
14.955902
 42
0.395212
  0
LWPOLYLINE
  5
F92B6
100
AcDbEntity
  8
OBJHOUSING
 62
     7
100
AcDbPolyline
 90
        5
 70
     0
 43
0.0
 10
3.941478
 20
15.663802
 42
0.002805
 10
3.943123
 20
15.370602
 42
0.003966
 10
3.947095
 20
15.163241
 42
0.009557
 10
3.9565
 20
14.959794
 42
0.395212
 10
3.960656
 20
14.955902
 42
0.395212
  0
LWPOLYLINE
  5
F92BD
100
AcDbEntity
  8
OBJHOUSING
 62
     7
100
AcDbPolyline
 90
        5
 70
     0
 43
0.0
 10
3.901093
 20
15.663802
 42
0.003113
 10
3.902781
 20
15.392641
 42
0.004401
 10
3.906858
 20
15.200859
 42
0.010601
 10
3.916492
 20
15.013088
 42
0.393146
 10
3.920778
 20
15.009102
 42
0.393146
  0
LWPOLYLINE
  5
F92C4
100
AcDbEntity
  8
OBJHOUSING
 62
     7
100
AcDbPolyline
 90
        5
 70
     0
 43
0.0
 10
3.979833
 20
15.663802
 42
0.003113
 10
3.981521
 20
15.392641
 42
0.004401
 10
3.985598
 20
15.200859
 42
0.010601
 10
3.995232
 20
15.013088
 42
0.393146
 10
3.999518
 20
15.009102
 42
0.393146
  0
LINE
  5
F92CB
100
AcDbEntity
  8
0
 62
     7
100
AcDbLine
 10
4.299607
 20
15.41068
 30
0.0
 11
4.314607
 21
15.41068
 31
0.0
  0
LINE
  5
F92CC
100
AcDbEntity
  8
0
 62
     7
100
AcDbLine
 10
4.314607
 20
15.19398
 30
0.0
 11
4.299607
 21
15.19398
 31
0.0
  0
ARC
  5
F92CD
100
AcDbEntity
  8
0
 62
     7
100
AcDbCircle
 10
4.314607
 20
15.24198
 30
0.0
 40
0.048
100
AcDbArc
 50
270.0
 51
0.0
  0
LINE
  5
F92CE
100
AcDbEntity
  8
0
 62
     7
100
AcDbLine
 10
4.362607
 20
15.36268
 30
0.0
 11
4.362607
 21
15.24198
 31
0.0
  0
LINE
  5
F92CF
100
AcDbEntity
  8
0
 62
     7
100
AcDbLine
 10
4.237607
 20
15.19283
 30
0.0
 11
4.299607
 21
15.19283
 31
0.0
  0
LINE
  5
F92D0
100
AcDbEntity
  8
0
 62
     7
100
AcDbLine
 10
4.299607
 20
15.41068
 30
0.0
 11
4.299607
 21
15.19357
 31
0.0
  0
ARC
  5
F92D1
100
AcDbEntity
  8
0
 62
     7
100
AcDbCircle
 10
4.314607
 20
15.36268
 30
0.0
 40
0.048
100
AcDbArc
 50
0.0
 51
90.0
  0
LINE
  5
F92D2
100
AcDbEntity
  8
0
 62
     7
100
AcDbLine
 10
4.299607
 20
15.41068
 30
0.0
 11
4.299607
 21
15.19398
 31
0.0
  0
LINE
  5
F92D3
100
AcDbEntity
  8
0
 62
     7
100
AcDbLine
 10
4.314607
 20
15.41068
 30
0.0
 11
4.314607
 21
15.19398
 31
0.0
  0
LINE
  5
F92D4
100
AcDbEntity
  8
OBJBEAM
 62
     7
100
AcDbLine
 10
4.237607
 20
16.28683
 30
0.0
 11
4.001607
 21
16.28683
 31
0.0
  0
LINE
  5
F92D5
100
AcDbEntity
  8
OBJHOUSING
 62
     7
100
AcDbLine
 10
3.921286
 20
16.371702
 30
0.0
 11
3.882423
 21
16.318502
 31
0.0
  0
LINE
  5
F92D6
100
AcDbEntity
  8
OBJHOUSING
 62
     7
100
AcDbLine
 10
3.921286
 20
16.371702
 30
0.0
 11
3.960148
 21
16.318502
 31
0.0
  0
LINE
  5
F92D7
100
AcDbEntity
  8
OBJHOUSING
 62
     7
100
AcDbLine
 10
4.000026
 20
16.371702
 30
0.0
 11
3.961163
 21
16.318502
 31
0.0
  0
LINE
  5
F92D8
100
AcDbEntity
  8
OBJHOUSING
 62
     7
100
AcDbLine
 10
3.842546
 20
16.371702
 30
0.0
 11
3.881408
 21
16.318502
 31
0.0
  0
ARC
  5
F92D9
100
AcDbEntity
  8
0
 62
     7
100
AcDbCircle
 10
4.314607
 20
16.08168
 30
0.0
 40
0.048
100
AcDbArc
 50
0.0
 51
90.0
  0
LINE
  5
F92DA
100
AcDbEntity
  8
0
 62
     7
100
AcDbLine
 10
4.299607
 20
16.12968
 30
0.0
 11
4.314607
 21
16.12968
 31
0.0
  0
LINE
  5
F92DB
100
AcDbEntity
  8
0
 62
     7
100
AcDbLine
 10
4.237607
 20
16.13083
 30
0.0
 11
4.299607
 21
16.13083
 31
0.0
  0
ARC
  5
F92DC
100
AcDbEntity
  8
0
 62
     7
100
AcDbCircle
 10
4.314607
 20
15.96098
 30
0.0
 40
0.048
100
AcDbArc
 50
270.0
 51
0.0
  0
LINE
  5
F92DD
100
AcDbEntity
  8
0
 62
     7
100
AcDbLine
 10
4.314607
 20
15.91298
 30
0.0
 11
4.299607
 21
15.91298
 31
0.0
  0
LINE
  5
F92DE
100
AcDbEntity
  8
0
 62
     7
100
AcDbLine
 10
4.299607
 20
16.13009
 30
0.0
 11
4.299607
 21
15.91298
 31
0.0
  0
LINE
  5
F92DF
100
AcDbEntity
  8
0
 62
     7
100
AcDbLine
 10
4.299607
 20
16.12968
 30
0.0
 11
4.299607
 21
15.91298
 31
0.0
  0
LINE
  5
F92E0
100
AcDbEntity
  8
0
 62
     7
100
AcDbLine
 10
4.314607
 20
16.12968
 30
0.0
 11
4.314607
 21
15.91298
 31
0.0
  0
LINE
  5
F92E1
100
AcDbEntity
  8
0
 62
     7
100
AcDbLine
 10
4.362607
 20
16.08168
 30
0.0
 11
4.362607
 21
15.96098
 31
0.0
  0
DIMENSION
  5
F9851
100
AcDbEntity
  8
DIM
 62
     7
100
AcDbDimension
  2
*D13
 10
1.20957
 20
17.455837
 30
0.0
 11
2.51457
 21
17.455837
 31
0.0
 12
3.000214
 22
5.749295
 32
0.0
100
AcDbAlignedDimension
 13
0.95957
 23
16.527855
 33
0.0
 14
1.20957
 24
16.527855
 34
0.0
100
AcDbRotatedDimension
  0
DIMENSION
  5
F9BA6
100
AcDbEntity
  8
DIM
 62
     7
100
AcDbDimension
  2
*D15
 10
27.199554
 20
21.957791
 30
0.0
 11
25.512061
 21
21.957791
 31
0.0
 12
8.101005
 22
5.879961
 32
0.0
100
AcDbAlignedDimension
 13
23.824568
 23
20.127565
 33
0.0
 14
27.199554
 24
20.752565
 34
0.0
100
AcDbRotatedDimension
  0
DIMENSION
  5
F9CDF
100
AcDbEntity
  8
DIM
 62
     7
100
AcDbDimension
  2
*D16
 10
0.374021
 20
18.766485
 30
0.0
 11
2.186628
 21
18.766485
 31
0.0
 12
3.000214
 22
5.749295
 32
0.0
100
AcDbAlignedDimension
 13
3.999234
 23
16.370404
 33
0.0
 14
0.374021
 24
16.256069
 34
0.0
100
AcDbRotatedDimension
  0
LWPOLYLINE
  5
F9CE0
100
AcDbEntity
  8
OBJNUT
 62
     7
100
AcDbPolyline
 90
        6
 70
     1
 43
0.0
 10
-5.645444
 20
15.08448
 10
-4.645444
 20
14.507129
 10
-3.645444
 20
15.08448
 10
-3.645444
 20
16.23918
 10
-4.645444
 20
16.81653
 10
-5.645444
 20
16.23918
  0
CIRCLE
  5
F9CE8
100
AcDbEntity
  8
OBJNUT
 62
     7
100
AcDbCircle
 10
-4.645444
 20
15.66183
 30
0.0
 40
1.0
  0
CIRCLE
  5
F9CE9
100
AcDbEntity
  8
OBJNUT
  6
HIDDEN
 62
     7
100
AcDbCircle
 10
-4.645444
 20
15.66183
 30
0.0
 40
0.71875
  0
CIRCLE
  5
F9CEA
100
AcDbEntity
  8
OBJNUT
 62
     7
100
AcDbCircle
 10
-4.645444
 20
15.66183
 30
0.0
 40
0.66605
  0
CIRCLE
  5
F9D35
100
AcDbEntity
  8
OBJNUT
 62
     7
100
AcDbCircle
 10
7.836319
 20
15.66183
 30
0.0
 40
1.0
  0
LWPOLYLINE
  5
F9D36
100
AcDbEntity
  8
OBJNUT
 62
     7
100
AcDbPolyline
 90
        6
 70
     1
 43
0.0
 10
6.836319
 20
15.08448
 10
7.836319
 20
14.507129
 10
8.836319
 20
15.08448
 10
8.836319
 20
16.23918
 10
7.836319
 20
16.81653
 10
6.836319
 20
16.23918
  0
DIMENSION
  5
F9F2A
100
AcDbEntity
  8
DIM
 62
     7
100
AcDbDimension
  2
*D17
 10
-3.645444
 20
14.177069
 30
0.0
 11
-2.280444
 21
14.177069
 31
0.0
 12
3.000214
 22
5.749295
 32
0.0
100
AcDbAlignedDimension
 13
-5.645444
 23
15.08448
 33
0.0
 14
-3.645444
 24
15.08448
 34
0.0
100
AcDbRotatedDimension
  0
DIMENSION
  5
FA13B
100
AcDbEntity
  8
DIM
 62
     7
100
AcDbDimension
  2
*D18
 10
-6.955418
 20
16.81653
 30
0.0
 11
-6.955418
 21
15.66183
 31
0.0
 12
3.000214
 22
5.749295
 32
0.0
100
AcDbAlignedDimension
 13
-4.645444
 23
14.507129
 33
0.0
 14
-4.645444
 24
16.81653
 34
0.0
 50
90.0
100
AcDbRotatedDimension
  0
LINE
  5
FA13C
100
AcDbEntity
  8
OBJWHEEL
  6
PHANTOM2
 62
     7
100
AcDbLine
 10
0.374021
 20
16.256069
 30
0.0
 11
0.374021
 21
15.06759
 31
0.0
  0
LINE
  5
FA13D
100
AcDbEntity
  8
OBJWHEEL
  6
PHANTOM2
 62
     7
100
AcDbLine
 10
-0.375979
 20
16.256069
 30
0.0
 11
-0.375979
 21
15.06759
 31
0.0
  0
LINE
  5
FA13E
100
AcDbEntity
  8
OBJWHEEL
  6
PHANTOM2
 62
     7
100
AcDbLine
 10
0.374021
 20
15.06759
 30
0.0
 11
-0.375979
 21
15.06759
 31
0.0
  0
LINE
  5
FA13F
100
AcDbEntity
  8
OBJWHEEL
  6
PHANTOM2
 62
     7
100
AcDbLine
 10
0.374021
 20
16.256069
 30
0.0
 11
-0.375979
 21
16.256069
 31
0.0
  0
TEXT
  5
26B117
100
AcDbEntity
  8
3
 62
     7
100
AcDbText
 10
-13.254372
 20
23.336706
 30
0.0
 40
0.088891
  1

  7
ITALICC
100
AcDbText
  0
TEXT
  5
26B118
100
AcDbEntity
  8
3
 62
     7
100
AcDbText
 10
-13.365486
 20
23.558934
 30
0.0
 40
0.088891
  1

  7
ITALICC
100
AcDbText
  0
TEXT
  5
26B119
100
AcDbEntity
  8
3
 62
     7
100
AcDbText
 10
-13.298818
 20
23.44782
 30
0.0
 40
0.088891
  1

  7
ITALICC
100
AcDbText
  0
TEXT
  5
26B11A
100
AcDbEntity
  8
3
 62
     7
100
AcDbText
 10
8.745628
 20
41.336706
 30
0.0
 40
0.088891
  1

  7
ITALICC
100
AcDbText
  0
TEXT
  5
26B11B
100
AcDbEntity
  8
3
 62
     7
100
AcDbText
 10
8.634514
 20
41.558934
 30
0.0
 40
0.088891
  1

  7
ITALICC
100
AcDbText
  0
TEXT
  5
26B11C
100
AcDbEntity
  8
3
 62
     7
100
AcDbText
 10
8.701182
 20
41.44782
 30
0.0
 40
0.088891
  1

  7
ITALICC
100
AcDbText
  0
TEXT
  5
26B12C
100
AcDbEntity
  8
3
 62
     7
100
AcDbText
 10
30.745628
 20
41.336706
 30
0.0
 40
0.088891
  1

  7
ITALICC
100
AcDbText
  0
TEXT
  5
26B12D
100
AcDbEntity
  8
3
 62
     7
100
AcDbText
 10
30.634514
 20
41.558934
 30
0.0
 40
0.088891
  1

  7
ITALICC
100
AcDbText
  0
TEXT
  5
26B12E
100
AcDbEntity
  8
3
 62
     7
100
AcDbText
 10
30.701182
 20
41.44782
 30
0.0
 40
0.088891
  1

  7
ITALICC
100
AcDbText
  0
TEXT
  5
26B150
100
AcDbEntity
  8
3
 62
     7
100
AcDbText
 10
-19.006472
 20
53.368772
 30
0.0
 40
0.044446
  1

  7
ITALICC
100
AcDbText
  0
TEXT
  5
26B151
100
AcDbEntity
  8
3
 62
     7
100
AcDbText
 10
-19.062029
 20
53.479886
 30
0.0
 40
0.044446
  1

  7
ITALICC
100
AcDbText
  0
TEXT
  5
26B152
100
AcDbEntity
  8
3
 62
     7
100
AcDbText
 10
-19.028694
 20
53.424329
 30
0.0
 40
0.044446
  1

  7
ITALICC
100
AcDbText
  0
TEXT
  5
26B153
100
AcDbEntity
  8
3
 62
     7
100
AcDbText
 10
7.681971
 20
23.336706
 30
0.0
 40
0.088891
  1

  7
ITALICC
100
AcDbText
  0
TEXT
  5
26B154
100
AcDbEntity
  8
3
 62
     7
100
AcDbText
 10
7.570857
 20
23.558934
 30
0.0
 40
0.088891
  1

  7
ITALICC
100
AcDbText
  0
TEXT
  5
26B155
100
AcDbEntity
  8
3
 62
     7
100
AcDbText
 10
7.637525
 20
23.44782
 30
0.0
 40
0.088891
  1

  7
ITALICC
100
AcDbText
  0
TEXT
  5
26B166
100
AcDbEntity
  8
3
 62
     7
100
AcDbText
 10
28.086485
 20
23.336706
 30
0.0
 40
0.088891
  1

  7
ITALICC
100
AcDbText
  0
TEXT
  5
26B167
100
AcDbEntity
  8
3
 62
     7
100
AcDbText
 10
27.975371
 20
23.558934
 30
0.0
 40
0.088891
  1

  7
ITALICC
100
AcDbText
  0
TEXT
  5
26B168
100
AcDbEntity
  8
3
 62
     7
100
AcDbText
 10
28.04204
 20
23.44782
 30
0.0
 40
0.088891
  1

  7
ITALICC
100
AcDbText
  0
TEXT
  5
26B1D4
100
AcDbEntity
  8
3
 62
     7
100
AcDbText
 10
7.681971
 20
54.168851
 30
0.0
 40
0.088891
  1

  7
ITALICC
100
AcDbText
  0
TEXT
  5
26B1D5
100
AcDbEntity
  8
3
 62
     7
100
AcDbText
 10
7.570857
 20
54.391079
 30
0.0
 40
0.088891
  1

  7
ITALICC
100
AcDbText
  0
TEXT
  5
26B1D6
100
AcDbEntity
  8
3
 62
     7
100
AcDbText
 10
7.637525
 20
54.279965
 30
0.0
 40
0.088891
  1

  7
ITALICC
100
AcDbText
  0
TEXT
  5
26B1E9
100
AcDbEntity
  8
3
 62
     7
100
AcDbText
 10
21.585047
 20
52.342469
 30
0.0
 40
0.044446
  1

  7
ITALICC
100
AcDbText
  0
TEXT
  5
26B1EA
100
AcDbEntity
  8
3
 62
     7
100
AcDbText
 10
21.52949
 20
52.453583
 30
0.0
 40
0.044446
  1

  7
ITALICC
100
AcDbText
  0
TEXT
  5
26B1EB
100
AcDbEntity
  8
3
 62
     7
100
AcDbText
 10
21.562824
 20
52.398026
 30
0.0
 40
0.044446
  1

  7
ITALICC
100
AcDbText
  0
TEXT
  5
26B4DA
100
AcDbEntity
  8
BORDER
 62
     2
100
AcDbText
 10
44.776916
 20
6.826664
 30
0.0
 40
0.060446
  1

100
AcDbText
  0
TEXT
  5
26B4DB
100
AcDbEntity
  8
BORDER
 62
     2
100
AcDbText
 10
44.776916
 20
7.076664
 30
0.0
 40
0.060446
  1

100
AcDbText
  0
TEXT
  5
26B4DC
100
AcDbEntity
  8
BORDER
 62
     2
100
AcDbText
 10
44.776916
 20
7.326664
 30
0.0
 40
0.060446
  1

100
AcDbText
  0
TEXT
  5
26B4DD
100
AcDbEntity
  8
BORDER
 62
     2
100
AcDbText
 10
44.776916
 20
7.576664
 30
0.0
 40
0.060446
  1

100
AcDbText
  0
TEXT
  5
26B4DE
100
AcDbEntity
  8
BORDER
 62
     2
100
AcDbText
 10
44.776916
 20
7.826664
 30
0.0
 40
0.060446
  1

100
AcDbText
  0
TEXT
  5
26B4DF
100
AcDbEntity
  8
BORDER
 62
     2
100
AcDbText
 10
44.776916
 20
9.326664
 30
0.0
 40
0.060446
  1

100
AcDbText
  0
TEXT
  5
26B4E0
100
AcDbEntity
  8
BORDER
 62
     2
100
AcDbText
 10
44.776916
 20
9.576664
 30
0.0
 40
0.060446
  1

100
AcDbText
  0
TEXT
  5
26B4E1
100
AcDbEntity
  8
BORDER
 62
     2
100
AcDbText
 10
44.776916
 20
9.826664
 30
0.0
 40
0.060446
  1

100
AcDbText
  0
TEXT
  5
26B4E2
100
AcDbEntity
  8
BORDER
 62
     2
100
AcDbText
 10
44.776916
 20
10.076664
 30
0.0
 40
0.060446
  1

100
AcDbText
  0
TEXT
  5
26B4E3
100
AcDbEntity
  8
BORDER
 62
     2
100
AcDbText
 10
44.776916
 20
10.326664
 30
0.0
 40
0.060446
  1

100
AcDbText
  0
TEXT
  5
26B4E4
100
AcDbEntity
  8
BORDER
 62
     2
100
AcDbText
 10
44.776916
 20
10.576664
 30
0.0
 40
0.060446
  1

100
AcDbText
  0
TEXT
  5
26B4E5
100
AcDbEntity
  8
3
 62
     7
100
AcDbText
 10
11.268908
 20
19.054003
 30
0.0
 40
0.088891
  1

  7
ITALICC
100
AcDbText
  0
TEXT
  5
26B4E6
100
AcDbEntity
  8
3
 62
     7
100
AcDbText
 10
11.157794
 20
19.27623
 30
0.0
 40
0.088891
  1

  7
ITALICC
100
AcDbText
  0
TEXT
  5
26B4E7
100
AcDbEntity
  8
3
 62
     7
100
AcDbText
 10
11.224463
 20
19.165117
 30
0.0
 40
0.088891
  1

  7
ITALICC
100
AcDbText
  0
TEXT
  5
26B4E8
100
AcDbEntity
  8
3
 62
     7
100
AcDbText
 10
33.268908
 20
37.054003
 30
0.0
 40
0.088891
  1

  7
ITALICC
100
AcDbText
  0
TEXT
  5
26B4E9
100
AcDbEntity
  8
3
 62
     7
100
AcDbText
 10
33.157794
 20
37.27623
 30
0.0
 40
0.088891
  1

  7
ITALICC
100
AcDbText
  0
TEXT
  5
26B4EA
100
AcDbEntity
  8
3
 62
     7
100
AcDbText
 10
33.224463
 20
37.165117
 30
0.0
 40
0.088891
  1

  7
ITALICC
100
AcDbText
  0
TEXT
  5
26B4EB
100
AcDbEntity
  8
3
 62
     7
100
AcDbText
 10
55.268908
 20
37.054003
 30
0.0
 40
0.088891
  1

  7
ITALICC
100
AcDbText
  0
TEXT
  5
26B4EC
100
AcDbEntity
  8
3
 62
     7
100
AcDbText
 10
55.157794
 20
37.27623
 30
0.0
 40
0.088891
  1

  7
ITALICC
100
AcDbText
  0
TEXT
  5
26B4ED
100
AcDbEntity
  8
3
 62
     7
100
AcDbText
 10
55.224463
 20
37.165117
 30
0.0
 40
0.088891
  1

  7
ITALICC
100
AcDbText
  0
TEXT
  5
26B500
100
AcDbEntity
  8
3
 62
     7
100
AcDbText
 10
5.516809
 20
49.086069
 30
0.0
 40
0.044446
  1

  7
ITALICC
100
AcDbText
  0
TEXT
  5
26B501
100
AcDbEntity
  8
3
 62
     7
100
AcDbText
 10
5.461252
 20
49.197183
 30
0.0
 40
0.044446
  1

  7
ITALICC
100
AcDbText
  0
TEXT
  5
26B502
100
AcDbEntity
  8
3
 62
     7
100
AcDbText
 10
5.494586
 20
49.141626
 30
0.0
 40
0.044446
  1

  7
ITALICC
100
AcDbText
  0
TEXT
  5
26B503
100
AcDbEntity
  8
3
 62
     7
100
AcDbText
 10
32.205251
 20
19.054003
 30
0.0
 40
0.088891
  1

  7
ITALICC
100
AcDbText
  0
TEXT
  5
26B504
100
AcDbEntity
  8
3
 62
     7
100
AcDbText
 10
32.094137
 20
19.27623
 30
0.0
 40
0.088891
  1

  7
ITALICC
100
AcDbText
  0
TEXT
  5
26B505
100
AcDbEntity
  8
3
 62
     7
100
AcDbText
 10
32.160806
 20
19.165117
 30
0.0
 40
0.088891
  1

  7
ITALICC
100
AcDbText
  0
TEXT
  5
26B506
100
AcDbEntity
  8
3
 62
     7
100
AcDbText
 10
52.609766
 20
19.054003
 30
0.0
 40
0.088891
  1

  7
ITALICC
100
AcDbText
  0
TEXT
  5
26B507
100
AcDbEntity
  8
3
 62
     7
100
AcDbText
 10
52.498652
 20
19.27623
 30
0.0
 40
0.088891
  1

  7
ITALICC
100
AcDbText
  0
TEXT
  5
26B508
100
AcDbEntity
  8
3
 62
     7
100
AcDbText
 10
52.56532
 20
19.165117
 30
0.0
 40
0.088891
  1

  7
ITALICC
100
AcDbText
  0
TEXT
  5
26B509
100
AcDbEntity
  8
3
 62
     7
100
AcDbText
 10
32.205251
 20
49.886148
 30
0.0
 40
0.088891
  1

  7
ITALICC
100
AcDbText
  0
TEXT
  5
26B50A
100
AcDbEntity
  8
3
 62
     7
100
AcDbText
 10
32.094137
 20
50.108376
 30
0.0
 40
0.088891
  1

  7
ITALICC
100
AcDbText
  0
TEXT
  5
26B50B
100
AcDbEntity
  8
3
 62
     7
100
AcDbText
 10
32.160806
 20
49.997262
 30
0.0
 40
0.088891
  1

  7
ITALICC
100
AcDbText
  0
TEXT
  5
26B51E
100
AcDbEntity
  8
3
 62
     7
100
AcDbText
 10
46.108328
 20
48.059765
 30
0.0
 40
0.044446
  1

  7
ITALICC
100
AcDbText
  0
TEXT
  5
26B51F
100
AcDbEntity
  8
3
 62
     7
100
AcDbText
 10
46.052771
 20
48.170879
 30
0.0
 40
0.044446
  1

  7
ITALICC
100
AcDbText
  0
TEXT
  5
26B520
100
AcDbEntity
  8
3
 62
     7
100
AcDbText
 10
46.086105
 20
48.115322
 30
0.0
 40
0.044446
  1

  7
ITALICC
100
AcDbText
  0
TEXT
  5
26B548
100
AcDbEntity
  8
3
 62
     7
100
AcDbText
 10
7.919492
 20
28.557401
 30
0.0
 40
0.044446
  1

  7
ITALICC
100
AcDbText
  0
TEXT
  5
26B549
100
AcDbEntity
  8
3
 62
     7
100
AcDbText
 10
7.863935
 20
28.668515
 30
0.0
 40
0.044446
  1

  7
ITALICC
100
AcDbText
  0
TEXT
  5
26B54A
100
AcDbEntity
  8
3
 62
     7
100
AcDbText
 10
7.897269
 20
28.612958
 30
0.0
 40
0.044446
  1

  7
ITALICC
100
AcDbText
  0
TEXT
  5
26B54B
100
AcDbEntity
  8
TEXT
100
AcDbText
 10
29.13694
 20
10.527123
 30
0.0
 40
0.18
  1

100
AcDbText
  0
LINE
  5
26B80C
100
AcDbEntity
  8
OBJBEAM
 62
     7
100
AcDbLine
 10
23.777568
 20
16.042496
 30
0.0
 11
23.777568
 21
15.542496
 31
0.0
  0
LINE
  5
26B80D
100
AcDbEntity
  8
OBJBEAM
  6
CONTINUOUS
 62
     7
100
AcDbLine
 10
23.747568
 20
15.518062
 30
0.0
 11
23.747568
 21
15.597139
 31
0.0
  0
LINE
  5
26B80E
100
AcDbEntity
  8
OBJBEAM
 62
     7
100
AcDbLine
 10
23.822568
 20
15.486996
 30
0.0
 11
23.747568
 21
15.518062
 31
0.0
  0
LINE
  5
26B80F
100
AcDbEntity
  8
OBJBEAM
 62
     7
100
AcDbLine
 10
23.747568
 20
15.566712
 30
0.0
 11
23.777568
 21
15.542496
 31
0.0
  0
LINE
  5
26B810
100
AcDbEntity
  8
OBJBEAM
 62
     7
100
AcDbLine
 10
23.747568
 20
15.542496
 30
0.0
 11
23.571968
 21
15.542496
 31
0.0
  0
LINE
  5
26B811
100
AcDbEntity
  8
OBJBEAM
 62
     7
100
AcDbLine
 10
23.822568
 20
16.097996
 30
0.0
 11
23.747568
 21
16.06693
 31
0.0
  0
LINE
  5
26B812
100
AcDbEntity
  8
OBJBEAM
 62
     7
100
AcDbLine
 10
23.747568
 20
15.597139
 30
0.0
 11
23.571968
 21
15.597139
 31
0.0
  0
LINE
  5
26B813
100
AcDbEntity
  8
OBJBEAM
 62
     7
100
AcDbLine
 10
23.747568
 20
16.018279
 30
0.0
 11
23.777568
 21
16.042496
 31
0.0
  0
LINE
  5
26B814
100
AcDbEntity
  8
OBJBEAM
  6
CONTINUOUS
 62
     7
100
AcDbLine
 10
23.747568
 20
16.06693
 30
0.0
 11
23.747568
 21
15.987852
 31
0.0
  0
LINE
  5
26B815
100
AcDbEntity
  8
OBJBEAM
 62
     7
100
AcDbLine
 10
23.747568
 20
16.042496
 30
0.0
 11
23.571968
 21
16.042496
 31
0.0
  0
LINE
  5
26B816
100
AcDbEntity
  8
OBJBEAM
 62
     7
100
AcDbLine
 10
23.747568
 20
15.987852
 30
0.0
 11
23.571968
 21
15.987852
 31
0.0
  0
DIMENSION
  5
26BADC
100
AcDbEntity
  8
DIM
 62
     7
100
AcDbDimension
  2
*D20
 10
21.899101
 20
14.706089
 30
0.0
 11
20.649101
 21
14.706089
 31
0.0
 12
8.101005
 22
5.879961
 32
0.0
100
AcDbAlignedDimension
 13
19.399101
 23
15.792496
 33
0.0
 14
21.899101
 24
15.792496
 34
0.0
100
AcDbRotatedDimension
  0
LINE
  5
26BE8C
100
AcDbEntity
  8
OBJBEAM
 62
     7
100
AcDbLine
 10
23.777568
 20
19.156565
 30
0.0
 11
23.571968
 21
19.156565
 31
0.0
  0
LINE
  5
26BE92
100
AcDbEntity
  8
OBJBEAM
 62
     7
100
AcDbLine
 10
23.777568
 20
19.468565
 30
0.0
 11
23.571968
 21
19.468565
 31
0.0
  0
TEXT
  5
26BFEE
100
AcDbEntity
  8
BORDER
 62
     2
100
AcDbText
 10
73.342615
 20
7.643867
 30
0.0
 40
0.060446
  1

100
AcDbText
  0
TEXT
  5
26BFF4
100
AcDbEntity
  8
BORDER
 62
     2
100
AcDbText
 10
73.342615
 20
7.893867
 30
0.0
 40
0.060446
  1

100
AcDbText
  0
TEXT
  5
26BFFA
100
AcDbEntity
  8
BORDER
 62
     2
100
AcDbText
 10
73.342615
 20
8.143867
 30
0.0
 40
0.060446
  1

100
AcDbText
  0
TEXT
  5
26C000
100
AcDbEntity
  8
BORDER
 62
     2
100
AcDbText
 10
73.342615
 20
8.393867
 30
0.0
 40
0.060446
  1

100
AcDbText
  0
TEXT
  5
26C006
100
AcDbEntity
  8
BORDER
 62
     2
100
AcDbText
 10
73.342615
 20
8.643867
 30
0.0
 40
0.060446
  1

100
AcDbText
  0
TEXT
  5
26C02A
100
AcDbEntity
  8
BORDER
 62
     2
100
AcDbText
 10
73.342615
 20
10.143867
 30
0.0
 40
0.060446
  1

100
AcDbText
  0
TEXT
  5
26C030
100
AcDbEntity
  8
BORDER
 62
     2
100
AcDbText
 10
73.342615
 20
10.393867
 30
0.0
 40
0.060446
  1

100
AcDbText
  0
TEXT
  5
26C036
100
AcDbEntity
  8
BORDER
 62
     2
100
AcDbText
 10
73.342615
 20
10.643867
 30
0.0
 40
0.060446
  1

100
AcDbText
  0
TEXT
  5
26C03C
100
AcDbEntity
  8
BORDER
 62
     2
100
AcDbText
 10
73.342615
 20
10.893867
 30
0.0
 40
0.060446
  1

100
AcDbText
  0
TEXT
  5
26C042
100
AcDbEntity
  8
BORDER
 62
     2
100
AcDbText
 10
73.342615
 20
11.143867
 30
0.0
 40
0.060446
  1

100
AcDbText
  0
TEXT
  5
26C048
100
AcDbEntity
  8
BORDER
 62
     2
100
AcDbText
 10
73.342615
 20
11.393867
 30
0.0
 40
0.060446
  1

100
AcDbText
  0
TEXT
  5
26C8CA
100
AcDbEntity
  8
3
 62
     7
100
AcDbText
 10
39.834607
 20
19.871205
 30
0.0
 40
0.088891
  1

  7
ITALICC
100
AcDbText
  0
TEXT
  5
26C8CB
100
AcDbEntity
  8
3
 62
     7
100
AcDbText
 10
39.723493
 20
20.093433
 30
0.0
 40
0.088891
  1

  7
ITALICC
100
AcDbText
  0
TEXT
  5
26C8CC
100
AcDbEntity
  8
3
 62
     7
100
AcDbText
 10
39.790162
 20
19.982319
 30
0.0
 40
0.088891
  1

  7
ITALICC
100
AcDbText
  0
TEXT
  5
26C8CD
100
AcDbEntity
  8
3
 62
     7
100
AcDbText
 10
61.834607
 20
37.871205
 30
0.0
 40
0.088891
  1

  7
ITALICC
100
AcDbText
  0
TEXT
  5
26C8CE
100
AcDbEntity
  8
3
 62
     7
100
AcDbText
 10
61.723493
 20
38.093433
 30
0.0
 40
0.088891
  1

  7
ITALICC
100
AcDbText
  0
TEXT
  5
26C8CF
100
AcDbEntity
  8
3
 62
     7
100
AcDbText
 10
61.790162
 20
37.982319
 30
0.0
 40
0.088891
  1

  7
ITALICC
100
AcDbText
  0
TEXT
  5
26C8D0
100
AcDbEntity
  8
3
 62
     7
100
AcDbText
 10
83.834607
 20
37.871205
 30
0.0
 40
0.088891
  1

  7
ITALICC
100
AcDbText
  0
TEXT
  5
26C8D1
100
AcDbEntity
  8
3
 62
     7
100
AcDbText
 10
83.723493
 20
38.093433
 30
0.0
 40
0.088891
  1

  7
ITALICC
100
AcDbText
  0
TEXT
  5
26C8D2
100
AcDbEntity
  8
3
 62
     7
100
AcDbText
 10
83.790162
 20
37.982319
 30
0.0
 40
0.088891
  1

  7
ITALICC
100
AcDbText
  0
TEXT
  5
26C8E5
100
AcDbEntity
  8
3
 62
     7
100
AcDbText
 10
34.082508
 20
49.903272
 30
0.0
 40
0.044446
  1

  7
ITALICC
100
AcDbText
  0
TEXT
  5
26C8E6
100
AcDbEntity
  8
3
 62
     7
100
AcDbText
 10
34.026951
 20
50.014386
 30
0.0
 40
0.044446
  1

  7
ITALICC
100
AcDbText
  0
TEXT
  5
26C8E7
100
AcDbEntity
  8
3
 62
     7
100
AcDbText
 10
34.060285
 20
49.958829
 30
0.0
 40
0.044446
  1

  7
ITALICC
100
AcDbText
  0
TEXT
  5
26C8E8
100
AcDbEntity
  8
3
 62
     7
100
AcDbText
 10
60.77095
 20
19.871205
 30
0.0
 40
0.088891
  1

  7
ITALICC
100
AcDbText
  0
TEXT
  5
26C8E9
100
AcDbEntity
  8
3
 62
     7
100
AcDbText
 10
60.659836
 20
20.093433
 30
0.0
 40
0.088891
  1

  7
ITALICC
100
AcDbText
  0
TEXT
  5
26C8EA
100
AcDbEntity
  8
3
 62
     7
100
AcDbText
 10
60.726505
 20
19.982319
 30
0.0
 40
0.088891
  1

  7
ITALICC
100
AcDbText
  0
TEXT
  5
26C8EB
100
AcDbEntity
  8
3
 62
     7
100
AcDbText
 10
81.175465
 20
19.871205
 30
0.0
 40
0.088891
  1

  7
ITALICC
100
AcDbText
  0
TEXT
  5
26C8EC
100
AcDbEntity
  8
3
 62
     7
100
AcDbText
 10
81.064351
 20
20.093433
 30
0.0
 40
0.088891
  1

  7
ITALICC
100
AcDbText
  0
TEXT
  5
26C8ED
100
AcDbEntity
  8
3
 62
     7
100
AcDbText
 10
81.131019
 20
19.982319
 30
0.0
 40
0.088891
  1

  7
ITALICC
100
AcDbText
  0
TEXT
  5
26C8EE
100
AcDbEntity
  8
3
 62
     7
100
AcDbText
 10
60.77095
 20
50.703351
 30
0.0
 40
0.088891
  1

  7
ITALICC
100
AcDbText
  0
TEXT
  5
26C8EF
100
AcDbEntity
  8
3
 62
     7
100
AcDbText
 10
60.659836
 20
50.925579
 30
0.0
 40
0.088891
  1

  7
ITALICC
100
AcDbText
  0
TEXT
  5
26C8F0
100
AcDbEntity
  8
3
 62
     7
100
AcDbText
 10
60.726505
 20
50.814465
 30
0.0
 40
0.088891
  1

  7
ITALICC
100
AcDbText
  0
TEXT
  5
26C903
100
AcDbEntity
  8
3
 62
     7
100
AcDbText
 10
74.674027
 20
48.876968
 30
0.0
 40
0.044446
  1

  7
ITALICC
100
AcDbText
  0
TEXT
  5
26C904
100
AcDbEntity
  8
3
 62
     7
100
AcDbText
 10
74.61847
 20
48.988082
 30
0.0
 40
0.044446
  1

  7
ITALICC
100
AcDbText
  0
TEXT
  5
26C905
100
AcDbEntity
  8
3
 62
     7
100
AcDbText
 10
74.651804
 20
48.932525
 30
0.0
 40
0.044446
  1

  7
ITALICC
100
AcDbText
  0
TEXT
  5
26C92D
100
AcDbEntity
  8
3
 62
     7
100
AcDbText
 10
36.485191
 20
29.374604
 30
0.0
 40
0.044446
  1

  7
ITALICC
100
AcDbText
  0
TEXT
  5
26C92E
100
AcDbEntity
  8
3
 62
     7
100
AcDbText
 10
36.429634
 20
29.485718
 30
0.0
 40
0.044446
  1

  7
ITALICC
100
AcDbText
  0
TEXT
  5
26C92F
100
AcDbEntity
  8
3
 62
     7
100
AcDbText
 10
36.462968
 20
29.430161
 30
0.0
 40
0.044446
  1

  7
ITALICC
100
AcDbText
  0
LINE
  5
26C953
100
AcDbEntity
  8
OBJBEAM
 62
     7
100
AcDbLine
 10
23.822568
 20
19.007065
 30
0.0
 11
23.777568
 21
19.025705
 31
0.0
  0
LINE
  5
26C954
100
AcDbEntity
  8
OBJBEAM
 62
     7
100
AcDbLine
 10
23.822568
 20
19.618065
 30
0.0
 11
23.777568
 21
19.599426
 31
0.0
  0
LINE
  5
26C955
100
AcDbEntity
  8
OBJBEAM
  6
CONTINUOUS
 62
     7
100
AcDbLine
 10
23.747568
 20
19.468565
 30
0.0
 11
23.747568
 21
19.156565
 31
0.0
  0
LINE
  5
26C956
100
AcDbEntity
  8
OBJBEAM
 62
     7
100
AcDbLine
 10
23.777568
 20
19.599426
 30
0.0
 11
23.777568
 21
19.468565
 31
0.0
  0
LINE
  5
26C957
100
AcDbEntity
  8
OBJBEAM
 62
     7
100
AcDbLine
 10
23.777568
 20
19.156565
 30
0.0
 11
23.777568
 21
19.025705
 31
0.0
  0
TEXT
  5
26C964
100
AcDbEntity
  8
TEXT
100
AcDbText
 10
57.702639
 20
11.344326
 30
0.0
 40
0.18
  1

100
AcDbText
  0
TEXT
  5
26D28D
100
AcDbEntity
  8
BORDER
  6
CONTINUOUS
 62
     7
100
AcDbText
 10
38.0384
 20
-6.315021
 30
0.0
 40
0.45
  1
A
  7
TXT
 72
     1
 11
38.1884
 21
-6.315021
 31
0.0
100
AcDbText
  0
TEXT
  5
26D28E
100
AcDbEntity
  8
BORDER
  6
CONTINUOUS
 62
     7
100
AcDbText
 10
38.0384
 20
2.855618
 30
0.0
 40
0.45
  1
B
  7
TXT
 72
     1
 11
38.1884
 21
2.855618
 31
0.0
100
AcDbText
  0
TEXT
  5
26D28F
100
AcDbEntity
  8
BORDER
  6
CONTINUOUS
 62
     7
100
AcDbText
 10
38.0384
 20
12.559435
 30
0.0
 40
0.45
  1
C
  7
TXT
 72
     1
 11
38.1884
 21
12.559435
 31
0.0
100
AcDbText
  0
TEXT
  5
26D290
100
AcDbEntity
  8
BORDER
  6
CONTINUOUS
 62
     7
100
AcDbText
 10
38.0384
 20
22.156616
 30
0.0
 40
0.45
  1
D
  7
TXT
 72
     1
 11
38.1884
 21
22.156616
 31
0.0
100
AcDbText
  0
TEXT
  5
26D291
100
AcDbEntity
  8
BORDER
  6
CONTINUOUS
 62
     7
100
AcDbText
 10
32.991449
 20
-9.969526
 30
0.0
 40
0.45
  1
1
  7
TXT
 72
     1
 11
33.066449
 21
-9.969526
 31
0.0
100
AcDbText
  0
TEXT
  5
26D292
100
AcDbEntity
  8
BORDER
  6
CONTINUOUS
 62
     7
100
AcDbText
 10
20.218278
 20
-9.969526
 30
0.0
 40
0.45
  1
2
  7
TXT
 72
     1
 11
20.368278
 21
-9.969526
 31
0.0
100
AcDbText
  0
TEXT
  5
26D293
100
AcDbEntity
  8
BORDER
  6
CONTINUOUS
 62
     7
100
AcDbText
 10
7.520107
 20
-9.969526
 30
0.0
 40
0.45
  1
3
  7
TXT
 72
     1
 11
7.670107
 21
-9.969526
 31
0.0
100
AcDbText
  0
TEXT
  5
26D294
100
AcDbEntity
  8
BORDER
  6
CONTINUOUS
 62
     7
100
AcDbText
 10
-4.964649
 20
-9.969526
 30
0.0
 40
0.45
  1
4
  7
TXT
 72
     1
 11
-4.814649
 21
-9.969526
 31
0.0
100
AcDbText
  0
TEXT
  5
26D295
100
AcDbEntity
  8
BORDER
  6
CONTINUOUS
 62
     7
100
AcDbText
 10
-10.833551
 20
22.156616
 30
0.0
 40
0.45
  1
D
  7
TXT
 72
     1
 11
-10.683551
 21
22.156616
 31
0.0
100
AcDbText
  0
TEXT
  5
26D296
100
AcDbEntity
  8
BORDER
  6
CONTINUOUS
 62
     7
100
AcDbText
 10
-10.833551
 20
12.559435
 30
0.0
 40
0.45
  1
C
  7
TXT
 72
     1
 11
-10.683551
 21
12.559435
 31
0.0
100
AcDbText
  0
TEXT
  5
26D297
100
AcDbEntity
  8
BORDER
  6
CONTINUOUS
 62
     7
100
AcDbText
 10
-10.833551
 20
2.855618
 30
0.0
 40
0.45
  1
B
  7
TXT
 72
     1
 11
-10.683551
 21
2.855618
 31
0.0
100
AcDbText
  0
TEXT
  5
26D298
100
AcDbEntity
  8
BORDER
  6
CONTINUOUS
 62
     7
100
AcDbText
 10
-10.833551
 20
-6.315021
 30
0.0
 40
0.45
  1
A
  7
TXT
 72
     1
 11
-10.683551
 21
-6.315021
 31
0.0
100
AcDbText
  0
TEXT
  5
26D299
100
AcDbEntity
  8
BORDER
  6
CONTINUOUS
 62
     7
100
AcDbText
 10
-4.964649
 20
25.675582
 30
0.0
 40
0.45
  1
4
  7
TXT
 72
     1
 11
-4.814649
 21
25.675582
 31
0.0
100
AcDbText
  0
TEXT
  5
26D29A
100
AcDbEntity
  8
BORDER
  6
CONTINUOUS
 62
     7
100
AcDbText
 10
7.520107
 20
25.675582
 30
0.0
 40
0.45
  1
3
  7
TXT
 72
     1
 11
7.670107
 21
25.675582
 31
0.0
100
AcDbText
  0
TEXT
  5
26D29B
100
AcDbEntity
  8
BORDER
  6
CONTINUOUS
 62
     7
100
AcDbText
 10
20.218278
 20
25.675582
 30
0.0
 40
0.45
  1
2
  7
TXT
 72
     1
 11
20.368278
 21
25.675582
 31
0.0
100
AcDbText
  0
TEXT
  5
26D29C
100
AcDbEntity
  8
BORDER
  6
CONTINUOUS
 62
     7
100
AcDbText
 10
33.066449
 20
25.675582
 30
0.0
 40
0.45
  1
1
  7
TXT
100
AcDbText
  0
LWPOLYLINE
  5
26D29D
100
AcDbEntity
  8
BORDER
  6
CONTINUOUS
 62
     7
100
AcDbPolyline
 90
        4
 70
     1
 43
0.025
 10
37.488049
 20
-8.768758
 10
-9.983142
 20
-8.768758
 10
-9.983142
 20
24.943387
 10
37.488049
 20
24.943387
  0
LWPOLYLINE
  5
26D29E
100
AcDbEntity
  8
BORDER
  6
CONTINUOUS
 62
     7
100
AcDbPolyline
 90
        4
 70
     1
 43
0.025
 10
38.738049
 20
-10.643758
 10
-11.233142
 20
-10.643758
 10
-11.233142
 20
26.818387
 10
38.738049
 20
26.818387
  0
LWPOLYLINE
  5
26D29F
100
AcDbEntity
  8
BORDER
 62
     7
100
AcDbPolyline
 90
        2
 70
     0
 43
0.025
 10
37.488049
 20
-8.768758
 10
17.025167
 20
-8.768758
  0
LWPOLYLINE
  5
26D2A0
100
AcDbEntity
  8
BORDER
 62
     7
100
AcDbPolyline
 90
        2
 70
     0
 43
0.025
 10
37.488049
 20
-8.768758
 10
37.488049
 20
-3.457852
  0
LWPOLYLINE
  5
26D2A1
100
AcDbEntity
  8
BORDER
 62
     7
100
AcDbPolyline
 90
        2
 70
     0
 43
0.05
 10
13.758019
 20
25.578008
 10
13.758019
 20
25.328008
  0
SOLID
  5
26D2A2
100
AcDbEntity
  8
BORDER
 62
     7
100
AcDbTrace
 10
13.383019
 20
25.328008
 30
0.0
 11
14.133019
 21
25.328008
 31
0.0
 12
13.758019
 22
24.953008
 32
0.0
 13
13.758019
 23
24.953008
 33
0.0
  0
LWPOLYLINE
  5
26D2A3
100
AcDbEntity
  8
BORDER
 62
     7
100
AcDbPolyline
 90
        2
 70
     0
 43
0.05
 10
13.7568
 20
-9.398086
 10
13.7568
 20
-9.148086
  0
SOLID
  5
26D2A4
100
AcDbEntity
  8
BORDER
 62
     7
100
AcDbTrace
 10
13.3818
 20
-9.148086
 30
0.0
 11
14.1318
 21
-9.148086
 31
0.0
 12
13.7568
 22
-8.773086
 32
0.0
 13
13.7568
 23
-8.773086
 33
0.0
  0
SOLID
  5
26D2A5
100
AcDbEntity
  8
BORDER
 62
     7
100
AcDbTrace
 10
-10.369233
 20
7.703767
 30
0.0
 11
-10.369233
 21
8.453767
 31
0.0
 12
-9.994233
 22
8.078767
 32
0.0
 13
-9.994233
 23
8.078767
 33
0.0
  0
LWPOLYLINE
  5
26D2A6
100
AcDbEntity
  8
BORDER
 62
     7
100
AcDbPolyline
 90
        2
 70
     0
 43
0.05
 10
-10.619233
 20
8.078767
 10
-10.369233
 20
8.078767
  0
SOLID
  5
26D2A7
100
AcDbEntity
  8
BORDER
 62
     7
100
AcDbTrace
 10
37.8634
 20
7.706844
 30
0.0
 11
37.8634
 21
8.456844
 31
0.0
 12
37.4884
 22
8.081844
 32
0.0
 13
37.4884
 23
8.081844
 33
0.0
  0
LWPOLYLINE
  5
26D2A8
100
AcDbEntity
  8
BORDER
 62
     7
100
AcDbPolyline
 90
        2
 70
     0
 43
0.05
 10
38.1134
 20
8.081844
 10
37.8634
 20
8.081844
  0
TEXT
  5
26D2A9
100
AcDbEntity
  8
0
  6
CONTINUOUS
 62
     7
100
AcDbText
 10
86.008983
 20
-4.610524
 30
0.0
 40
0.25
  1

  7
ROMANT
100
AcDbText
  0
TEXT
  5
26D2AA
100
AcDbEntity
  8
0
  6
CONTINUOUS
 62
     7
100
AcDbText
 10
85.16439
 20
-5.224359
 30
0.0
 40
0.25
  1

  7
ROMANT
100
AcDbText
  0
TEXT
  5
26D2AB
100
AcDbEntity
  8
0
  6
CONTINUOUS
 62
     7
100
AcDbText
 10
87.263075
 20
-6.528758
 30
0.0
 40
0.25
  1

  7
ROMANT
100
AcDbText
  0
TEXT
  5
26D2CE
100
AcDbEntity
  8
3
 62
     7
100
AcDbText
 10
-29.667131
 20
-10.72649
 30
0.0
 40
0.222228
  1

  7
ITALICC
100
AcDbText
  0
TEXT
  5
26D2CF
100
AcDbEntity
  8
3
 62
     7
100
AcDbText
 10
-29.944916
 20
-10.17092
 30
0.0
 40
0.222228
  1

  7
ITALICC
100
AcDbText
  0
TEXT
  5
26D2D0
100
AcDbEntity
  8
3
 62
     7
100
AcDbText
 10
-29.778245
 20
-10.448705
 30
0.0
 40
0.222228
  1

  7
ITALICC
100
AcDbText
  0
LWPOLYLINE
  5
26D2D1
100
AcDbEntity
  8
BORDER
 62
     7
100
AcDbPolyline
 90
        2
 70
     0
 43
0.025
 10
37.488049
 20
-8.768758
 10
20.557714
 20
-8.768758
  0
TEXT
  5
26D2D2
100
AcDbEntity
  8
BORDER
 62
     7
100
AcDbText
 10
32.246348
 20
-8.582209
 30
0.0
 40
0.375
  1
823-0472
 41
1.253536
  7
ROMANS
 72
     5
 11
35.895033
 21
-8.582209
 31
0.0
100
AcDbText
  0
LWPOLYLINE
  5
26D2D3
100
AcDbEntity
  8
BORDER
 62
     7
100
AcDbPolyline
 90
        2
 70
     0
 43
0.025
 10
37.488049
 20
-8.768758
 10
37.488049
 20
-4.41967
  0
LWPOLYLINE
  5
26D2D4
100
AcDbEntity
  8
BORDER
  6
CONTINUOUS
 62
     7
100
AcDbPolyline
 90
        2
 70
     0
 43
0.025
 10
26.252424
 20
-8.79425
 10
26.252424
 20
-10.643758
  0
LWPOLYLINE
  5
26D2D5
100
AcDbEntity
  8
BORDER
  6
CONTINUOUS
 62
     7
100
AcDbPolyline
 90
        2
 70
     0
 43
0.025
 10
1.252424
 20
-8.79425
 10
1.252424
 20
-10.643758
  0
LWPOLYLINE
  5
26D2D6
100
AcDbEntity
  8
BORDER
  6
CONTINUOUS
 62
     7
100
AcDbPolyline
 90
        2
 70
     0
 43
0.025
 10
-11.247576
 20
-1.29425
 10
-9.997576
 20
-1.29425
  0
LWPOLYLINE
  5
26D2D8
100
AcDbEntity
  8
BORDER
  6
CONTINUOUS
 62
     7
100
AcDbPolyline
 90
        2
 70
     0
 43
0.025
 10
1.252424
 20
26.818387
 10
1.252424
 20
24.95575
  0
LWPOLYLINE
  5
26D2D9
100
AcDbEntity
  8
BORDER
  6
CONTINUOUS
 62
     7
100
AcDbPolyline
 90
        2
 70
     0
 43
0.025
 10
26.252424
 20
26.818387
 10
26.252424
 20
24.95575
  0
LWPOLYLINE
  5
26D2DA
100
AcDbEntity
  8
BORDER
  6
CONTINUOUS
 62
     7
100
AcDbPolyline
 90
        2
 70
     0
 43
0.025
 10
37.502424
 20
17.45575
 10
38.752424
 20
17.45575
  0
LWPOLYLINE
  5
26D2DB
100
AcDbEntity
  8
BORDER
  6
CONTINUOUS
 62
     7
100
AcDbPolyline
 90
        2
 70
     0
 43
0.025
 10
37.502424
 20
-1.29425
 10
38.752424
 20
-1.29425
  0
LINE
  5
26D2DD
100
AcDbEntity
  8
BORDER
 62
     7
100
AcDbLine
 10
24.123813
 20
-6.146427
 30
0.0
 11
24.479079
 21
-5.524724
 31
0.0
  0
TEXT
  5
26D2DE
100
AcDbEntity
  8
BORDER
 62
     7
100
AcDbText
 10
22.223851
 20
-4.482633
 30
0.0
 40
0.151115
  1
INCHES AND / OR (MM).
100
AcDbText
  0
TEXT
  5
26D2DF
100
AcDbEntity
  8
BORDER
 62
     7
100
AcDbText
 10
22.391062
 20
-4.223876
 30
0.0
 40
0.151115
  1
DIMENSIONS ARE IN:
100
AcDbText
  0
TEXT
  5
26D2E0
100
AcDbEntity
  8
BORDER
 62
     7
100
AcDbText
 10
22.284357
 20
-4.740336
 30
0.0
 40
0.151115
  1
DO NOT SCALE PRINT.
100
AcDbText
  0
TEXT
  5
26D2E1
100
AcDbEntity
  8
BORDER
 62
     7
100
AcDbText
 10
22.544949
 20
-5.159371
 30
0.0
 40
0.151115
  1
UNLESS OTHERWISE
 41
0.95
100
AcDbText
  0
TEXT
  5
26D2E2
100
AcDbEntity
  8
BORDER
 62
     7
100
AcDbText
 10
22.025698
 20
-5.421808
 30
0.0
 40
0.151115
  1
SPECIFIED SURFACE FINISH
 41
0.95
100
AcDbText
  0
TEXT
  5
26D2E3
100
AcDbEntity
  8
BORDER
 62
     7
100
AcDbText
 10
22.539318
 20
-6.536006
 30
0.0
 40
0.151115
  1
UNLESS OTHERWISE
 41
0.95
100
AcDbText
  0
TEXT
  5
26D2E4
100
AcDbEntity
  8
BORDER
 62
     7
100
AcDbText
 10
24.009017
 20
-8.67918
 30
0.0
 40
0.1575
  1
1.0%%D
  7
TXT
100
AcDbText
  0
TEXT
  5
26D2E5
100
AcDbEntity
  8
BORDER
 62
     7
100
AcDbText
 10
24.140995
 20
-8.251321
 30
0.0
 40
0.1575
  1
ON DRW.
  7
TXT
100
AcDbText
  0
TEXT
  5
26D2E6
100
AcDbEntity
  8
BORDER
 62
     7
100
AcDbText
 10
21.984834
 20
-6.787865
 30
0.0
 40
0.151115
  1
SPECIFIED TOLERANCES ARE
 41
0.95
100
AcDbText
  0
LWPOLYLINE
  5
26D2E7
100
AcDbEntity
  8
BORDER
 62
     7
100
AcDbPolyline
 90
        2
 70
     0
 43
0.025
 10
27.965777
 20
-6.29467
 10
21.856205
 20
-6.29467
  0
LWPOLYLINE
  5
26D2E8
100
AcDbEntity
  8
BORDER
 62
     7
100
AcDbPolyline
 90
        2
 70
     0
 43
0.025
 10
37.488049
 20
-8.768758
 10
20.557714
 20
-8.768758
  0
LWPOLYLINE
  5
26D2E9
100
AcDbEntity
  8
BORDER
 62
     7
100
AcDbPolyline
 90
        2
 70
     0
 43
0.025
 10
37.488049
 20
-3.954896
 10
18.609976
 20
-3.954896
  0
LWPOLYLINE
  5
26D2EA
100
AcDbEntity
  8
BORDER
 62
     7
100
AcDbPolyline
 90
        2
 70
     0
 43
0.025
 10
37.488049
 20
-4.88842
 10
21.856205
 20
-4.88842
  0
LWPOLYLINE
  5
26D2EB
100
AcDbEntity
  8
BORDER
 62
     7
100
AcDbPolyline
 90
        2
 70
     0
 43
0.025
 10
21.856205
 20
-8.768758
 10
21.856205
 20
-3.954896
  0
LWPOLYLINE
  5
26D2EC
100
AcDbEntity
  8
BORDER
 62
     7
100
AcDbPolyline
 90
        2
 70
     0
 43
0.025
 10
21.206959
 20
-3.954896
 10
21.206959
 20
-8.768758
  0
LWPOLYLINE
  5
26D2ED
100
AcDbEntity
  8
BORDER
 62
     7
100
AcDbPolyline
 90
        2
 70
     0
 43
0.025
 10
20.557714
 20
-3.954896
 10
20.557714
 20
-8.768758
  0
TEXT
  5
26D2EE
100
AcDbEntity
  8
BORDER
 62
     7
100
AcDbText
 10
20.986609
 20
-7.209844
 30
0.0
 40
0.222228
  1
01/03/96
 50
90.0
 41
1.25
 72
     1
 11
20.986609
 21
-6.237597
 31
0.0
100
AcDbText
  0
TEXT
  5
26D2EF
100
AcDbEntity
  8
BORDER
 62
     7
100
AcDbText
 10
22.04371
 20
-7.631932
 30
0.0
 40
0.167115
  1
X.X
100
AcDbText
  0
TEXT
  5
26D2F0
100
AcDbEntity
  8
BORDER
 62
     7
100
AcDbText
 10
22.04371
 20
-7.946381
 30
0.0
 40
0.167115
  1
X.XX
100
AcDbText
  0
TEXT
  5
26D2F1
100
AcDbEntity
  8
BORDER
 62
     7
100
AcDbText
 10
22.04371
 20
-8.247212
 30
0.0
 40
0.167115
  1
X.XXX
100
AcDbText
  0
LWPOLYLINE
  5
26D2F2
100
AcDbEntity
  8
BORDER
 62
     7
100
AcDbPolyline
 90
        2
 70
     0
 43
0.025
 10
21.856205
 20
-7.556451
 10
20.557714
 20
-7.556451
  0
TEXT
  5
26D2F3
100
AcDbEntity
  8
BORDER
 62
     7
100
AcDbText
 10
20.986609
 20
-8.521227
 30
0.0
 40
0.222228
  1
555
 50
90.0
 41
1.25
 72
     1
 11
20.986609
 21
-8.150847
 31
0.0
100
AcDbText
  0
TEXT
  5
26D2F4
100
AcDbEntity
  8
BORDER
 62
     7
100
AcDbText
 10
21.635855
 20
-8.48488
 30
0.0
 40
0.222228
  1
ECO
 50
90.0
 41
1.25
 72
     1
 11
21.635855
 21
-8.1145
 31
0.0
100
AcDbText
  0
TEXT
  5
26D2F5
100
AcDbEntity
  8
BORDER
 62
     7
100
AcDbText
 10
22.04371
 20
-7.346934
 30
0.0
 40
0.167115
  1
X
100
AcDbText
  0
TEXT
  5
26D2F6
100
AcDbEntity
  8
BORDER
 62
     7
100
AcDbText
 10
21.635855
 20
-6.782295
 30
0.0
 40
0.222228
  1
DATE
 50
90.0
 41
1.25
 72
     1
 11
21.635855
 21
-6.273023
 31
0.0
100
AcDbText
  0
LINE
  5
26D2F7
100
AcDbEntity
  8
BORDER
 62
     7
100
AcDbLine
 10
23.918278
 20
-6.848952
 30
0.0
 11
23.918278
 21
-8.413962
 31
0.0
  0
LINE
  5
26D2F8
100
AcDbEntity
  8
BORDER
 62
     7
100
AcDbLine
 10
22.753817
 20
-6.840459
 30
0.0
 11
22.753817
 21
-8.413962
 31
0.0
  0
LINE
  5
26D2F9
100
AcDbEntity
  8
BORDER
 62
     7
100
AcDbLine
 10
23.141001
 20
-8.687343
 30
0.0
 11
23.474343
 21
-8.687343
 31
0.0
  0
LINE
  5
26D2FA
100
AcDbEntity
  8
BORDER
 62
     7
100
AcDbLine
 10
23.141001
 20
-8.687343
 30
0.0
 11
23.426786
 21
-8.496823
 31
0.0
  0
TEXT
  5
26D2FB
100
AcDbEntity
  8
BORDER
 62
     7
100
AcDbText
 10
22.861614
 20
-7.355162
 30
0.0
 40
0.1575
  1
ON DRW
  7
TXT
100
AcDbText
  0
TEXT
  5
26D2FC
100
AcDbEntity
  8
BORDER
 62
     7
100
AcDbText
 10
23.236916
 20
-7.640159
 30
0.0
 40
0.1575
  1
0.04
  7
TXT
100
AcDbText
  0
TEXT
  5
26D2FD
100
AcDbEntity
  8
BORDER
 62
     7
100
AcDbText
 10
23.236916
 20
-8.251321
 30
0.0
 40
0.1575
  1
0.005
  7
TXT
100
AcDbText
  0
TEXT
  5
26D2FE
100
AcDbEntity
  8
BORDER
 62
     7
100
AcDbText
 10
23.236916
 20
-7.954609
 30
0.0
 40
0.1575
  1
0.02
  7
TXT
100
AcDbText
  0
LINE
  5
26D2FF
100
AcDbEntity
  8
BORDER
 62
     7
100
AcDbLine
 10
22.884175
 20
-7.918603
 30
0.0
 11
23.050846
 21
-7.918603
 31
0.0
  0
LINE
  5
26D300
100
AcDbEntity
  8
BORDER
 62
     7
100
AcDbLine
 10
22.884175
 20
-8.219434
 30
0.0
 11
23.050846
 21
-8.219434
 31
0.0
  0
LINE
  5
26D301
100
AcDbEntity
  8
BORDER
 62
     7
100
AcDbLine
 10
22.884175
 20
-8.136098
 30
0.0
 11
23.050846
 21
-8.136098
 31
0.0
  0
LINE
  5
26D302
100
AcDbEntity
  8
BORDER
 62
     7
100
AcDbLine
 10
22.967519
 20
-8.191655
 30
0.0
 11
22.967519
 21
-8.080541
 31
0.0
  0
LINE
  5
26D303
100
AcDbEntity
  8
BORDER
 62
     7
100
AcDbLine
 10
22.967519
 20
-7.576375
 30
0.0
 11
22.967519
 21
-7.465261
 31
0.0
  0
LINE
  5
26D304
100
AcDbEntity
  8
BORDER
 62
     7
100
AcDbLine
 10
22.884175
 20
-7.835267
 30
0.0
 11
23.050846
 21
-7.835267
 31
0.0
  0
LINE
  5
26D305
100
AcDbEntity
  8
BORDER
 62
     7
100
AcDbLine
 10
22.884175
 20
-7.604153
 30
0.0
 11
23.050846
 21
-7.604153
 31
0.0
  0
LINE
  5
26D306
100
AcDbEntity
  8
BORDER
 62
     7
100
AcDbLine
 10
22.884175
 20
-7.520818
 30
0.0
 11
23.050846
 21
-7.520818
 31
0.0
  0
LINE
  5
26D307
100
AcDbEntity
  8
BORDER
 62
     7
100
AcDbLine
 10
22.967519
 20
-7.890824
 30
0.0
 11
22.967519
 21
-7.77971
 31
0.0
  0
LINE
  5
26D308
100
AcDbEntity
  8
BORDER
 62
     7
100
AcDbLine
 10
23.652601
 20
-8.575765
 30
0.0
 11
23.819272
 21
-8.575765
 31
0.0
  0
LINE
  5
26D309
100
AcDbEntity
  8
BORDER
 62
     7
100
AcDbLine
 10
23.652601
 20
-8.6591
 30
0.0
 11
23.819272
 21
-8.6591
 31
0.0
  0
ARC
  5
26D30A
100
AcDbEntity
  8
BORDER
 62
     7
100
AcDbCircle
 10
23.203954
 20
-8.663727
 30
0.0
 40
0.185139
100
AcDbArc
 50
345.5425
 51
56.88544
  0
LINE
  5
26D30B
100
AcDbEntity
  8
BORDER
 62
     7
100
AcDbLine
 10
23.735945
 20
-8.631322
 30
0.0
 11
23.735945
 21
-8.520208
 31
0.0
  0
LINE
  5
26D30C
100
AcDbEntity
  8
BORDER
 62
     7
100
AcDbLine
 10
24.141045
 20
-7.918603
 30
0.0
 11
24.307716
 21
-7.918603
 31
0.0
  0
LINE
  5
26D30D
100
AcDbEntity
  8
BORDER
 62
     7
100
AcDbLine
 10
24.224389
 20
-7.576375
 30
0.0
 11
24.224389
 21
-7.465261
 31
0.0
  0
LINE
  5
26D30E
100
AcDbEntity
  8
BORDER
 62
     7
100
AcDbLine
 10
24.141045
 20
-7.520818
 30
0.0
 11
24.307716
 21
-7.520818
 31
0.0
  0
LINE
  5
26D30F
100
AcDbEntity
  8
BORDER
 62
     7
100
AcDbLine
 10
24.141045
 20
-7.604153
 30
0.0
 11
24.307716
 21
-7.604153
 31
0.0
  0
LINE
  5
26D310
100
AcDbEntity
  8
BORDER
 62
     7
100
AcDbLine
 10
24.224389
 20
-7.890824
 30
0.0
 11
24.224389
 21
-7.77971
 31
0.0
  0
LINE
  5
26D311
100
AcDbEntity
  8
BORDER
 62
     7
100
AcDbLine
 10
24.141045
 20
-7.835267
 30
0.0
 11
24.307716
 21
-7.835267
 31
0.0
  0
LINE
  5
26D312
100
AcDbEntity
  8
BORDER
 62
     7
100
AcDbLine
 10
24.141045
 20
-7.23582
 30
0.0
 11
24.307716
 21
-7.23582
 31
0.0
  0
LINE
  5
26D313
100
AcDbEntity
  8
BORDER
 62
     7
100
AcDbLine
 10
24.141045
 20
-7.319156
 30
0.0
 11
24.307716
 21
-7.319156
 31
0.0
  0
LINE
  5
26D314
100
AcDbEntity
  8
BORDER
 62
     7
100
AcDbLine
 10
24.224389
 20
-7.291377
 30
0.0
 11
24.224389
 21
-7.180263
 31
0.0
  0
TEXT
  5
26D315
100
AcDbEntity
  8
BORDER
 62
     7
100
AcDbText
 10
22.553787
 20
-5.677269
 30
0.0
 40
0.151115
  1
SHALL BE:
 41
0.95
100
AcDbText
  0
TEXT
  5
26D316
100
AcDbEntity
  8
BORDER
 62
     7
100
AcDbText
 10
22.93681
 20
-7.040317
 30
0.0
 40
0.151115
  1
INCH
100
AcDbText
  0
LINE
  5
26D317
100
AcDbEntity
  8
BORDER
 62
     7
100
AcDbLine
 10
24.123813
 20
-6.146427
 30
0.0
 11
23.933337
 21
-5.813086
 31
0.0
  0
TEXT
  5
26D318
100
AcDbEntity
  8
BORDER
 62
     7
100
AcDbText
 10
23.994531
 20
-5.882619
 30
0.0
 40
0.1575
  1
32
  7
TXT
 72
     1
 11
24.125781
 21
-5.882619
 31
0.0
100
AcDbText
  0
LWPOLYLINE
  5
26D319
100
AcDbEntity
  8
BORDER
 62
     7
100
AcDbPolyline
 90
        2
 70
     0
 43
0.025
 10
20.557714
 20
-5.080972
 10
21.856205
 20
-5.080972
  0
TEXT
  5
26D31A
100
AcDbEntity
  8
BORDER
 62
     7
100
AcDbText
 10
20.986609
 20
-4.659498
 30
0.0
 40
0.222228
  1
A
 50
90.0
 41
1.25
 72
     1
 11
20.986609
 21
-4.566904
 31
0.0
100
AcDbText
  0
TEXT
  5
26D31B
100
AcDbEntity
  8
BORDER
 62
     7
100
AcDbText
 10
21.635855
 20
-4.983581
 30
0.0
 40
0.222228
  1
REV
 50
90.0
 41
1.25
 72
     1
 11
21.635855
 21
-4.566904
 31
0.0
100
AcDbText
  0
TEXT
  5
26D31C
100
AcDbEntity
  8
BORDER
 62
     7
100
AcDbText
 10
32.451568
 20
-7.525537
 30
0.0
 40
0.174517
  1
SCALE:
  7
ROMANS
100
AcDbText
  0
TEXT
  5
26D31D
100
AcDbEntity
  8
BORDER
 62
     7
100
AcDbText
 10
31.448178
 20
-4.759666
 30
0.0
 40
0.15
  1
217 PICKERING RD.
 41
0.9
100
AcDbText
  0
LWPOLYLINE
  5
26D31E
100
AcDbEntity
  8
BORDER
 62
     7
100
AcDbPolyline
 90
        2
 70
     0
 43
0.025
 10
37.488049
 20
-8.018758
 10
31.355334
 20
-8.018758
  0
LWPOLYLINE
  5
26D31F
100
AcDbEntity
  8
BORDER
 62
     7
100
AcDbPolyline
 90
        2
 70
     0
 43
0.025
 10
37.488049
 20
-7.268758
 10
31.355334
 20
-7.268758
  0
TEXT
  5
26D320
100
AcDbEntity
  8
BORDER
 62
     7
100
AcDbText
 10
31.405246
 20
-4.424028
 30
0.0
 40
0.3
  1
DOVER FLEXO ELECTRONICS
 41
0.9
  7
ROMANC
100
AcDbText
  0
LWPOLYLINE
  5
26D321
100
AcDbEntity
  8
BORDER
 62
     7
100
AcDbPolyline
 90
        2
 70
     0
 43
0.025
 10
31.355334
 20
-3.954896
 10
31.355334
 20
-8.768758
  0
LWPOLYLINE
  5
26D322
100
AcDbEntity
  8
BORDER
 62
     7
100
AcDbPolyline
 90
        2
 70
     0
 43
0.025
 10
29.552021
 20
-6.76342
 10
29.552021
 20
-3.954896
  0
LWPOLYLINE
  5
26D323
100
AcDbEntity
  8
BORDER
 62
     7
100
AcDbPolyline
 90
        2
 70
     0
 43
0.025
 10
27.965777
 20
-8.768758
 10
27.965777
 20
-3.954896
  0
LWPOLYLINE
  5
26D324
100
AcDbEntity
  8
BORDER
 62
     7
100
AcDbPolyline
 90
        2
 70
     0
 43
0.025
 10
28.36726
 20
-6.76342
 10
28.36726
 20
-5.35717
  0
LWPOLYLINE
  5
26D325
100
AcDbEntity
  8
BORDER
 62
     7
100
AcDbPolyline
 90
        2
 70
     0
 43
0.025
 10
25.413148
 20
-3.954896
 10
25.413148
 20
-8.768758
  0
TEXT
  5
26D326
100
AcDbEntity
  8
BORDER
 62
     7
100
AcDbText
 10
28.418206
 20
-5.631914
 30
0.0
 40
0.151115
  1
ENG
100
AcDbText
  0
TEXT
  5
26D327
100
AcDbEntity
  8
BORDER
 62
     7
100
AcDbText
 10
28.029307
 20
-7.932685
 30
0.0
 40
0.151115
  1
FINISH
100
AcDbText
  0
TEXT
  5
26D328
100
AcDbEntity
  8
BORDER
 62
     7
100
AcDbText
 10
28.029307
 20
-6.985959
 30
0.0
 40
0.151115
  1
MAT'L
100
AcDbText
  0
LWPOLYLINE
  5
26D329
100
AcDbEntity
  8
BORDER
 62
     7
100
AcDbPolyline
 90
        2
 70
     0
 43
0.025
 10
31.355334
 20
-7.70092
 10
25.413148
 20
-7.70092
  0
LWPOLYLINE
  5
26D32A
100
AcDbEntity
  8
BORDER
 62
     7
100
AcDbPolyline
 90
        2
 70
     0
 43
0.025
 10
31.355334
 20
-5.82592
 10
28.36726
 20
-5.82592
  0
LWPOLYLINE
  5
26D32B
100
AcDbEntity
  8
BORDER
 62
     7
100
AcDbPolyline
 90
        2
 70
     0
 43
0.025
 10
31.355334
 20
-6.292681
 10
28.36726
 20
-6.292681
  0
LWPOLYLINE
  5
26D32C
100
AcDbEntity
  8
BORDER
 62
     7
100
AcDbPolyline
 90
        2
 70
     0
 43
0.025
 10
31.355334
 20
-6.76342
 10
25.413148
 20
-6.76342
  0
TEXT
  5
26D32D
100
AcDbEntity
  8
BORDER
 62
     7
100
AcDbText
 10
26.222608
 20
-5.653346
 30
0.0
 40
0.151115
  1
USED ON
100
AcDbText
  0
TEXT
  5
26D32E
100
AcDbEntity
  8
BORDER
 62
     7
100
AcDbText
 10
26.511733
 20
-7.122843
 30
0.0
 40
0.25
  1
LT
 41
0.77
  7
ROMANS
 72
     1
 11
26.676733
 21
-7.122843
 31
0.0
100
AcDbText
  0
TEXT
  5
26D32F
100
AcDbEntity
  8
BORDER
 62
     7
100
AcDbText
 10
25.915899
 20
-6.185343
 30
0.0
 40
0.25
  1
603-0389
 41
0.77
  7
ROMANS
 72
     1
 11
26.676733
 21
-6.185343
 31
0.0
100
AcDbText
  0
LWPOLYLINE
  5
26D330
100
AcDbEntity
  8
BORDER
 62
     7
100
AcDbPolyline
 90
        2
 70
     0
 43
0.025
 10
27.965777
 20
-8.16967
 10
25.413148
 20
-8.16967
  0
LWPOLYLINE
  5
26D331
100
AcDbEntity
  8
BORDER
 62
     7
100
AcDbPolyline
 90
        2
 70
     0
 43
0.025
 10
27.965777
 20
-7.23217
 10
25.413148
 20
-7.23217
  0
TEXT
  5
26D332
100
AcDbEntity
  8
BORDER
 62
     7
100
AcDbText
 10
24.718959
 20
-7.954609
 30
0.0
 40
0.1575
  1
0.05
  7
TXT
100
AcDbText
  0
TEXT
  5
26D333
100
AcDbEntity
  8
BORDER
 62
     7
100
AcDbText
 10
24.741993
 20
-7.640159
 30
0.0
 40
0.1575
  1
0.1
  7
TXT
100
AcDbText
  0
TEXT
  5
26D334
100
AcDbEntity
  8
BORDER
 62
     7
100
AcDbText
 10
24.741993
 20
-7.355162
 30
0.0
 40
0.1575
  1
1.0
  7
TXT
100
AcDbText
  0
TEXT
  5
26D335
100
AcDbEntity
  8
BORDER
 62
     7
100
AcDbText
 10
25.484742
 20
-8.41273
 30
0.0
 40
0.151115
  1
REF.
100
AcDbText
  0
TEXT
  5
26D336
100
AcDbEntity
  8
BORDER
 62
     7
100
AcDbText
 10
24.370169
 20
-7.040317
 30
0.0
 40
0.151115
  1
(mm)
100
AcDbText
  0
LINE
  5
26D337
100
AcDbEntity
  8
BORDER
 62
     7
100
AcDbLine
 10
24.812421
 20
-5.524724
 30
0.0
 11
24.479079
 21
-5.524724
 31
0.0
  0
TEXT
  5
26D338
100
AcDbEntity
  8
BORDER
 62
     7
100
AcDbText
 10
28.251535
 20
-6.458671
 30
0.0
 40
0.1511
  1
APP'D
 50
90.0
 41
1.25
100
AcDbText
  0
TEXT
  5
26D339
100
AcDbEntity
  8
BORDER
 62
     7
100
AcDbText
 10
29.336613
 20
-7.352346
 30
0.0
 40
0.375
  1
N/A
 41
0.77
  7
ROMANS
 72
     1
 11
29.783488
 21
-7.352346
 31
0.0
100
AcDbText
  0
TEXT
  5
26D33A
100
AcDbEntity
  8
BORDER
 62
     7
100
AcDbText
 10
29.336613
 20
-8.420184
 30
0.0
 40
0.375
  1
N/A
 41
0.77
  7
ROMANS
 72
     1
 11
29.783488
 21
-8.420184
 31
0.0
100
AcDbText
  0
TEXT
  5
26D33B
100
AcDbEntity
  8
BORDER
 62
     7
100
AcDbText
 10
31.73729
 20
-7.873409
 30
0.0
 40
0.25
  1
C
  7
ROMANT
100
AcDbText
  0
TEXT
  5
26D33C
100
AcDbEntity
  8
BORDER
 62
     7
100
AcDbText
 10
31.582381
 20
-7.495231
 30
0.0
 40
0.133337
  1
SIZE
 41
1.25
100
AcDbText
  0
TEXT
  5
26D33D
100
AcDbEntity
  8
BORDER
 62
     7
100
AcDbText
 10
31.507974
 20
-8.325309
 30
0.0
 40
0.151115
  1
DWG
100
AcDbText
  0
TEXT
  5
26D33E
100
AcDbEntity
  8
BORDER
 62
     7
100
AcDbText
 10
31.587122
 20
-8.577168
 30
0.0
 40
0.151115
  1
NO
100
AcDbText
  0
LWPOLYLINE
  5
26D33F
100
AcDbEntity
  8
BORDER
 62
     7
100
AcDbPolyline
 90
        2
 70
     0
 43
0.025
 10
32.359648
 20
-7.268758
 10
32.359648
 20
-8.018758
  0
TEXT
  5
26D340
100
AcDbEntity
  8
BORDER
 62
     7
100
AcDbText
 10
28.701868
 20
-4.280871
 30
0.0
 40
0.25
  1
M.N.
 41
0.77
  7
ROMANS
 72
     1
 11
29.004368
 21
-4.280871
 31
0.0
100
AcDbText
  0
LWPOLYLINE
  5
26D341
100
AcDbEntity
  8
BORDER
 62
     7
100
AcDbPolyline
 90
        2
 70
     0
 43
0.025
 10
31.355334
 20
-5.35717
 10
25.413148
 20
-5.35717
  0
LWPOLYLINE
  5
26D342
100
AcDbEntity
  8
BORDER
 62
     7
100
AcDbPolyline
 90
        2
 70
     0
 43
0.025
 10
31.362061
 20
-4.41967
 10
27.965777
 20
-4.41967
  0
TEXT
  5
26D343
100
AcDbEntity
  8
BORDER
 62
     7
100
AcDbText
 10
25.568475
 20
-4.741796
 30
0.0
 40
0.151115
  1
ANSI Y14.5, 1982
 41
1.1
100
AcDbText
  0
TEXT
  5
26D344
100
AcDbEntity
  8
BORDER
 62
     7
100
AcDbText
 10
25.702649
 20
-4.222782
 30
0.0
 40
0.151115
  1
SYMBOLS ARE IN
 41
0.95
100
AcDbText
  0
TEXT
  5
26D345
100
AcDbEntity
  8
BORDER
 62
     7
100
AcDbText
 10
25.475392
 20
-4.484733
 30
0.0
 40
0.151115
  1
ACCORDANCE WITH
 41
1.1
100
AcDbText
  0
TEXT
  5
26D346
100
AcDbEntity
  8
BORDER
 62
     7
100
AcDbText
 10
28.029307
 20
-4.705236
 30
0.0
 40
0.151115
  1
RV
100
AcDbText
  0
TEXT
  5
26D347
100
AcDbEntity
  8
BORDER
 62
     7
100
AcDbText
 10
28.029307
 20
-5.165235
 30
0.0
 40
0.151115
  1
CHK
100
AcDbText
  0
TEXT
  5
26D348
100
AcDbEntity
  8
BORDER
 62
     7
100
AcDbText
 10
28.029307
 20
-4.233113
 30
0.0
 40
0.151115
  1
DR
100
AcDbText
  0
TEXT
  5
26D349
100
AcDbEntity
  8
BORDER
 62
     7
100
AcDbText
 10
29.626152
 20
-4.280871
 30
0.0
 40
0.25
  1
02/09/96
 41
0.856009
  7
ROMANS
 72
     5
 11
31.266835
 21
-4.280871
 31
0.0
100
AcDbText
  0
TEXT
  5
26D34A
100
AcDbEntity
  8
BORDER
 62
     7
100
AcDbText
 10
31.47384
 20
-5.279596
 30
0.0
 40
0.151115
  1
TITLE
100
AcDbText
  0
LWPOLYLINE
  5
26D34B
100
AcDbEntity
  8
BORDER
 62
     7
100
AcDbPolyline
 90
        2
 70
     0
 43
0.025
 10
37.488049
 20
-8.768758
 10
37.488049
 20
-4.41967
  0
TEXT
  5
26D34C
100
AcDbEntity
  8
BORDER
 62
     7
100
AcDbText
 10
32.282397
 20
-5.739427
 30
0.0
 40
0.375
  1
OUTLINE DRAWING
 41
0.77
  7
ROMANS
 72
     1
 11
34.221147
 21
-5.739427
 31
0.0
100
AcDbText
  0
LWPOLYLINE
  5
26D34D
100
AcDbEntity
  8
BORDER
 62
     7
100
AcDbPolyline
 90
        2
 70
     0
 43
0.025
 10
36.08035
 20
-8.768758
 10
36.08035
 20
-8.018758
  0
TEXT
  5
26D34E
100
AcDbEntity
  8
BORDER
 62
     7
100
AcDbText
 10
33.803735
 20
-7.823651
 30
0.0
 40
0.375
  1
NTS
 41
0.77
  7
ROMANS
 72
     1
 11
34.20936
 21
-7.823651
 31
0.0
100
AcDbText
  0
LWPOLYLINE
  5
26D34F
100
AcDbEntity
  8
BORDER
 62
     7
100
AcDbPolyline
 90
        2
 70
     0
 43
0.025
 10
35.027711
 20
-7.268758
 10
35.027711
 20
-8.018758
  0
TEXT
  5
26D350
100
AcDbEntity
  8
BORDER
 62
     7
100
AcDbText
 10
32.623306
 20
-6.354429
 30
0.0
 40
0.375
  1
LOW TENSION 
 41
0.77
  7
ROMANS
 72
     1
 11
34.232056
 21
-6.354429
 31
0.0
100
AcDbText
  0
TEXT
  5
26D351
100
AcDbEntity
  8
BORDER
 62
     7
100
AcDbText
 10
32.748248
 20
-6.969431
 30
0.0
 40
0.375
  1
TRANSDUCERS
 41
0.77
  7
ROMANS
 72
     1
 11
34.253873
 21
-6.969431
 31
0.0
100
AcDbText
  0
TEXT
  5
26D352
100
AcDbEntity
  8
BORDER
 62
     7
100
AcDbText
 10
35.173407
 20
-7.52414
 30
0.0
 40
0.151115
  1
SH
100
AcDbText
  0
TEXT
  5
26D353
100
AcDbEntity
  8
BORDER
 62
     7
100
AcDbText
 10
35.742239
 20
-7.823651
 30
0.0
 40
0.375
  1
1
 41
0.77
  7
ROMANS
 72
     1
 11
35.859114
 21
-7.823651
 31
0.0
100
AcDbText
  0
TEXT
  5
26D354
100
AcDbEntity
  8
BORDER
 62
     7
100
AcDbText
 10
36.236315
 20
-8.237297
 30
0.0
 40
0.133337
  1
REV
 41
1.5
100
AcDbText
  0
TEXT
  5
26D355
100
AcDbEntity
  8
REV
 62
     7
100
AcDbText
 10
37.015328
 20
-8.659076
 30
0.0
 40
0.375
  1
D
 41
0.77
  7
ROMANS
 72
     1
 11
37.166578
 21
-8.659076
 31
0.0
100
AcDbText
  0
TEXT
  5
26D356
100
AcDbEntity
  8
BORDER
 62
     7
100
AcDbText
 10
36.305133
 20
-7.52414
 30
0.0
 40
0.151115
  1
OF
100
AcDbText
  0
TEXT
  5
26D357
100
AcDbEntity
  8
BORDER
 62
     7
100
AcDbText
 10
36.872514
 20
-7.823651
 30
0.0
 40
0.375
  1
1
 41
0.77
  7
ROMANS
 72
     1
 11
36.989389
 21
-7.823651
 31
0.0
100
AcDbText
  0
TEXT
  5
26D358
100
AcDbEntity
  8
BORDER
 62
     7
100
AcDbText
 10
33.64554
 20
-4.760387
 30
0.0
 40
0.15
  1
ROCHESTER N.H. 03867-4630 U.S.A.
 41
0.9
100
AcDbText
  0
LWPOLYLINE
  5
26D359
100
AcDbEntity
  8
BORDER
 62
     7
100
AcDbPolyline
 90
        2
 70
     0
 43
0.025
 10
37.488049
 20
-4.41967
 10
37.471664
 20
-4.41967
  0
TEXT
  5
26D371
100
AcDbEntity
  8
BORDER
 62
     7
100
AcDbText
 10
28.628534
 20
-4.749621
 30
0.0
 40
0.25
  1
G.J.T.
 41
0.77
  7
ROMANS
 72
     1
 11
29.004368
 21
-4.749621
 31
0.0
100
AcDbText
  0
TEXT
  5
26D372
100
AcDbEntity
  8
BORDER
 62
     7
100
AcDbText
 10
29.626152
 20
-4.749621
 30
0.0
 40
0.25
  1
01/16/07
 41
0.856009
  7
ROMANS
 72
     5
 11
31.266835
 21
-4.749621
 31
0.0
100
AcDbText
  0
TEXT
  5
26D373
100
AcDbEntity
  8
BORDER
 62
     7
100
AcDbText
 10
25.911316
 20
-6.654093
 30
0.0
 40
0.25
  1
603-0390
 41
0.77
  7
ROMANS
 72
     1
 11
26.676733
 21
-6.654093
 31
0.0
100
AcDbText
  0
TEXT
  5
26D374
100
AcDbEntity
  8
BORDER
 62
     7
100
AcDbText
 10
20.337364
 20
-4.659498
 30
0.0
 40
0.222228
  1
B
 50
90.0
 41
1.25
 72
     1
 11
20.337364
 21
-4.566904
 31
0.0
100
AcDbText
  0
LWPOLYLINE
  5
26D375
100
AcDbEntity
  8
BORDER
 62
     7
100
AcDbPolyline
 90
        2
 70
     0
 43
0.025
 10
18.609976
 20
-5.080972
 10
20.557714
 20
-5.080972
  0
TEXT
  5
26D376
100
AcDbEntity
  8
BORDER
 62
     7
100
AcDbText
 10
20.337364
 20
-7.291567
 30
0.0
 40
0.222228
  1
04/07/97
 50
90.0
 41
1.25
 72
     1
 11
20.337364
 21
-6.273023
 31
0.0
100
AcDbText
  0
TEXT
  5
26D377
100
AcDbEntity
  8
BORDER
 62
     7
100
AcDbText
 10
20.337364
 20
-8.48488
 30
0.0
 40
0.222228
  1
577
 50
90.0
 41
1.25
 72
     1
 11
20.337364
 21
-8.1145
 31
0.0
100
AcDbText
  0
LWPOLYLINE
  5
26D378
100
AcDbEntity
  8
BORDER
 62
     7
100
AcDbPolyline
 90
        2
 70
     0
 43
0.025
 10
20.557714
 20
-7.556451
 10
18.609976
 20
-7.556451
  0
TEXT
  5
26D379
100
AcDbEntity
  8
BORDER
 62
     7
100
AcDbText
 10
19.688118
 20
-7.209844
 30
0.0
 40
0.222228
  1
01/29/04
 50
90.0
 41
1.25
 72
     1
 11
19.688118
 21
-6.237597
 31
0.0
100
AcDbText
  0
LWPOLYLINE
  5
26D37A
100
AcDbEntity
  8
BORDER
 62
     7
100
AcDbPolyline
 90
        2
 70
     0
 43
0.025
 10
19.259222
 20
-3.954896
 10
19.259222
 20
-8.768758
  0
LWPOLYLINE
  5
26D37B
100
AcDbEntity
  8
BORDER
 62
     7
100
AcDbPolyline
 90
        2
 70
     0
 43
0.025
 10
19.908468
 20
-3.954896
 10
19.908468
 20
-8.768758
  0
TEXT
  5
26D37C
100
AcDbEntity
  8
BORDER
 62
     7
100
AcDbText
 10
19.688118
 20
-8.567525
 30
0.0
 40
0.222228
  1
1415
 50
90.0
 41
1.25
 72
     1
 11
19.688118
 21
-8.150847
 31
0.0
100
AcDbText
  0
TEXT
  5
26D37D
100
AcDbEntity
  8
BORDER
 62
     7
100
AcDbText
 10
19.688118
 20
-4.659498
 30
0.0
 40
0.222228
  1
C
 50
90.0
 41
1.25
 72
     1
 11
19.688118
 21
-4.566904
 31
0.0
100
AcDbText
  0
LWPOLYLINE
  5
26D37E
100
AcDbEntity
  8
BORDER
 62
     7
100
AcDbPolyline
 90
        2
 70
     0
 43
0.025
 10
20.557714
 20
-8.768758
 10
20.557714
 20
-3.954896
  0
TEXT
  5
26D511
100
AcDbEntity
  8
TEXT
 62
     7
100
AcDbText
 10
21.924577
 20
-2.300743
 30
0.0
 40
0.342
  1
%%ULOAD PIN
100
AcDbText
  0
LINE
  5
26D512
100
AcDbEntity
  8
CTR
 62
     7
100
AcDbLine
 10
20.821105
 20
1.92116
 30
0.0
 11
21.451105
 21
1.92116
 31
0.0
  0
LINE
  5
26D513
100
AcDbEntity
  8
CTR
 62
     7
100
AcDbLine
 10
20.821105
 20
2.16116
 30
0.0
 11
21.451105
 21
2.16116
 31
0.0
  0
LINE
  5
26D51E
100
AcDbEntity
  8
CTR
 62
     7
100
AcDbLine
 10
21.451105
 20
1.84616
 30
0.0
 11
21.451105
 21
2.23616
 31
0.0
  0
LINE
  5
26D51F
100
AcDbEntity
  8
CTR
 62
     7
100
AcDbLine
 10
21.651105
 20
1.84616
 30
0.0
 11
21.651105
 21
2.23616
 31
0.0
  0
LINE
  5
26D520
100
AcDbEntity
  8
CTR
 62
     7
100
AcDbLine
 10
21.451105
 20
2.23616
 30
0.0
 11
21.651105
 21
2.23616
 31
0.0
  0
POINT
  5
26D521
100
AcDbEntity
  8
DEFPOINTS
  6
BYBLOCK
 62
     7
100
AcDbPoint
 10
21.651105
 20
2.23616
 30
0.0
  0
LINE
  5
26D522
100
AcDbEntity
  8
CTR
 62
     7
100
AcDbLine
 10
21.451105
 20
1.84616
 30
0.0
 11
21.651105
 21
1.84616
 31
0.0
  0
POINT
  5
26D535
100
AcDbEntity
  8
DEFPOINTS
  6
BYBLOCK
 62
     7
100
AcDbPoint
 10
21.651105
 20
1.84616
 30
0.0
  0
POINT
  5
26D538
100
AcDbEntity
  8
CTR
 62
     7
100
AcDbPoint
 10
21.451105
 20
1.84616
 30
0.0
  0
POINT
  5
26D539
100
AcDbEntity
  8
CTR
 62
     7
100
AcDbPoint
 10
21.451105
 20
1.84616
 30
0.0
  0
LINE
  5
26D53A
100
AcDbEntity
  8
CTR
 62
     7
100
AcDbLine
 10
20.821105
 20
1.92116
 30
0.0
 11
20.821105
 21
2.16116
 31
0.0
  0
POINT
  5
26D53B
100
AcDbEntity
  8
CTR
 62
     7
100
AcDbPoint
 10
20.821105
 20
2.16116
 30
0.0
  0
POINT
  5
26D53C
100
AcDbEntity
  8
CTR
 62
     7
100
AcDbPoint
 10
20.821105
 20
1.92116
 30
0.0
  0
POINT
  5
26D53D
100
AcDbEntity
  8
CTR
 62
     7
100
AcDbPoint
 10
20.821105
 20
1.92116
 30
0.0
  0
TEXT
  5
26D625
100
AcDbEntity
  8
DIM
  6
BYBLOCK
 62
     7
100
AcDbText
 10
25.728691
 20
3.950939
 30
0.0
 40
0.18
  1
0.75 [19.0mm]
 72
     1
 11
26.628691
 21
4.040939
 31
0.0
100
AcDbText
 73
     2
  0
DIMENSION
  5
26D626
100
AcDbEntity
  8
DIM
 62
     7
100
AcDbDimension
  2
*D22
 10
25.278691
 20
0.253985
 30
0.0
 11
27.032452
 21
0.241444
 31
0.0
 70
   160
  3
STANDARD
100
AcDbAlignedDimension
 13
24.778691
 23
0.60116
 33
0.0
 14
25.278691
 24
0.60116
 34
0.0
100
AcDbRotatedDimension
1001
ACAD
1000
DSTYLE
1002
{
1070
   174
1070
     1
1070
   272
1070
     2
1070
   287
1070
     5
1070
    42
1040
0.063
1070
   271
1070
     2
1070
     4
1000
mm
1070
   274
1070
     1
1070
   171
1070
     1
1070
   170
1070
     1
1002
}
  0
LINE
  5
26D627
100
AcDbEntity
  8
OBJBEAM
 62
     7
100
AcDbLine
 10
25.514691
 20
2.66616
 30
0.0
 11
25.514691
 21
1.41616
 31
0.0
  0
LINE
  5
26D628
100
AcDbEntity
  8
DIM
  6
BYBLOCK
 62
     7
100
AcDbLine
 10
24.528691
 20
1.478485
 30
0.0
 11
24.528691
 21
4.220939
 31
0.0
  0
CIRCLE
  5
26D629
100
AcDbEntity
  8
OBJHOUSING
 62
     7
100
AcDbCircle
 10
22.153705
 20
2.666335
 30
0.0
 40
0.140625
  0
LINE
  5
26D62B
100
AcDbEntity
  8
OBJHOUSING
 62
     7
100
AcDbLine
 10
21.903705
 20
2.85616
 30
0.0
 11
21.903705
 21
2.11966
 31
0.0
  0
DIMENSION
  5
26D62C
100
AcDbEntity
  8
DIM
 62
     7
100
AcDbDimension
  2
*D26
 10
24.528691
 20
4.040939
 30
0.0
 11
23.341198
 21
4.040939
 31
0.0
 12
-1.920863
 22
-17.271405
 32
0.0
 70
    32
  3
STANDARD
100
AcDbAlignedDimension
 13
22.153705
 23
2.666335
 33
0.0
 14
24.528691
 24
1.415985
 34
0.0
100
AcDbRotatedDimension
1001
ACAD
1000
DSTYLE
1002
{
1070
   174
1070
     1
1070
   272
1070
     2
1070
   287
1070
     5
1070
    42
1040
0.063
1070
   271
1070
     2
1070
     4
1000
mm
1070
   274
1070
     1
1070
   171
1070
     1
1070
   170
1070
     1
1002
}
  0
DIMENSION
  5
26D62D
100
AcDbEntity
  8
DIM
 62
     7
100
AcDbDimension
  2
*D24
 10
19.648308
 20
1.415985
 30
0.0
 11
19.648308
 21
2.04116
 31
0.0
 12
-1.920863
 22
-17.271405
 32
0.0
 70
    32
  3
STANDARD
100
AcDbAlignedDimension
 13
22.153705
 23
2.666335
 33
0.0
 14
24.528691
 24
1.415985
 34
0.0
 50
90.0
100
AcDbRotatedDimension
1001
ACAD
1000
DSTYLE
1002
{
1070
   174
1070
     1
1070
   272
1070
     2
1070
   287
1070
     5
1070
    42
1040
0.063
1070
   271
1070
     2
1070
     4
1000
mm
1070
   274
1070
     1
1070
   171
1070
     1
1070
   170
1070
     1
1002
}
  0
LINE
  5
26D62E
100
AcDbEntity
  8
OBJHOUSING
  6
CONTINUOUS
 62
     7
100
AcDbLine
 10
25.278691
 20
3.48116
 30
0.0
 11
25.278691
 21
0.60116
 31
0.0
  0
DIMENSION
  5
26D62F
100
AcDbEntity
  8
DIM
 62
     7
100
AcDbDimension
  2
*D23
 10
17.387219
 20
2.91616
 30
0.0
 11
17.387219
 21
2.04116
 31
0.0
 12
-1.920863
 22
-17.271405
 32
0.0
 70
    32
  3
STANDARD
100
AcDbAlignedDimension
 13
21.963705
 23
1.16616
 33
0.0
 14
21.963705
 24
2.91616
 34
0.0
 50
90.0
100
AcDbRotatedDimension
1001
ACAD
1000
DSTYLE
1002
{
1070
   174
1070
     1
1070
   272
1070
     2
1070
   287
1070
     5
1070
    42
1040
0.063
1070
   271
1070
     2
1070
     4
1000
mm
1070
   274
1070
     1
1070
   171
1070
     1
1070
   170
1070
     1
1002
}
  0
LINE
  5
26D630
100
AcDbEntity
  8
DIM
 62
     7
100
AcDbLine
 10
23.721485
 20
0.794034
 30
0.0
 11
23.541485
 21
0.794034
 31
0.0
  0
LINE
  5
26D631
100
AcDbEntity
  8
0
  6
CONTINUOUS
 62
     7
100
AcDbLine
 10
24.091198
 20
1.14616
 30
0.0
 11
22.591198
 21
1.14616
 31
0.0
  0
LINE
  5
26D632
100
AcDbEntity
  8
0
  6
CONTINUOUS
 62
     7
100
AcDbLine
 10
24.091198
 20
1.14616
 30
0.0
 11
22.591198
 21
1.14616
 31
0.0
  0
LINE
  5
26D633
100
AcDbEntity
  8
OBJHOUSING
 62
     7
100
AcDbLine
 10
21.963705
 20
1.16616
 30
0.0
 11
24.718691
 21
1.16616
 31
0.0
  0
TEXT
  5
26D635
100
AcDbEntity
  8
DIM
 62
     7
100
AcDbText
 10
21.111485
 20
0.704034
 30
0.0
 40
0.18
  1
2X %%C.281 [7.1mm]
 72
     2
 11
23.451485
 21
0.794034
 31
0.0
100
AcDbText
 73
     2
  0
TEXT
  5
26D636
100
AcDbEntity
  8
DIM
 62
     7
100
AcDbText
 10
21.051485
 20
0.430892
 30
0.0
 40
0.18
  1
MOUNTING HOLES
 72
     2
 11
23.451485
 21
0.520892
 31
0.0
100
AcDbText
 73
     2
  0
LINE
  5
26D637
100
AcDbEntity
  8
OBJBEAM
 62
     7
100
AcDbLine
 10
21.856705
 20
1.88516
 30
0.0
 11
21.856705
 21
1.7543
 31
0.0
  0
LINE
  5
26D638
100
AcDbEntity
  8
OBJBEAM
 62
     7
100
AcDbLine
 10
21.901705
 20
1.73566
 30
0.0
 11
21.856705
 21
1.7543
 31
0.0
  0
LINE
  5
26D639
100
AcDbEntity
  8
OBJHOUSING
 62
     7
100
AcDbLine
 10
21.963705
 20
1.16616
 30
0.0
 11
21.903705
 21
1.22616
 31
0.0
  0
LINE
  5
26D63A
100
AcDbEntity
  8
OBJBEAM
 62
     7
100
AcDbLine
 10
21.856705
 20
2.328021
 30
0.0
 11
21.856705
 21
2.19716
 31
0.0
  0
LINE
  5
26D63C
100
AcDbEntity
  8
OBJBEAM
 62
     7
100
AcDbLine
 10
21.901705
 20
2.34666
 30
0.0
 11
21.856705
 21
2.328021
 31
0.0
  0
LINE
  5
26D63D
100
AcDbEntity
  8
OBJBEAM
 62
     7
100
AcDbLine
 10
21.856705
 20
2.19716
 30
0.0
 11
21.651105
 21
2.19716
 31
0.0
  0
LINE
  5
26D63E
100
AcDbEntity
  8
OBJBEAM
 62
     7
100
AcDbLine
 10
21.856705
 20
1.88516
 30
0.0
 11
21.651105
 21
1.88516
 31
0.0
  0
LINE
  5
26D63F
100
AcDbEntity
  8
0
 62
     7
100
AcDbLine
 10
22.591198
 20
1.14616
 30
0.0
 11
22.591198
 21
1.16616
 31
0.0
  0
LINE
  5
26D640
100
AcDbEntity
  8
0
 62
     7
100
AcDbLine
 10
22.591198
 20
1.14616
 30
0.0
 11
22.591198
 21
1.16616
 31
0.0
  0
LINE
  5
26D641
100
AcDbEntity
  8
0
 62
     7
100
AcDbLine
 10
22.821908
 20
1.14616
 30
0.0
 11
22.660488
 21
1.14616
 31
0.0
  0
LINE
  5
26D642
100
AcDbEntity
  8
0
 62
     7
100
AcDbLine
 10
22.821908
 20
1.14616
 30
0.0
 11
22.660488
 21
1.14616
 31
0.0
  0
ARC
  5
26D643
100
AcDbEntity
  8
0
 62
     7
100
AcDbCircle
 10
22.741198
 20
1.158982
 30
0.0
 40
0.081722
100
AcDbArc
 50
189.026975
 51
350.973025
  0
ARC
  5
26D644
100
AcDbEntity
  8
0
 62
     7
100
AcDbCircle
 10
22.741198
 20
1.158982
 30
0.0
 40
0.081722
100
AcDbArc
 50
189.026975
 51
350.973025
  0
LINE
  5
26D645
100
AcDbEntity
  8
OBJBEAM
 62
     7
100
AcDbLine
 10
25.514691
 20
1.41616
 30
0.0
 11
25.278691
 21
1.41616
 31
0.0
  0
LINE
  5
26D646
100
AcDbEntity
  8
OBJHOUSING
  6
CONTINUOUS
 62
     7
100
AcDbLine
 10
24.778691
 20
1.10616
 30
0.0
 11
24.778691
 21
0.60116
 31
0.0
  0
LINE
  5
26D647
100
AcDbEntity
  8
DIM
 62
     7
100
AcDbLine
 10
24.276586
 20
1.218043
 30
0.0
 11
23.721485
 21
0.794034
 31
0.0
  0
LINE
  5
26D648
100
AcDbEntity
  8
HIDDEN
 62
     7
100
AcDbLine
 10
25.278691
 20
0.650535
 30
0.0
 11
24.778691
 21
0.650535
 31
0.0
  0
LINE
  5
26D649
100
AcDbEntity
  8
HIDDEN
 62
     7
100
AcDbLine
 10
25.278691
 20
0.931785
 30
0.0
 11
24.778691
 21
0.931785
 31
0.0
  0
LINE
  5
26D64A
100
AcDbEntity
  8
OBJHOUSING
 62
     7
100
AcDbLine
 10
25.218691
 20
0.54116
 30
0.0
 11
24.838691
 21
0.54116
 31
0.0
  0
LINE
  5
26D64B
100
AcDbEntity
  8
OBJHOUSING
 62
     7
100
AcDbLine
 10
24.838691
 20
0.54116
 30
0.0
 11
24.778691
 21
0.60116
 31
0.0
  0
LINE
  5
26D64C
100
AcDbEntity
  8
OBJHOUSING
 62
     7
100
AcDbLine
 10
25.278691
 20
0.60116
 30
0.0
 11
25.218691
 21
0.54116
 31
0.0
  0
LINE
  5
26D64D
100
AcDbEntity
  8
CTR
 62
     7
100
AcDbLine
 10
24.438691
 20
1.415985
 30
0.0
 11
24.618691
 21
1.415985
 31
0.0
  0
CIRCLE
  5
26D64E
100
AcDbEntity
  8
OBJHOUSING
 62
     7
100
AcDbCircle
 10
24.528691
 20
1.415985
 30
0.0
 40
0.140625
  0
LINE
  5
26D64F
100
AcDbEntity
  8
0
 62
     7
100
AcDbLine
 10
24.021908
 20
1.14616
 30
0.0
 11
23.860488
 21
1.14616
 31
0.0
  0
LINE
  5
26D650
100
AcDbEntity
  8
0
 62
     7
100
AcDbLine
 10
24.021908
 20
1.14616
 30
0.0
 11
23.860488
 21
1.14616
 31
0.0
  0
ARC
  5
26D651
100
AcDbEntity
  8
0
 62
     7
100
AcDbCircle
 10
23.941198
 20
1.158982
 30
0.0
 40
0.081722
100
AcDbArc
 50
189.026975
 51
350.973025
  0
ARC
  5
26D652
100
AcDbEntity
  8
0
 62
     7
100
AcDbCircle
 10
23.941198
 20
1.158982
 30
0.0
 40
0.081722
100
AcDbArc
 50
189.026975
 51
350.973025
  0
LINE
  5
26D653
100
AcDbEntity
  8
0
 62
     7
100
AcDbLine
 10
24.091198
 20
1.14616
 30
0.0
 11
24.091198
 21
1.16616
 31
0.0
  0
LINE
  5
26D654
100
AcDbEntity
  8
0
 62
     7
100
AcDbLine
 10
24.091198
 20
1.14616
 30
0.0
 11
24.091198
 21
1.16616
 31
0.0
  0
SOLID
  5
26D655
100
AcDbEntity
  8
DIM
 62
     7
100
AcDbTrace
 10
24.258577
 20
1.242036
 30
0.0
 11
24.294594
 21
1.194049
 31
0.0
 12
24.420548
 22
1.326094
 32
0.0
 13
24.420548
 23
1.326094
 33
0.0
  0
LINE
  5
26D656
100
AcDbEntity
  8
CTR
 62
     7
100
AcDbLine
 10
24.528691
 20
1.325985
 30
0.0
 11
24.528691
 21
1.505985
 31
0.0
  0
POINT
  5
26D657
100
AcDbEntity
  8
DEFPOINTS
  6
BYBLOCK
 62
     7
100
AcDbPoint
 10
24.528691
 20
1.415985
 30
0.0
  0
ARC
  5
26D658
100
AcDbEntity
  8
OBJHOUSING
 62
     7
100
AcDbCircle
 10
24.718691
 20
1.10616
 30
0.0
 40
0.06
100
AcDbArc
 50
0.0
 51
90.0
  0
LINE
  5
26D659
100
AcDbEntity
  8
0
 62
     7
100
AcDbLine
 10
26.007691
 20
2.33616
 30
0.0
 11
26.007691
 21
1.74616
 31
0.0
  0
ARC
  5
26D65A
100
AcDbEntity
  8
0
 62
     7
100
AcDbCircle
 10
25.591691
 20
1.74201
 30
0.0
 40
0.048
100
AcDbArc
 50
0.0
 51
90.0
  0
LINE
  5
26D65B
100
AcDbEntity
  8
0
 62
     7
100
AcDbLine
 10
25.576691
 20
2.51016
 30
0.0
 11
25.576691
 21
1.57216
 31
0.0
  0
LINE
  5
26D65C
100
AcDbEntity
  8
0
 62
     7
100
AcDbLine
 10
25.639511
 20
1.74616
 30
0.0
 11
26.007691
 21
1.74616
 31
0.0
  0
LINE
  5
26D65D
100
AcDbEntity
  8
0
 62
     7
100
AcDbLine
 10
25.576691
 20
1.79001
 30
0.0
 11
25.576691
 21
1.572901
 31
0.0
  0
LINE
  5
26D65E
100
AcDbEntity
  8
0
 62
     7
100
AcDbLine
 10
25.576691
 20
1.79001
 30
0.0
 11
25.591691
 21
1.79001
 31
0.0
  0
LINE
  5
26D65F
100
AcDbEntity
  8
0
 62
     7
100
AcDbLine
 10
25.591691
 20
1.57331
 30
0.0
 11
25.576691
 21
1.57331
 31
0.0
  0
ARC
  5
26D660
100
AcDbEntity
  8
0
 62
     7
100
AcDbCircle
 10
25.591691
 20
1.62131
 30
0.0
 40
0.048
100
AcDbArc
 50
270.0
 51
0.0
  0
LINE
  5
26D661
100
AcDbEntity
  8
0
 62
     7
100
AcDbLine
 10
25.639691
 20
1.74201
 30
0.0
 11
25.639691
 21
1.62131
 31
0.0
  0
LINE
  5
26D662
100
AcDbEntity
  8
0
 62
     7
100
AcDbLine
 10
25.576691
 20
1.79001
 30
0.0
 11
25.576691
 21
1.57331
 31
0.0
  0
LINE
  5
26D663
100
AcDbEntity
  8
0
 62
     7
100
AcDbLine
 10
25.591691
 20
1.79001
 30
0.0
 11
25.591691
 21
1.57331
 31
0.0
  0
LINE
  5
26D664
100
AcDbEntity
  8
0
 62
     7
100
AcDbLine
 10
25.514691
 20
1.57216
 30
0.0
 11
25.576691
 21
1.57216
 31
0.0
  0
LINE
  5
26D665
100
AcDbEntity
  8
0
 62
     7
100
AcDbLine
 10
25.639511
 20
2.33616
 30
0.0
 11
26.007691
 21
2.33616
 31
0.0
  0
LINE
  5
26D666
100
AcDbEntity
  8
0
 62
     7
100
AcDbLine
 10
25.576691
 20
2.50901
 30
0.0
 11
25.591691
 21
2.50901
 31
0.0
  0
LINE
  5
26D667
100
AcDbEntity
  8
0
 62
     7
100
AcDbLine
 10
25.514691
 20
2.51016
 30
0.0
 11
25.576691
 21
2.51016
 31
0.0
  0
ARC
  5
26D668
100
AcDbEntity
  8
0
 62
     7
100
AcDbCircle
 10
25.591691
 20
2.34031
 30
0.0
 40
0.048
100
AcDbArc
 50
270.0
 51
0.0
  0
LINE
  5
26D669
100
AcDbEntity
  8
0
 62
     7
100
AcDbLine
 10
25.591691
 20
2.29231
 30
0.0
 11
25.576691
 21
2.29231
 31
0.0
  0
LINE
  5
26D66A
100
AcDbEntity
  8
0
 62
     7
100
AcDbLine
 10
25.639691
 20
2.46101
 30
0.0
 11
25.639691
 21
2.34031
 31
0.0
  0
LINE
  5
26D66B
100
AcDbEntity
  8
0
 62
     7
100
AcDbLine
 10
25.576691
 20
2.50942
 30
0.0
 11
25.576691
 21
2.29231
 31
0.0
  0
ARC
  5
26D66C
100
AcDbEntity
  8
0
 62
     7
100
AcDbCircle
 10
25.591691
 20
2.46101
 30
0.0
 40
0.048
100
AcDbArc
 50
0.0
 51
90.0
  0
LINE
  5
26D66D
100
AcDbEntity
  8
0
 62
     7
100
AcDbLine
 10
25.576691
 20
2.50901
 30
0.0
 11
25.576691
 21
2.29231
 31
0.0
  0
LINE
  5
26D66E
100
AcDbEntity
  8
0
 62
     7
100
AcDbLine
 10
25.591691
 20
2.50901
 30
0.0
 11
25.591691
 21
2.29231
 31
0.0
  0
DIMENSION
  5
26D66F
100
AcDbEntity
  8
DIM
 62
     7
100
AcDbDimension
  2
*D27
 10
25.278691
 20
4.686386
 30
0.0
 11
23.591198
 21
4.686386
 31
0.0
 70
    32
  1
3.37 [85.7]
  3
STANDARD
100
AcDbAlignedDimension
 13
21.903705
 23
2.85616
 33
0.0
 14
25.278691
 24
3.48116
 34
0.0
100
AcDbRotatedDimension
1001
ACAD
1000
DSTYLE
1002
{
1070
   174
1070
     1
1070
   272
1070
     2
1070
   287
1070
     5
1070
    42
1040
0.063
1070
   271
1070
     2
1070
     4
1000
mm
1070
   274
1070
     1
1070
   171
1070
     1
1070
   170
1070
     1
1002
}
  0
LINE
  5
26D670
100
AcDbEntity
  8
0
  6
CONTINUOUS
 62
     7
100
AcDbLine
 10
24.091198
 20
2.93616
 30
0.0
 11
22.591198
 21
2.93616
 31
0.0
  0
LINE
  5
26D671
100
AcDbEntity
  8
0
  6
CONTINUOUS
 62
     7
100
AcDbLine
 10
24.091198
 20
2.93616
 30
0.0
 11
22.591198
 21
2.93616
 31
0.0
  0
LINE
  5
26D672
100
AcDbEntity
  8
OBJHOUSING
 62
     7
100
AcDbLine
 10
21.963705
 20
2.91616
 30
0.0
 11
24.718691
 21
2.91616
 31
0.0
  0
DIMENSION
  5
26D673
100
AcDbEntity
  8
DIM
 62
     7
100
AcDbDimension
  2
*D25
 10
21.651105
 20
5.240768
 30
0.0
 11
23.464898
 21
5.240768
 31
0.0
 70
    32
  3
STANDARD
100
AcDbAlignedDimension
 13
25.278691
 23
3.48116
 33
0.0
 14
21.651105
 24
2.19716
 34
0.0
100
AcDbRotatedDimension
1001
ACAD
1000
DSTYLE
1002
{
1070
   174
1070
     1
1070
   272
1070
     2
1070
   287
1070
     5
1070
    42
1040
0.063
1070
   271
1070
     2
1070
     4
1000
mm
1070
   274
1070
     1
1070
   171
1070
     1
1070
   170
1070
     1
1002
}
  0
LINE
  5
26D675
100
AcDbEntity
  8
CTR
 62
     7
100
AcDbLine
 10
22.063705
 20
2.666335
 30
0.0
 11
22.243705
 21
2.666335
 31
0.0
  0
LINE
  5
26D676
100
AcDbEntity
  8
OBJHOUSING
 62
     7
100
AcDbLine
 10
21.903705
 20
2.85616
 30
0.0
 11
21.963705
 21
2.91616
 31
0.0
  0
LINE
  5
26D677
100
AcDbEntity
  8
CTR
 62
     7
100
AcDbLine
 10
22.153705
 20
2.576335
 30
0.0
 11
22.153705
 21
2.756335
 31
0.0
  0
LINE
  5
26D678
100
AcDbEntity
  8
0
 62
     7
100
AcDbLine
 10
22.591198
 20
2.91616
 30
0.0
 11
22.591198
 21
2.93616
 31
0.0
  0
LINE
  5
26D679
100
AcDbEntity
  8
0
 62
     7
100
AcDbLine
 10
22.591198
 20
2.91616
 30
0.0
 11
22.591198
 21
2.93616
 31
0.0
  0
LINE
  5
26D67A
100
AcDbEntity
  8
0
 62
     7
100
AcDbLine
 10
22.660488
 20
2.93616
 30
0.0
 11
22.821908
 21
2.93616
 31
0.0
  0
LINE
  5
26D67B
100
AcDbEntity
  8
0
 62
     7
100
AcDbLine
 10
22.660488
 20
2.93616
 30
0.0
 11
22.821908
 21
2.93616
 31
0.0
  0
ARC
  5
26D67C
100
AcDbEntity
  8
0
 62
     7
100
AcDbCircle
 10
22.741198
 20
2.923338
 30
0.0
 40
0.081722
100
AcDbArc
 50
9.026975
 51
170.973025
  0
ARC
  5
26D67D
100
AcDbEntity
  8
0
 62
     7
100
AcDbCircle
 10
22.741198
 20
2.923338
 30
0.0
 40
0.081722
100
AcDbArc
 50
9.026975
 51
170.973025
  0
LINE
  5
26D67E
100
AcDbEntity
  8
DIM
  6
BYBLOCK
 62
     7
100
AcDbLine
 10
24.528691
 20
4.040939
 30
0.0
 11
25.638691
 21
4.040939
 31
0.0
  0
LINE
  5
26D67F
100
AcDbEntity
  8
OBJBEAM
 62
     7
100
AcDbLine
 10
25.514691
 20
2.66616
 30
0.0
 11
25.278691
 21
2.66616
 31
0.0
  0
LINE
  5
26D680
100
AcDbEntity
  8
DIM
  6
BYBLOCK
 62
     7
100
AcDbLine
 10
25.278691
 20
3.54366
 30
0.0
 11
25.278691
 21
4.220939
 31
0.0
  0
LINE
  5
26D681
100
AcDbEntity
  8
0
 62
     7
100
AcDbLine
 10
23.860488
 20
2.93616
 30
0.0
 11
24.021908
 21
2.93616
 31
0.0
  0
LINE
  5
26D682
100
AcDbEntity
  8
0
 62
     7
100
AcDbLine
 10
23.860488
 20
2.93616
 30
0.0
 11
24.021908
 21
2.93616
 31
0.0
  0
ARC
  5
26D683
100
AcDbEntity
  8
0
 62
     7
100
AcDbCircle
 10
23.941198
 20
2.923338
 30
0.0
 40
0.081722
100
AcDbArc
 50
9.026975
 51
170.973025
  0
ARC
  5
26D684
100
AcDbEntity
  8
0
 62
     7
100
AcDbCircle
 10
23.941198
 20
2.923338
 30
0.0
 40
0.081722
100
AcDbArc
 50
9.026975
 51
170.973025
  0
LINE
  5
26D685
100
AcDbEntity
  8
0
 62
     7
100
AcDbLine
 10
24.091198
 20
2.91616
 30
0.0
 11
24.091198
 21
2.93616
 31
0.0
  0
LINE
  5
26D686
100
AcDbEntity
  8
0
 62
     7
100
AcDbLine
 10
24.091198
 20
2.91616
 30
0.0
 11
24.091198
 21
2.93616
 31
0.0
  0
LINE
  5
26D687
100
AcDbEntity
  8
OBJHOUSING
  6
CONTINUOUS
 62
     7
100
AcDbLine
 10
24.778691
 20
3.48116
 30
0.0
 11
24.778691
 21
2.97616
 31
0.0
  0
LINE
  5
26D688
100
AcDbEntity
  8
HIDDEN
 62
     7
100
AcDbLine
 10
25.278691
 20
3.150535
 30
0.0
 11
24.778691
 21
3.150535
 31
0.0
  0
ARC
  5
26D689
100
AcDbEntity
  8
OBJHOUSING
 62
     7
100
AcDbCircle
 10
24.718691
 20
2.97616
 30
0.0
 40
0.06
100
AcDbArc
 50
270.0
 51
0.0
  0
LINE
  5
26D68A
100
AcDbEntity
  8
HIDDEN
 62
     7
100
AcDbLine
 10
25.278691
 20
3.431785
 30
0.0
 11
24.778691
 21
3.431785
 31
0.0
  0
LINE
  5
26D68B
100
AcDbEntity
  8
OBJHOUSING
 62
     7
100
AcDbLine
 10
25.218691
 20
3.54116
 30
0.0
 11
24.838691
 21
3.54116
 31
0.0
  0
LINE
  5
26D68C
100
AcDbEntity
  8
OBJHOUSING
 62
     7
100
AcDbLine
 10
24.838691
 20
3.54116
 30
0.0
 11
24.778691
 21
3.48116
 31
0.0
  0
POINT
  5
26D68D
100
AcDbEntity
  8
DEFPOINTS
  6
BYBLOCK
 62
     7
100
AcDbPoint
 10
25.278691
 20
3.48116
 30
0.0
  0
LINE
  5
26D68E
100
AcDbEntity
  8
OBJHOUSING
 62
     7
100
AcDbLine
 10
25.218691
 20
3.54116
 30
0.0
 11
25.278691
 21
3.48116
 31
0.0
  0
SOLID
  5
26D68F
100
AcDbEntity
  8
DIM
  6
BYBLOCK
 62
     7
100
AcDbTrace
 10
25.098691
 20
4.070939
 30
0.0
 11
25.098691
 21
4.010939
 31
0.0
 12
25.278691
 22
4.040939
 32
0.0
 13
25.278691
 23
4.040939
 33
0.0
  0
LINE
  5
26D6DE
100
AcDbEntity
  8
OBJBEAM
 62
     7
100
AcDbLine
 10
21.651105
 20
2.19716
 30
0.0
 11
21.651105
 21
1.88516
 31
0.0
  0
LINE
  5
26D6F7
100
AcDbEntity
  8
OBJHOUSING
 62
     7
100
AcDbLine
 10
21.903705
 20
1.96266
 30
0.0
 11
21.903705
 21
1.22616
 31
0.0
  0
LINE
  5
26D6F9
100
AcDbEntity
  8
OBJBEAM
 62
     7
100
AcDbLine
 10
21.856705
 20
2.19716
 30
0.0
 11
21.856705
 21
1.88516
 31
0.0
  0
LINE
  5
26D6FA
100
AcDbEntity
  8
OBJHOUSING
 62
     7
100
AcDbLine
 10
21.903705
 20
2.11966
 30
0.0
 11
21.903705
 21
1.96266
 31
0.0
  0
DIMENSION
  5
26D72D
100
AcDbEntity
  8
0
 62
     7
100
AcDbDimension
  2
*D28
 10
20.821105
 20
-1.170169
 30
0.0
 11
23.414398
 21
-1.170169
 31
0.0
 70
    32
  3
STANDARD
100
AcDbAlignedDimension
 13
26.007691
 23
1.74616
 33
0.0
 14
20.821105
 24
1.92116
 34
0.0
100
AcDbRotatedDimension
1001
ACAD
1000
DSTYLE
1002
{
1070
   174
1070
     1
1070
   272
1070
     2
1070
   287
1070
     5
1070
    42
1040
0.063
1070
   271
1070
     2
1070
     4
1000
mm
1070
   274
1070
     1
1070
   171
1070
     1
1070
   170
1070
     1
1002
}
  0
LINE
  5
26D762
100
AcDbEntity
  8
OBJWHEEL
  6
PHANTOM2
 62
     7
100
AcDbLine
 10
22.481968
 20
19.906804
 30
0.0
 11
22.481968
 21
18.718326
 31
0.0
  0
LEADER
  5
26D77D
100
AcDbEntity
  8
DIM
 62
     7
100
AcDbLeader
  3
STANDARD
 76
     2
 10
22.481968
 20
19.312565
 30
0.0
 10
21.097216
 20
18.04039
 30
0.0
 77
     7
1001
ACAD
1000
DSTYLE
1002
{
1070
   174
1070
     1
1070
   272
1070
     2
1070
   287
1070
     5
1070
    42
1040
0.063
1070
   271
1070
     2
1070
     4
1000
mm
1070
   274
1070
     1
1070
   171
1070
     1
1070
   170
1070
     1
1002
}
  0
DIMENSION
  5
26D78B
100
AcDbEntity
  8
0
 62
     7
100
AcDbDimension
  2
*D31
 10
22.481968
 20
23.012579
 30
0.0
 11
24.840761
 21
23.012579
 31
0.0
 70
    32
  3
STANDARD
100
AcDbAlignedDimension
 13
27.199554
 23
20.752565
 33
0.0
 14
22.481968
 24
19.906804
 34
0.0
100
AcDbRotatedDimension
1001
ACAD
1000
DSTYLE
1002
{
1070
   174
1070
     1
1070
   272
1070
     2
1070
   287
1070
     5
1070
    42
1040
0.063
1070
   271
1070
     2
1070
     4
1000
mm
1070
   274
1070
     1
1070
   171
1070
     1
1070
   170
1070
     1
1002
}
  0
DIMENSION
  5
26D7A5
100
AcDbEntity
  8
0
 62
     7
100
AcDbDimension
  2
*D32
 10
20.821105
 20
3.657756
 30
0.0
 11
19.598113
 21
3.657756
 31
0.0
 70
   160
  3
STANDARD
100
AcDbAlignedDimension
 13
21.651105
 23
2.23616
 33
0.0
 14
20.821105
 24
2.16116
 34
0.0
100
AcDbRotatedDimension
1001
ACAD
1000
DSTYLE
1002
{
1070
   174
1070
     1
1070
   272
1070
     2
1070
   287
1070
     5
1070
    42
1040
0.063
1070
   271
1070
     2
1070
     4
1000
mm
1070
   274
1070
     1
1070
   171
1070
     1
1070
   170
1070
     1
1002
}
  0
TEXT
  5
26D7C8
100
AcDbEntity
  8
DIM
 62
     7
100
AcDbText
 10
33.353035
 20
17.925601
 30
0.0
 40
0.18
  1
2X %%C.281 [7.1mm]
 72
     2
 11
35.693035
 21
18.015601
 31
0.0
100
AcDbText
 73
     2
  0
TEXT
  5
26D7C9
100
AcDbEntity
  8
DIM
 62
     7
100
AcDbText
 10
33.293035
 20
17.652458
 30
0.0
 40
0.18
  1
MOUNTING HOLES
 72
     2
 11
35.693035
 21
17.742458
 31
0.0
100
AcDbText
 73
     2
  0
LINE
  5
26D7CA
100
AcDbEntity
  8
0
 62
     7
100
AcDbLine
 10
33.651557
 20
18.215855
 30
0.0
 11
33.214161
 21
18.215855
 31
0.0
  0
LINE
  5
26D7CB
100
AcDbEntity
  8
0
 62
     7
100
AcDbLine
 10
33.214161
 20
18.215855
 30
0.0
 11
33.214161
 21
17.471616
 31
0.0
  0
LINE
  5
26D7CC
100
AcDbEntity
  8
0
 62
     7
100
AcDbLine
 10
33.214161
 20
17.471616
 30
0.0
 11
33.639735
 21
17.471616
 31
0.0
  0
LINE
  5
26D7CD
100
AcDbEntity
  8
0
 62
     7
100
AcDbLine
 10
32.788587
 20
17.843736
 30
0.0
 11
33.214161
 21
17.843736
 31
0.0
  0
LEADER
  5
26D7CF
100
AcDbEntity
  8
0
 62
     7
100
AcDbLeader
  3
STANDARD
 76
     2
 10
31.617772
 20
15.882496
 30
0.0
 10
32.788587
 20
17.843736
 30
0.0
 77
     7
1001
ACAD
1000
DSTYLE
1002
{
1070
   174
1070
     1
1070
   272
1070
     2
1070
   287
1070
     5
1070
    42
1040
0.063
1070
   271
1070
     2
1070
     4
1000
mm
1070
   274
1070
     1
1070
   171
1070
     1
1070
   170
1070
     1
1002
}
  0
LWPOLYLINE
  5
26D7DC
100
AcDbEntity
  8
BORDER
 62
     7
100
AcDbPolyline
 90
        2
 70
     0
 43
0.025
 10
18.609976
 20
-3.954896
 10
18.609976
 20
-8.768758
  0
TEXT
  5
26D7DD
100
AcDbEntity
  8
BORDER
 62
     7
100
AcDbText
 10
19.038872
 20
-7.232993
 30
0.0
 40
0.222228
  1
12/27/06
 50
90.0
 41
1.25
 72
     1
 11
19.038872
 21
-6.237597
 31
0.0
100
AcDbText
  0
TEXT
  5
26D7DE
100
AcDbEntity
  8
BORDER
 62
     7
100
AcDbText
 10
19.038872
 20
-8.613822
 30
0.0
 40
0.222228
  1
1626
 50
90.0
 41
1.25
 72
     1
 11
19.038872
 21
-8.150847
 31
0.0
100
AcDbText
  0
TEXT
  5
26D7DF
100
AcDbEntity
  8
BORDER
 62
     7
100
AcDbText
 10
19.038872
 20
-4.659498
 30
0.0
 40
0.222228
  1
D
 50
90.0
 41
1.25
 72
     1
 11
19.038872
 21
-4.566904
 31
0.0
100
AcDbText
  0
TEXT
  5
26D7F2
100
AcDbEntity
  8
BORDER
 62
     7
100
AcDbText
 10
-9.202336
 20
22.614821
 30
0.0
 40
0.24
  1
%%uLAST REVISION CHANGE
 41
0.9
  7
ROMANC
100
AcDbText
  0
TEXT
  5
26D7F3
100
AcDbEntity
  8
BORDER
 62
     7
100
AcDbText
 10
-9.202336
 20
21.282015
 30
0.0
 40
0.24
  1
CHANGE TO NEW TEMPLATE
 41
0.9
  7
ROMANC
100
AcDbText
  0
TEXT
  5
26D7F4
100
AcDbEntity
  8
BORDER
 62
     7
100
AcDbText
 10
-9.202336
 20
21.942414
 30
0.0
 40
0.24
  1
MADE ALL DIMENSION AGREE
 41
0.9
  7
ROMANC
100
AcDbText
  0
LINE
  5
26D7FA
100
AcDbEntity
  8
BORDER
  6
CONTINUOUS
 62
     7
100
AcDbLine
 10
-9.983142
 20
18.953278
 30
0.0
 11
-3.760761
 21
18.953278
 31
0.0
  0
LINE
  5
26D7FB
100
AcDbEntity
  8
BORDER
 62
     7
100
AcDbLine
 10
-3.760761
 20
19.810775
 30
0.0
 11
-9.983142
 21
19.810775
 31
0.0
  0
LINE
  5
26D7FC
100
AcDbEntity
  8
BORDER
 62
     7
100
AcDbLine
 10
-3.760761
 20
18.953278
 30
0.0
 11
-3.760761
 21
23.165563
 31
0.0
  0
LINE
  5
26D805
100
AcDbEntity
  8
BORDER
  6
CONTINUOUS
 62
     7
100
AcDbLine
 10
-9.983142
 20
18.953278
 30
0.0
 11
-9.983142
 21
24.943387
 31
0.0
  0
LINE
  5
26D806
100
AcDbEntity
  8
BORDER
  6
CONTINUOUS
 62
     7
100
AcDbLine
 10
-11.247576
 20
17.45575
 30
0.0
 11
-9.997576
 21
17.45575
 31
0.0
  0
LINE
  5
26D807
100
AcDbEntity
  8
BORDER
 62
     7
100
AcDbLine
 10
-3.760761
 20
22.329576
 30
0.0
 11
-9.983142
 21
22.329576
 31
0.0
  0
LINE
  5
26D808
100
AcDbEntity
  8
BORDER
 62
     7
100
AcDbLine
 10
-3.760761
 20
21.699876
 30
0.0
 11
-9.983142
 21
21.699876
 31
0.0
  0
LINE
  5
26D809
100
AcDbEntity
  8
BORDER
 62
     7
100
AcDbLine
 10
-3.760761
 20
21.070176
 30
0.0
 11
-9.983142
 21
21.070176
 31
0.0
  0
LINE
  5
26D80A
100
AcDbEntity
  8
BORDER
 62
     7
100
AcDbLine
 10
-3.760761
 20
20.440476
 30
0.0
 11
-9.983142
 21
20.440476
 31
0.0
  0
LWPOLYLINE
  5
26D80B
100
AcDbEntity
  8
BORDER
 62
     7
100
AcDbPolyline
 90
        4
 70
     1
 43
0.02
 10
-3.760761
 20
24.943387
 10
-9.983142
 20
24.943387
 10
-9.983142
 20
23.165563
 10
-3.760761
 20
23.165563
  0
TEXT
  5
26D80C
100
AcDbEntity
  8
BORDER
 62
     7
100
AcDbText
 10
-9.865277
 20
24.232257
 30
0.0
 40
0.085336
  1
IS THE CONFIDENTIAL PROPERTY OF DOVER FLEXO ELECTRONICS, NONE OF WHICH SHALL
 41
0.95
100
AcDbText
  0
TEXT
  5
26D80D
100
AcDbEntity
  8
BORDER
 62
     7
100
AcDbText
 10
-9.865277
 20
24.054475
 30
0.0
 40
0.085336
  1
BE COPIED, REPRODUCED, DISCLOSED TO OTHERS, PUBLISHED OR USED IN WHOLE OR IN
 41
0.95
100
AcDbText
  0
TEXT
  5
26D80E
100
AcDbEntity
  8
BORDER
 62
     7
100
AcDbText
 10
-9.865277
 20
23.876693
 30
0.0
 40
0.085336
  1
PART, FOR ANY PURPOSE OTHER THAN THAT FOR WHICH IT IS BEING MADE AVAILABLE
 41
0.95
100
AcDbText
  0
TEXT
  5
26D80F
100
AcDbEntity
  8
BORDER
 62
     7
100
AcDbText
 10
-9.865277
 20
23.69891
 30
0.0
 40
0.085336
  1
WITHOUT THE EXPRESS ADVANCE WRITTEN PERMISSION OF A DULY AUTHORIZED AGENT
 41
0.95
100
AcDbText
  0
TEXT
  5
26D810
100
AcDbEntity
  8
BORDER
 62
     7
100
AcDbText
 10
-9.865277
 20
23.521128
 30
0.0
 40
0.085336
  1
OF THE COMPANY. THIS DOCUMENT IS THE PROPERTY OF DFE AND
 41
0.95
100
AcDbText
  0
TEXT
  5
26D811
100
AcDbEntity
  8
BORDER
 62
     7
100
AcDbText
 10
-9.865277
 20
24.41004
 30
0.0
 40
0.085336
  1
THE SUBJECT MATTER DISCLOSED HEREIN EMBODIES PROPRIETARY INFORMATION WHICH
 41
0.95
100
AcDbText
  0
TEXT
  5
26D812
100
AcDbEntity
  8
BORDER
 62
     7
100
AcDbText
 10
-8.37635
 20
24.698943
 30
0.0
 40
0.120892
  1
COMPANY CONFIDENTIAL
 41
1.25
100
AcDbText
  0
LINE
  5
26D813
100
AcDbEntity
  8
BORDER
 62
     7
100
AcDbLine
 10
-8.443018
 20
24.654498
 30
0.0
 11
-5.420719
 21
24.654498
 31
0.0
  0
TEXT
  5
26D814
100
AcDbEntity
  8
BORDER
 62
     7
100
AcDbText
 10
-9.865277
 20
23.343346
 30
0.0
 40
0.085336
  1
IS TO BE RETURNED TO THE COMPANY ON DEMAND.
 41
0.95
100
AcDbText
  0
ENDSEC
  0
SECTION
  2
OBJECTS
  0
DICTIONARY
  5
26CB47
100
AcDbDictionary
  3
ACAD_GROUP
350
26CB48
  3
ACAD_MLINESTYLE
350
26CB55
  0
DICTIONARY
  5
26CB48
102
{ACAD_REACTORS
330
26CB47
102
}
100
AcDbDictionary
  0
DICTIONARY
  5
26CB55
102
{ACAD_REACTORS
330
26CB47
102
}
100
AcDbDictionary
  3
STANDARD
350
26CB56
  0
MLINESTYLE
  5
26CB56
102
{ACAD_REACTORS
330
26CB55
102
}
100
AcDbMlineStyle
  2
STANDARD
 70
     0
  3

 62
   256
 51
90.0
 52
90.0
 71
     2
 49
0.5
 62
   256
  6
BYLAYER
 49
-0.5
 62
   256
  6
BYLAYER
  0
ENDSEC
  0
EOF
