  0
SECTION
  2
HEADER
  9
$ACADVER
  1
AC1014
  9
$ACADMAINTVER
 70
     0
  9
$DWGCODEPAGE
  3
ANSI_1252
  9
$INSBASE
 10
0.0
 20
0.0
 30
0.0
  9
$EXTMIN
 10
102.468666
 20
-6.600337
 30
0.0
  9
$EXTMAX
 10
154.468666
 20
32.386294
 30
0.0
  9
$LIMMIN
 10
0.0
 20
0.0
  9
$LIMMAX
 10
12.0
 20
9.0
  9
$ORTHOMODE
 70
     1
  9
$REGENMODE
 70
     1
  9
$FILLMODE
 70
     1
  9
$QTEXTMODE
 70
     0
  9
$MIRRTEXT
 70
     1
  9
$DRAGMODE
 70
     2
  9
$LTSCALE
 40
0.25
  9
$OSMODE
 70
    35
  9
$ATTMODE
 70
     1
  9
$TEXTSIZE
 40
0.3
  9
$TRACEWID
 40
0.05
  9
$TEXTSTYLE
  7
STANDARD
  9
$CLAYER
  8
PILLOWBLOCK
  9
$CELTYPE
  6
BYLAYER
  9
$CECOLOR
 62
     7
  9
$CELTSCALE
 40
1.0
  9
$DELOBJ
 70
     1
  9
$DISPSILH
 70
     0
  9
$DIMSCALE
 40
0.0
  9
$DIMASZ
 40
0.18
  9
$DIMEXO
 40
0.13
  9
$DIMDLI
 40
0.18
  9
$DIMRND
 40
0.0
  9
$DIMDLE
 40
0.0
  9
$DIMEXE
 40
0.36
  9
$DIMTP
 40
0.0
  9
$DIMTM
 40
0.0
  9
$DIMTXT
 40
0.18
  9
$DIMCEN
 40
0.18
  9
$DIMTSZ
 40
0.0
  9
$DIMTOL
 70
     0
  9
$DIMLIM
 70
     0
  9
$DIMTIH
 70
     1
  9
$DIMTOH
 70
     1
  9
$DIMSE1
 70
     0
  9
$DIMSE2
 70
     0
  9
$DIMTAD
 70
     0
  9
$DIMZIN
 70
     0
  9
$DIMBLK
  1

  9
$DIMASO
 70
     1
  9
$DIMSHO
 70
     1
  9
$DIMPOST
  1

  9
$DIMAPOST
  1

  9
$DIMALT
 70
     0
  9
$DIMALTD
 70
     2
  9
$DIMALTF
 40
25.4
  9
$DIMLFAC
 40
1.0
  9
$DIMTOFL
 70
     0
  9
$DIMTVP
 40
0.0
  9
$DIMTIX
 70
     0
  9
$DIMSOXD
 70
     0
  9
$DIMSAH
 70
     0
  9
$DIMBLK1
  1

  9
$DIMBLK2
  1

  9
$DIMSTYLE
  2
BODYT
  9
$DIMCLRD
 70
     0
  9
$DIMCLRE
 70
     0
  9
$DIMCLRT
 70
     0
  9
$DIMTFAC
 40
1.0
  9
$DIMGAP
 40
0.18
  9
$DIMJUST
 70
     0
  9
$DIMSD1
 70
     0
  9
$DIMSD2
 70
     0
  9
$DIMTOLJ
 70
     1
  9
$DIMTZIN
 70
     0
  9
$DIMALTZ
 70
     0
  9
$DIMALTTZ
 70
     0
  9
$DIMFIT
 70
     3
  9
$DIMUPT
 70
     0
  9
$DIMUNIT
 70
     2
  9
$DIMDEC
 70
     2
  9
$DIMTDEC
 70
     2
  9
$DIMALTU
 70
     2
  9
$DIMALTTD
 70
     2
  9
$DIMTXSTY
  7
STANDARD
  9
$DIMAUNIT
 70
     0
  9
$LUNITS
 70
     2
  9
$LUPREC
 70
     2
  9
$SKETCHINC
 40
0.1
  9
$FILLETRAD
 40
0.03125
  9
$AUNITS
 70
     0
  9
$AUPREC
 70
     0
  9
$MENU
  1
acad
  9
$ELEVATION
 40
0.0
  9
$PELEVATION
 40
0.0
  9
$THICKNESS
 40
0.0
  9
$LIMCHECK
 70
     0
  9
$BLIPMODE
 70
     1
  9
$CHAMFERA
 40
0.0
  9
$CHAMFERB
 40
0.0
  9
$CHAMFERC
 40
0.0
  9
$CHAMFERD
 40
0.0
  9
$SKPOLY
 70
     0
  9
$TDCREATE
 40
2450640.417478240
  9
$TDUPDATE
 40
2453161.576004976
  9
$TDINDWG
 40
0.2130314815
  9
$TDUSRTIMER
 40
0.2130314815
  9
$USRTIMER
 70
     1
  9
$ANGBASE
 50
0.0
  9
$ANGDIR
 70
     0
  9
$PDMODE
 70
     0
  9
$PDSIZE
 40
0.0
  9
$PLINEWID
 40
0.0
  9
$COORDS
 70
     0
  9
$SPLFRAME
 70
     0
  9
$SPLINETYPE
 70
     6
  9
$SPLINESEGS
 70
     8
  9
$ATTDIA
 70
     0
  9
$ATTREQ
 70
     1
  9
$HANDLING
 70
     1
  9
$HANDSEED
  5
2F28
  9
$SURFTAB1
 70
     6
  9
$SURFTAB2
 70
     6
  9
$SURFTYPE
 70
     6
  9
$SURFU
 70
     6
  9
$SURFV
 70
     6
  9
$UCSNAME
  2

  9
$UCSORG
 10
0.0
 20
0.0
 30
0.0
  9
$UCSXDIR
 10
1.0
 20
0.0
 30
0.0
  9
$UCSYDIR
 10
0.0
 20
1.0
 30
0.0
  9
$PUCSNAME
  2

  9
$PUCSORG
 10
0.0
 20
0.0
 30
0.0
  9
$PUCSXDIR
 10
1.0
 20
0.0
 30
0.0
  9
$PUCSYDIR
 10
0.0
 20
1.0
 30
0.0
  9
$USERI1
 70
     0
  9
$USERI2
 70
     0
  9
$USERI3
 70
     0
  9
$USERI4
 70
     0
  9
$USERI5
 70
     0
  9
$USERR1
 40
0.0
  9
$USERR2
 40
0.0
  9
$USERR3
 40
0.0
  9
$USERR4
 40
0.0
  9
$USERR5
 40
0.0
  9
$WORLDVIEW
 70
     1
  9
$SHADEDGE
 70
     3
  9
$SHADEDIF
 70
    70
  9
$TILEMODE
 70
     1
  9
$MAXACTVP
 70
    16
  9
$PINSBASE
 10
0.0
 20
0.0
 30
0.0
  9
$PLIMCHECK
 70
     0
  9
$PEXTMIN
 10
1.000000E+20
 20
1.000000E+20
 30
1.000000E+20
  9
$PEXTMAX
 10
-1.000000E+20
 20
-1.000000E+20
 30
-1.000000E+20
  9
$PLIMMIN
 10
0.0
 20
0.0
  9
$PLIMMAX
 10
12.0
 20
9.0
  9
$UNITMODE
 70
     0
  9
$VISRETAIN
 70
     0
  9
$PLINEGEN
 70
     0
  9
$PSLTSCALE
 70
     1
  9
$TREEDEPTH
 70
  3020
  9
$PICKSTYLE
 70
     1
  9
$CMLSTYLE
  2
STANDARD
  9
$CMLJUST
 70
     0
  9
$CMLSCALE
 40
1.0
  9
$PROXYGRAPHICS
 70
     1
  9
$MEASUREMENT
 70
     0
  0
ENDSEC
  0
SECTION
  2
CLASSES
  0
CLASS
  1
DICTIONARYVAR
  2
AcDbDictionaryVar
  3
"AutoCAD"
 90
        0
280
     0
281
     0
  0
CLASS
  1
LWPOLYLINE
  2
AcDbPolyline
  3
"AutoCAD"
 90
        0
280
     0
281
     1
  0
CLASS
  1
HATCH
  2
AcDbHatch
  3
"ACAD_SEDONA"
 90
        0
280
     0
281
     1
  0
CLASS
  1
XRECORD
  2
AcDbXrecord
  3
"<Built In>"
 90
        0
280
     0
281
     0
  0
ENDSEC
  0
SECTION
  2
TABLES
  0
TABLE
  2
VPORT
  5
8
100
AcDbSymbolTable
 70
     2
  0
VPORT
  5
2F27
100
AcDbSymbolTableRecord
100
AcDbViewportTableRecord
  2
*ACTIVE
 70
     0
 10
0.0
 20
0.0
 11
1.0
 21
1.0
 12
133.508102
 22
16.232186
 13
0.0
 23
0.0
 14
1.0
 24
1.0
 15
0.0
 25
0.0
 16
0.0
 26
0.0
 36
1.0
 17
0.0
 27
0.0
 37
0.0
 40
55.82516
 41
1.700368
 42
50.0
 43
0.0
 44
0.0
 50
0.0
 51
0.0
 71
     0
 72
   100
 73
     1
 74
     0
 75
     0
 76
     0
 77
     0
 78
     0
  0
ENDTAB
  0
TABLE
  2
LTYPE
  5
5
100
AcDbSymbolTable
 70
     7
  0
LTYPE
  5
11
100
AcDbSymbolTableRecord
100
AcDbLinetypeTableRecord
  2
BYBLOCK
 70
     0
  3

 72
    65
 73
     0
 40
0.0
  0
LTYPE
  5
12
100
AcDbSymbolTableRecord
100
AcDbLinetypeTableRecord
  2
BYLAYER
 70
     0
  3

 72
    65
 73
     0
 40
0.0
  0
LTYPE
  5
13
100
AcDbSymbolTableRecord
100
AcDbLinetypeTableRecord
  2
CONTINUOUS
 70
     0
  3
Solid line
 72
    65
 73
     0
 40
0.0
  0
LTYPE
  5
5C
100
AcDbSymbolTableRecord
100
AcDbLinetypeTableRecord
  2
HIDDEN
 70
     0
  3
__ __ __ __ __ __ __ __ __ __ __ __ __ __ __ __
 72
    65
 73
     2
 40
0.375
 49
0.25
 74
     0
 49
-0.125
 74
     0
  0
LTYPE
  5
5D
100
AcDbSymbolTableRecord
100
AcDbLinetypeTableRecord
  2
CENTER
 70
     0
  3
____ _ ____ _ ____ _ ____ _ ____ _ ____ _ ____ 
 72
    65
 73
     4
 40
2.0
 49
1.25
 74
     0
 49
-0.25
 74
     0
 49
0.25
 74
     0
 49
-0.25
 74
     0
  0
LTYPE
  5
5E
100
AcDbSymbolTableRecord
100
AcDbLinetypeTableRecord
  2
DASHED
 70
     0
  3
__ __ __ __ __ __ __ __ __ __ __ __ __ __ __
 72
    65
 73
     2
 40
0.75
 49
0.5
 74
     0
 49
-0.25
 74
     0
  0
LTYPE
  5
5F
100
AcDbSymbolTableRecord
100
AcDbLinetypeTableRecord
  2
DASHDOT
 70
     0
  3
__ . __ . __ . __ . __ . __ . __ . __ . __ .
 72
    65
 73
     4
 40
1.0
 49
0.5
 74
     0
 49
-0.25
 74
     0
 49
0.0
 74
     0
 49
-0.25
 74
     0
  0
LTYPE
  5
60
100
AcDbSymbolTableRecord
100
AcDbLinetypeTableRecord
  2
CENTER2
 70
     0
  3
___ _ ___ _ ___ _ ___ _ ___ _ ___ _ ___ _ ___ _
 72
    65
 73
     4
 40
1.125
 49
0.75
 74
     0
 49
-0.125
 74
     0
 49
0.125
 74
     0
 49
-0.125
 74
     0
  0
LTYPE
  5
C72
100
AcDbSymbolTableRecord
100
AcDbLinetypeTableRecord
  2
HIDDEN2
 70
     0
  3
_ _ _ _ _ _ _ _ _ _ _ _ _ _ _ _ _ _ _ _ _ _ _ _
 72
    65
 73
     2
 40
0.1875
 49
0.125
 74
     0
 49
-0.0625
 74
     0
  0
ENDTAB
  0
TABLE
  2
LAYER
  5
2
100
AcDbSymbolTable
 70
    15
  0
LAYER
  5
E
100
AcDbSymbolTableRecord
100
AcDbLayerTableRecord
  2
0
 70
     0
 62
     7
  6
CONTINUOUS
  0
LAYER
  5
6B
100
AcDbSymbolTableRecord
100
AcDbLayerTableRecord
  2
DEFPOINTS
 70
     0
 62
     7
  6
CONTINUOUS
  0
LAYER
  5
6D
100
AcDbSymbolTableRecord
100
AcDbLayerTableRecord
  2
3
 70
     0
 62
     7
  6
CONTINUOUS
  0
LAYER
  5
6E
100
AcDbSymbolTableRecord
100
AcDbLayerTableRecord
  2
OBJ
 70
     0
 62
     6
  6
CONTINUOUS
  0
LAYER
  5
70
100
AcDbSymbolTableRecord
100
AcDbLayerTableRecord
  2
CTR
 70
     0
 62
     3
  6
CENTER
  0
LAYER
  5
71
100
AcDbSymbolTableRecord
100
AcDbLayerTableRecord
  2
HID
 70
     0
 62
     2
  6
DASHED
  0
LAYER
  5
72
100
AcDbSymbolTableRecord
100
AcDbLayerTableRecord
  2
DIM
 70
     0
 62
     4
  6
CONTINUOUS
  0
LAYER
  5
75
100
AcDbSymbolTableRecord
100
AcDbLayerTableRecord
  2
TEXT
 70
     0
 62
     4
  6
CONTINUOUS
  0
LAYER
  5
76
100
AcDbSymbolTableRecord
100
AcDbLayerTableRecord
  2
BORDER
 70
     0
 62
     5
  6
CONTINUOUS
  0
LAYER
  5
77
100
AcDbSymbolTableRecord
100
AcDbLayerTableRecord
  2
OBJASSY
 70
     0
 62
     7
  6
DASHDOT
  0
LAYER
  5
C30
100
AcDbSymbolTableRecord
100
AcDbLayerTableRecord
  2
PILLOWBLOCK
 70
     0
 62
     7
  6
CONTINUOUS
  0
LAYER
  5
C73
100
AcDbSymbolTableRecord
100
AcDbLayerTableRecord
  2
WELD
 70
     0
 62
     2
  6
CONTINUOUS
  0
LAYER
  5
C74
100
AcDbSymbolTableRecord
100
AcDbLayerTableRecord
  2
HID2
 70
     0
 62
    15
  6
HIDDEN2
  0
LAYER
  5
17D6
100
AcDbSymbolTableRecord
100
AcDbLayerTableRecord
  2
REV
 70
     0
 62
     4
  6
CONTINUOUS
  0
LAYER
  5
1CBA
100
AcDbSymbolTableRecord
100
AcDbLayerTableRecord
  2
ART1
 70
     0
 62
     3
  6
CONTINUOUS
  0
ENDTAB
  0
TABLE
  2
STYLE
  5
3
100
AcDbSymbolTable
 70
     7
  0
STYLE
  5
F
100
AcDbSymbolTableRecord
100
AcDbTextStyleTableRecord
  2
STANDARD
 70
     0
 40
0.0
 41
1.0
 50
0.0
 71
     0
 42
0.3
  3
txt.shx
  4

  0
STYLE
  5
53
100
AcDbSymbolTableRecord
100
AcDbTextStyleTableRecord
  2
TXT
 70
     0
 40
0.18
 41
1.0
 50
0.0
 71
     0
 42
0.18
  3
TXT.shx
  4

  0
STYLE
  5
54
100
AcDbSymbolTableRecord
100
AcDbTextStyleTableRecord
  2
ROMANS
 70
     0
 40
0.1
 41
0.77
 50
0.0
 71
     0
 42
0.1
  3
ROMANS.shx
  4

  0
STYLE
  5
55
100
AcDbSymbolTableRecord
100
AcDbTextStyleTableRecord
  2
ROMANC
 70
     0
 40
0.0
 41
1.0
 50
0.0
 71
     0
 42
0.0
  3
ROMANC
  4

  0
STYLE
  5
56
100
AcDbSymbolTableRecord
100
AcDbTextStyleTableRecord
  2
ITALICC
 70
     0
 40
0.0
 41
1.0
 50
0.0
 71
     0
 42
0.0
  3
ITALICC
  4

  0
STYLE
  5
57
100
AcDbSymbolTableRecord
100
AcDbTextStyleTableRecord
  2
ROMANT
 70
     0
 40
0.1
 41
1.0
 50
0.0
 71
     0
 42
0.1
  3
romant
  4

  0
STYLE
  5
59
100
AcDbSymbolTableRecord
100
AcDbTextStyleTableRecord
  2
HELV
 70
     0
 40
0.0
 41
1.0
 50
0.0
 71
     0
 42
0.2
  3
UFHELV6.SHX
  4

  0
ENDTAB
  0
TABLE
  2
VIEW
  5
6
100
AcDbSymbolTable
 70
     1
  0
VIEW
  5
2F12
100
AcDbSymbolTableRecord
100
AcDbViewTableRecord
  2
CONN
 70
     0
 40
5.441746
 10
142.346345
 20
25.408995
 41
6.680258
 11
0.0
 21
0.0
 31
1.0
 12
0.0
 22
0.0
 32
0.0
 42
50.0
 43
0.0
 44
0.0
 50
0.0
 71
     0
  0
ENDTAB
  0
TABLE
  2
UCS
  5
7
100
AcDbSymbolTable
 70
     0
  0
ENDTAB
  0
TABLE
  2
APPID
  5
9
100
AcDbSymbolTable
 70
    17
  0
APPID
  5
10
100
AcDbSymbolTableRecord
100
AcDbRegAppTableRecord
  2
ACAD
 70
     0
  0
APPID
  5
1816
100
AcDbSymbolTableRecord
100
AcDbRegAppTableRecord
  2
MCAD_NO_VIS
 70
     0
  0
APPID
  5
1817
100
AcDbSymbolTableRecord
100
AcDbRegAppTableRecord
  2
ACAD_TEMP_GRAPHIC
 70
     0
  0
APPID
  5
1818
100
AcDbSymbolTableRecord
100
AcDbRegAppTableRecord
  2
ACATTRIBSERVICES
 70
     0
  0
APPID
  5
1819
100
AcDbSymbolTableRecord
100
AcDbRegAppTableRecord
  2
GENIUS_GENSCREG_15
 70
     0
  0
APPID
  5
181A
100
AcDbSymbolTableRecord
100
AcDbRegAppTableRecord
  2
GENIUS_GENODEF_13
 70
     0
  0
APPID
  5
181B
100
AcDbSymbolTableRecord
100
AcDbRegAppTableRecord
  2
GENIUS_GENOBJ-N-SDF_13
 70
     0
  0
APPID
  5
1CBB
100
AcDbSymbolTableRecord
100
AcDbRegAppTableRecord
  2
CONTENTBLOCKICON
 70
     0
  0
APPID
  5
1CBC
100
AcDbSymbolTableRecord
100
AcDbRegAppTableRecord
  2
CONTENTBLOCKDESCRIPTION
 70
     0
  0
APPID
  5
1CBD
100
AcDbSymbolTableRecord
100
AcDbRegAppTableRecord
  2
GENIUS_GENOBJ-N-FIL_13
 70
     0
  0
APPID
  5
1CBE
100
AcDbSymbolTableRecord
100
AcDbRegAppTableRecord
  2
GENIUS_GENOBJ-N-HTC_13
 70
     0
  0
APPID
  5
1CBF
100
AcDbSymbolTableRecord
100
AcDbRegAppTableRecord
  2
GENIUS_GENHATCH_13
 70
     0
  0
APPID
  5
1CC0
100
AcDbSymbolTableRecord
100
AcDbRegAppTableRecord
  2
GENIUS_GENDTOL_13
 70
     0
  0
APPID
  5
1CC1
100
AcDbSymbolTableRecord
100
AcDbRegAppTableRecord
  2
_APP0
 70
     0
  0
APPID
  5
1CC2
100
AcDbSymbolTableRecord
100
AcDbRegAppTableRecord
  2
CONTENTTABDATA
 70
     0
  0
APPID
  5
1CC3
100
AcDbSymbolTableRecord
100
AcDbRegAppTableRecord
  2
CONTENTCURRENTTAB
 70
     0
  0
APPID
  5
1CC4
100
AcDbSymbolTableRecord
100
AcDbRegAppTableRecord
  2
AVE_RENDER
 70
     0
  0
ENDTAB
  0
TABLE
  2
DIMSTYLE
  5
A
100
AcDbSymbolTable
 70
     1
  0
DIMSTYLE
105
63
102
{ACAD_REACTORS
330
11DC
330
11EB
330
11FA
330
1217
330
124C
330
125B
330
1269
330
1277
330
12A6
330
12CC
330
1302
330
2DA1
330
2DCE
330
2E56
330
2E8C
330
2EB8
330
2EE4
102
}
100
AcDbSymbolTableRecord
100
AcDbDimStyleTableRecord
  2
BODYT
 70
     0
  3

  4

  5

  6

  7

 40
1.0
 41
0.18
 42
0.0625
 43
0.38
 44
0.18
 45
0.0
 46
0.0
 47
0.0
 48
0.0
140
0.18
141
0.09
142
0.0
143
25.4
144
1.0
145
0.0
146
1.0
147
0.09
 71
     0
 72
     0
 73
     1
 74
     1
 75
     0
 76
     0
 77
     0
 78
     0
170
     0
171
     2
172
     0
173
     0
174
     0
175
     0
176
     0
177
     0
178
     0
270
     2
271
     2
272
     2
273
     2
274
     2
340
F
275
     0
280
     0
281
     0
282
     0
283
     1
284
     0
285
     0
286
     0
287
     5
288
     0
  0
ENDTAB
  0
TABLE
  2
BLOCK_RECORD
  5
1
100
AcDbSymbolTable
 70
    42
  0
BLOCK_RECORD
  5
17
100
AcDbSymbolTableRecord
100
AcDbBlockTableRecord
  2
*MODEL_SPACE
  0
BLOCK_RECORD
  5
14
100
AcDbSymbolTableRecord
100
AcDbBlockTableRecord
  2
*PAPER_SPACE
  0
BLOCK_RECORD
  5
26
100
AcDbSymbolTableRecord
100
AcDbBlockTableRecord
  2
*D0
  0
BLOCK_RECORD
  5
27
100
AcDbSymbolTableRecord
100
AcDbBlockTableRecord
  2
*D1
  0
BLOCK_RECORD
  5
29
100
AcDbSymbolTableRecord
100
AcDbBlockTableRecord
  2
*D2
  0
BLOCK_RECORD
  5
2A
100
AcDbSymbolTableRecord
100
AcDbBlockTableRecord
  2
*D3
  0
BLOCK_RECORD
  5
2B
100
AcDbSymbolTableRecord
100
AcDbBlockTableRecord
  2
*D4
  0
BLOCK_RECORD
  5
2C
100
AcDbSymbolTableRecord
100
AcDbBlockTableRecord
  2
*D5
  0
BLOCK_RECORD
  5
2D
100
AcDbSymbolTableRecord
100
AcDbBlockTableRecord
  2
*D6
  0
BLOCK_RECORD
  5
2E
100
AcDbSymbolTableRecord
100
AcDbBlockTableRecord
  2
*D7
  0
BLOCK_RECORD
  5
2F
100
AcDbSymbolTableRecord
100
AcDbBlockTableRecord
  2
*D8
  0
BLOCK_RECORD
  5
30
100
AcDbSymbolTableRecord
100
AcDbBlockTableRecord
  2
*D9
  0
BLOCK_RECORD
  5
31
100
AcDbSymbolTableRecord
100
AcDbBlockTableRecord
  2
*D10
  0
BLOCK_RECORD
  5
32
100
AcDbSymbolTableRecord
100
AcDbBlockTableRecord
  2
*D11
  0
BLOCK_RECORD
  5
33
100
AcDbSymbolTableRecord
100
AcDbBlockTableRecord
  2
*D12
  0
BLOCK_RECORD
  5
34
100
AcDbSymbolTableRecord
100
AcDbBlockTableRecord
  2
*D13
  0
BLOCK_RECORD
  5
35
100
AcDbSymbolTableRecord
100
AcDbBlockTableRecord
  2
*D14
  0
BLOCK_RECORD
  5
36
100
AcDbSymbolTableRecord
100
AcDbBlockTableRecord
  2
*D15
  0
BLOCK_RECORD
  5
37
100
AcDbSymbolTableRecord
100
AcDbBlockTableRecord
  2
*D16
  0
BLOCK_RECORD
  5
38
100
AcDbSymbolTableRecord
100
AcDbBlockTableRecord
  2
*D17
  0
BLOCK_RECORD
  5
3B
100
AcDbSymbolTableRecord
100
AcDbBlockTableRecord
  2
*D18
  0
BLOCK_RECORD
  5
4F
100
AcDbSymbolTableRecord
100
AcDbBlockTableRecord
  2
*D19
  0
BLOCK_RECORD
  5
50
100
AcDbSymbolTableRecord
100
AcDbBlockTableRecord
  2
*D20
  0
BLOCK_RECORD
  5
51
100
AcDbSymbolTableRecord
100
AcDbBlockTableRecord
  2
*D21
  0
BLOCK_RECORD
  5
52
100
AcDbSymbolTableRecord
100
AcDbBlockTableRecord
  2
*D22
  0
BLOCK_RECORD
  5
11CE
100
AcDbSymbolTableRecord
100
AcDbBlockTableRecord
  2
*D23
  0
BLOCK_RECORD
  5
11DD
100
AcDbSymbolTableRecord
100
AcDbBlockTableRecord
  2
*D24
  0
BLOCK_RECORD
  5
11EC
100
AcDbSymbolTableRecord
100
AcDbBlockTableRecord
  2
*D25
  0
BLOCK_RECORD
  5
1209
100
AcDbSymbolTableRecord
100
AcDbBlockTableRecord
  2
*D26
  0
BLOCK_RECORD
  5
123F
100
AcDbSymbolTableRecord
100
AcDbBlockTableRecord
  2
*D27
  0
BLOCK_RECORD
  5
124D
100
AcDbSymbolTableRecord
100
AcDbBlockTableRecord
  2
*D28
  0
BLOCK_RECORD
  5
125C
100
AcDbSymbolTableRecord
100
AcDbBlockTableRecord
  2
*D29
  0
BLOCK_RECORD
  5
126A
100
AcDbSymbolTableRecord
100
AcDbBlockTableRecord
  2
*D30
  0
BLOCK_RECORD
  5
1299
100
AcDbSymbolTableRecord
100
AcDbBlockTableRecord
  2
*D31
  0
BLOCK_RECORD
  5
12BF
100
AcDbSymbolTableRecord
100
AcDbBlockTableRecord
  2
*D32
  0
BLOCK_RECORD
  5
12F5
100
AcDbSymbolTableRecord
100
AcDbBlockTableRecord
  2
*D33
  0
BLOCK_RECORD
  5
1359
100
AcDbSymbolTableRecord
100
AcDbBlockTableRecord
  2
A$C63965B9F
  0
BLOCK_RECORD
  5
1638
100
AcDbSymbolTableRecord
100
AcDbBlockTableRecord
  2
COPY
  0
BLOCK_RECORD
  5
2D94
100
AcDbSymbolTableRecord
100
AcDbBlockTableRecord
  2
*D36
  0
BLOCK_RECORD
  5
2DC0
100
AcDbSymbolTableRecord
100
AcDbBlockTableRecord
  2
*D37
  0
BLOCK_RECORD
  5
2E49
100
AcDbSymbolTableRecord
100
AcDbBlockTableRecord
  2
*D38
  0
BLOCK_RECORD
  5
2E7F
100
AcDbSymbolTableRecord
100
AcDbBlockTableRecord
  2
*D39
  0
BLOCK_RECORD
  5
2EAB
100
AcDbSymbolTableRecord
100
AcDbBlockTableRecord
  2
*D40
  0
BLOCK_RECORD
  5
2ED7
100
AcDbSymbolTableRecord
100
AcDbBlockTableRecord
  2
*D41
  0
ENDTAB
  0
ENDSEC
  0
SECTION
  2
BLOCKS
  0
BLOCK
  5
7B
100
AcDbEntity
  8
0
 62
     7
100
AcDbBlockBegin
  2
*MODEL_SPACE
 70
     0
 10
0.0
 20
0.0
 30
0.0
  3
*MODEL_SPACE
  1

  0
ENDBLK
  5
7C
100
AcDbEntity
  8
0
 62
     7
100
AcDbBlockEnd
  0
BLOCK
  5
79
100
AcDbEntity
 67
     1
  8
0
 62
     7
100
AcDbBlockBegin
  2
*PAPER_SPACE
 70
     0
 10
0.0
 20
0.0
 30
0.0
  3
*PAPER_SPACE
  1

  0
ENDBLK
  5
7A
100
AcDbEntity
 67
     1
  8
0
 62
     7
100
AcDbBlockEnd
  0
BLOCK
  5
1B6
100
AcDbEntity
  8
0
100
AcDbBlockBegin
  2
*D0
 70
     1
 10
0.0
 20
0.0
 30
0.0
  3
*D0
  1

  0
LINE
  5
1B7
100
AcDbEntity
  8
0
  6
BYBLOCK
 62
     0
100
AcDbLine
 10
71.526183
 20
26.663274
 30
0.0
 11
73.672184
 21
26.663274
 31
0.0
  0
LINE
  5
1B8
100
AcDbEntity
  8
0
  6
BYBLOCK
 62
     0
100
AcDbLine
 10
71.245183
 20
25.055274
 30
0.0
 11
73.672184
 21
25.055274
 31
0.0
  0
LINE
  5
1B9
100
AcDbEntity
  8
0
  6
BYBLOCK
 62
     0
100
AcDbLine
 10
73.312184
 20
26.483274
 30
0.0
 11
73.312184
 21
26.129274
 31
0.0
  0
LINE
  5
1BA
100
AcDbEntity
  8
0
  6
BYBLOCK
 62
     0
100
AcDbLine
 10
73.312184
 20
25.235274
 30
0.0
 11
73.312184
 21
25.589274
 31
0.0
  0
SOLID
  5
1BB
100
AcDbEntity
  8
0
  6
BYBLOCK
 62
     0
100
AcDbTrace
 10
73.282184
 20
26.483274
 30
0.0
 11
73.342184
 21
26.483274
 31
0.0
 12
73.312184
 22
26.663274
 32
0.0
 13
73.312184
 23
26.663274
 33
0.0
  0
SOLID
  5
1BC
100
AcDbEntity
  8
0
  6
BYBLOCK
 62
     0
100
AcDbTrace
 10
73.282184
 20
25.235274
 30
0.0
 11
73.342184
 21
25.235274
 31
0.0
 12
73.312184
 22
25.055274
 32
0.0
 13
73.312184
 23
25.055274
 33
0.0
  0
TEXT
  5
1BD
100
AcDbEntity
  8
0
  6
BYBLOCK
 62
     0
100
AcDbText
 10
73.102184
 20
25.769274
 30
0.0
 40
0.18
  1
1.61
 72
     1
 11
73.312184
 21
25.859274
 31
0.0
100
AcDbText
 73
     2
  0
POINT
  5
1BE
100
AcDbEntity
  8
DEFPOINTS
  6
BYBLOCK
 62
     0
100
AcDbPoint
 10
71.401183
 20
26.663274
 30
0.0
  0
POINT
  5
1BF
100
AcDbEntity
  8
DEFPOINTS
  6
BYBLOCK
 62
     0
100
AcDbPoint
 10
71.120183
 20
25.055274
 30
0.0
  0
POINT
  5
1C0
100
AcDbEntity
  8
DEFPOINTS
  6
BYBLOCK
 62
     0
100
AcDbPoint
 10
73.312184
 20
25.055274
 30
0.0
  0
ENDBLK
  5
1C1
100
AcDbEntity
  8
0
100
AcDbBlockEnd
  0
BLOCK
  5
1C2
100
AcDbEntity
  8
0
100
AcDbBlockBegin
  2
*D1
 70
     1
 10
0.0
 20
0.0
 30
0.0
  3
*D1
  1

  0
LINE
  5
1C3
100
AcDbEntity
  8
0
  6
BYBLOCK
 62
     0
100
AcDbLine
 10
79.118631
 20
26.663274
 30
0.0
 11
81.395262
 21
26.663274
 31
0.0
  0
LINE
  5
1C4
100
AcDbEntity
  8
0
  6
BYBLOCK
 62
     0
100
AcDbLine
 10
78.837631
 20
25.015274
 30
0.0
 11
81.395262
 21
25.015274
 31
0.0
  0
LINE
  5
1C5
100
AcDbEntity
  8
0
  6
BYBLOCK
 62
     0
100
AcDbLine
 10
81.035262
 20
26.483274
 30
0.0
 11
81.035262
 21
26.109274
 31
0.0
  0
LINE
  5
1C6
100
AcDbEntity
  8
0
  6
BYBLOCK
 62
     0
100
AcDbLine
 10
81.035262
 20
25.195274
 30
0.0
 11
81.035262
 21
25.569274
 31
0.0
  0
SOLID
  5
1C7
100
AcDbEntity
  8
0
  6
BYBLOCK
 62
     0
100
AcDbTrace
 10
81.005262
 20
26.483274
 30
0.0
 11
81.065262
 21
26.483274
 31
0.0
 12
81.035262
 22
26.663274
 32
0.0
 13
81.035262
 23
26.663274
 33
0.0
  0
SOLID
  5
1C8
100
AcDbEntity
  8
0
  6
BYBLOCK
 62
     0
100
AcDbTrace
 10
81.005262
 20
25.195274
 30
0.0
 11
81.065262
 21
25.195274
 31
0.0
 12
81.035262
 22
25.015274
 32
0.0
 13
81.035262
 23
25.015274
 33
0.0
  0
TEXT
  5
1C9
100
AcDbEntity
  8
0
  6
BYBLOCK
 62
     0
100
AcDbText
 10
80.825262
 20
25.749274
 30
0.0
 40
0.18
  1
1.61
 72
     1
 11
81.035262
 21
25.839274
 31
0.0
100
AcDbText
 73
     2
  0
POINT
  5
1CA
100
AcDbEntity
  8
DEFPOINTS
  6
BYBLOCK
 62
     0
100
AcDbPoint
 10
78.993631
 20
26.663274
 30
0.0
  0
POINT
  5
1CB
100
AcDbEntity
  8
DEFPOINTS
  6
BYBLOCK
 62
     0
100
AcDbPoint
 10
78.712631
 20
25.015274
 30
0.0
  0
POINT
  5
1CC
100
AcDbEntity
  8
DEFPOINTS
  6
BYBLOCK
 62
     0
100
AcDbPoint
 10
81.035262
 20
25.015274
 30
0.0
  0
ENDBLK
  5
1CD
100
AcDbEntity
  8
0
100
AcDbBlockEnd
  0
BLOCK
  5
1DA
100
AcDbEntity
  8
0
100
AcDbBlockBegin
  2
*D2
 70
     1
 10
0.0
 20
0.0
 30
0.0
  3
*D2
  1

  0
LINE
  5
1DB
100
AcDbEntity
  8
0
  6
BYBLOCK
 62
     0
100
AcDbLine
 10
79.497631
 20
25.055274
 30
0.0
 11
80.568103
 21
25.055274
 31
0.0
  0
LINE
  5
1DC
100
AcDbEntity
  8
0
  6
BYBLOCK
 62
     0
100
AcDbLine
 10
79.497631
 20
25.420274
 30
0.0
 11
80.568103
 21
25.420274
 31
0.0
  0
LINE
  5
1DD
100
AcDbEntity
  8
0
  6
BYBLOCK
 62
     0
100
AcDbLine
 10
80.208103
 20
24.875274
 30
0.0
 11
80.208103
 21
24.695274
 31
0.0
  0
LINE
  5
1DE
100
AcDbEntity
  8
0
  6
BYBLOCK
 62
     0
100
AcDbLine
 10
80.208103
 20
25.600274
 30
0.0
 11
80.208103
 21
25.780274
 31
0.0
  0
SOLID
  5
1DF
100
AcDbEntity
  8
0
  6
BYBLOCK
 62
     0
100
AcDbTrace
 10
80.178103
 20
24.875274
 30
0.0
 11
80.238103
 21
24.875274
 31
0.0
 12
80.208103
 22
25.055274
 32
0.0
 13
80.208103
 23
25.055274
 33
0.0
  0
SOLID
  5
1E0
100
AcDbEntity
  8
0
  6
BYBLOCK
 62
     0
100
AcDbTrace
 10
80.178103
 20
25.600274
 30
0.0
 11
80.238103
 21
25.600274
 31
0.0
 12
80.208103
 22
25.420274
 32
0.0
 13
80.208103
 23
25.420274
 33
0.0
  0
TEXT
  5
1E1
100
AcDbEntity
  8
0
  6
BYBLOCK
 62
     0
100
AcDbText
 10
79.953103
 20
25.147774
 30
0.0
 40
0.18
  1
0.37
 72
     1
 11
80.208103
 21
25.237774
 31
0.0
100
AcDbText
 73
     2
  0
POINT
  5
1E2
100
AcDbEntity
  8
DEFPOINTS
  6
BYBLOCK
 62
     0
100
AcDbPoint
 10
79.372631
 20
25.055274
 30
0.0
  0
POINT
  5
1E3
100
AcDbEntity
  8
DEFPOINTS
  6
BYBLOCK
 62
     0
100
AcDbPoint
 10
79.372631
 20
25.420274
 30
0.0
  0
POINT
  5
1E4
100
AcDbEntity
  8
DEFPOINTS
  6
BYBLOCK
 62
     0
100
AcDbPoint
 10
80.208103
 20
25.420274
 30
0.0
  0
ENDBLK
  5
1E5
100
AcDbEntity
  8
0
100
AcDbBlockEnd
  0
BLOCK
  5
1E6
100
AcDbEntity
  8
0
100
AcDbBlockBegin
  2
*D3
 70
     1
 10
0.0
 20
0.0
 30
0.0
  3
*D3
  1

  0
LINE
  5
1E7
100
AcDbEntity
  8
0
  6
BYBLOCK
 62
     0
100
AcDbLine
 10
71.245183
 20
25.055274
 30
0.0
 11
72.800966
 21
25.055274
 31
0.0
  0
LINE
  5
1E8
100
AcDbEntity
  8
0
  6
BYBLOCK
 62
     0
100
AcDbLine
 10
72.135644
 20
26.005274
 30
0.0
 11
72.800966
 21
26.005274
 31
0.0
  0
LINE
  5
1E9
100
AcDbEntity
  8
0
  6
BYBLOCK
 62
     0
100
AcDbLine
 10
72.440966
 20
24.875274
 30
0.0
 11
72.440966
 21
24.695274
 31
0.0
  0
LINE
  5
1EA
100
AcDbEntity
  8
0
  6
BYBLOCK
 62
     0
100
AcDbLine
 10
72.440966
 20
26.185274
 30
0.0
 11
72.440966
 21
26.365274
 31
0.0
  0
SOLID
  5
1EB
100
AcDbEntity
  8
0
  6
BYBLOCK
 62
     0
100
AcDbTrace
 10
72.410966
 20
24.875274
 30
0.0
 11
72.470966
 21
24.875274
 31
0.0
 12
72.440966
 22
25.055274
 32
0.0
 13
72.440966
 23
25.055274
 33
0.0
  0
SOLID
  5
1EC
100
AcDbEntity
  8
0
  6
BYBLOCK
 62
     0
100
AcDbTrace
 10
72.410966
 20
26.185274
 30
0.0
 11
72.470966
 21
26.185274
 31
0.0
 12
72.440966
 22
26.005274
 32
0.0
 13
72.440966
 23
26.005274
 33
0.0
  0
TEXT
  5
1ED
100
AcDbEntity
  8
0
  6
BYBLOCK
 62
     0
100
AcDbText
 10
72.185966
 20
25.440274
 30
0.0
 40
0.18
  1
0.95
 72
     1
 11
72.440966
 21
25.530274
 31
0.0
100
AcDbText
 73
     2
  0
POINT
  5
1EE
100
AcDbEntity
  8
DEFPOINTS
  6
BYBLOCK
 62
     0
100
AcDbPoint
 10
71.120183
 20
25.055274
 30
0.0
  0
POINT
  5
1EF
100
AcDbEntity
  8
DEFPOINTS
  6
BYBLOCK
 62
     0
100
AcDbPoint
 10
72.010644
 20
26.005274
 30
0.0
  0
POINT
  5
1F0
100
AcDbEntity
  8
DEFPOINTS
  6
BYBLOCK
 62
     0
100
AcDbPoint
 10
72.440966
 20
26.005274
 30
0.0
  0
ENDBLK
  5
1F1
100
AcDbEntity
  8
0
100
AcDbBlockEnd
  0
BLOCK
  5
1F2
100
AcDbEntity
  8
0
100
AcDbBlockBegin
  2
*D4
 70
     1
 10
0.0
 20
0.0
 30
0.0
  3
*D4
  1

  0
LINE
  5
1F3
100
AcDbEntity
  8
0
  6
BYBLOCK
 62
     0
100
AcDbLine
 10
69.922277
 20
20.373082
 30
0.0
 11
68.757334
 21
19.786858
 31
0.0
  0
LINE
  5
1F4
100
AcDbEntity
  8
0
  6
BYBLOCK
 62
     0
100
AcDbLine
 10
68.757334
 20
19.786858
 30
0.0
 11
68.577334
 21
19.786858
 31
0.0
  0
SOLID
  5
1F5
100
AcDbEntity
  8
0
  6
BYBLOCK
 62
     0
100
AcDbTrace
 10
69.935762
 20
20.346284
 30
0.0
 11
69.908791
 21
20.39988
 31
0.0
 12
70.083066
 22
20.453995
 32
0.0
 13
70.083066
 23
20.453995
 33
0.0
  0
LINE
  5
1F6
100
AcDbEntity
  8
0
  6
BYBLOCK
 62
     0
100
AcDbLine
 10
70.040183
 20
20.522995
 30
0.0
 11
70.400183
 21
20.522995
 31
0.0
  0
LINE
  5
1F7
100
AcDbEntity
  8
0
  6
BYBLOCK
 62
     0
100
AcDbLine
 10
70.220183
 20
20.342995
 30
0.0
 11
70.220183
 21
20.702995
 31
0.0
  0
TEXT
  5
1F8
100
AcDbEntity
  8
0
  6
BYBLOCK
 62
     0
100
AcDbText
 10
66.147334
 20
19.696858
 30
0.0
 40
0.18
  1
0.375-16UNC-2B
 72
     1
 11
67.272334
 21
19.786858
 31
0.0
100
AcDbText
 73
     2
  0
POINT
  5
1F9
100
AcDbEntity
  8
DEFPOINTS
  6
BYBLOCK
 62
     0
100
AcDbPoint
 10
70.083066
 20
20.453995
 30
0.0
  0
POINT
  5
1FA
100
AcDbEntity
  8
DEFPOINTS
  6
BYBLOCK
 62
     0
100
AcDbPoint
 10
70.357301
 20
20.591996
 30
0.0
  0
ENDBLK
  5
1FB
100
AcDbEntity
  8
0
100
AcDbBlockEnd
  0
BLOCK
  5
1FC
100
AcDbEntity
  8
0
100
AcDbBlockBegin
  2
*D5
 70
     1
 10
0.0
 20
0.0
 30
0.0
  3
*D5
  1

  0
LINE
  5
1FD
100
AcDbEntity
  8
0
  6
BYBLOCK
 62
     0
100
AcDbLine
 10
68.808566
 20
14.355667
 30
0.0
 11
70.988992
 21
14.355667
 31
0.0
  0
LINE
  5
1FE
100
AcDbEntity
  8
0
  6
BYBLOCK
 62
     0
100
AcDbLine
 10
68.808566
 20
12.418167
 30
0.0
 11
70.988992
 21
12.418167
 31
0.0
  0
LINE
  5
1FF
100
AcDbEntity
  8
0
  6
BYBLOCK
 62
     0
100
AcDbLine
 10
70.628992
 20
14.175667
 30
0.0
 11
70.628992
 21
13.656917
 31
0.0
  0
LINE
  5
200
100
AcDbEntity
  8
0
  6
BYBLOCK
 62
     0
100
AcDbLine
 10
70.628992
 20
12.598167
 30
0.0
 11
70.628992
 21
13.116917
 31
0.0
  0
SOLID
  5
201
100
AcDbEntity
  8
0
  6
BYBLOCK
 62
     0
100
AcDbTrace
 10
70.598992
 20
14.175667
 30
0.0
 11
70.658992
 21
14.175667
 31
0.0
 12
70.628992
 22
14.355667
 32
0.0
 13
70.628992
 23
14.355667
 33
0.0
  0
SOLID
  5
202
100
AcDbEntity
  8
0
  6
BYBLOCK
 62
     0
100
AcDbTrace
 10
70.598992
 20
12.598167
 30
0.0
 11
70.658992
 21
12.598167
 31
0.0
 12
70.628992
 22
12.418167
 32
0.0
 13
70.628992
 23
12.418167
 33
0.0
  0
TEXT
  5
203
100
AcDbEntity
  8
0
  6
BYBLOCK
 62
     0
100
AcDbText
 10
70.298992
 20
13.296917
 30
0.0
 40
0.18
  1
%%C
 72
     1
 11
70.358992
 21
13.386917
 31
0.0
100
AcDbText
 73
     2
  0
TEXT
  5
204
100
AcDbEntity
  8
0
  6
BYBLOCK
 62
     0
100
AcDbText
 10
70.478992
 20
13.296917
 30
0.0
 40
0.18
  1
1.94
 72
     1
 11
70.718992
 21
13.386917
 31
0.0
100
AcDbText
 73
     2
  0
POINT
  5
205
100
AcDbEntity
  8
DEFPOINTS
  6
BYBLOCK
 62
     0
100
AcDbPoint
 10
68.683566
 20
14.355667
 30
0.0
  0
POINT
  5
206
100
AcDbEntity
  8
DEFPOINTS
  6
BYBLOCK
 62
     0
100
AcDbPoint
 10
68.683566
 20
12.418167
 30
0.0
  0
POINT
  5
207
100
AcDbEntity
  8
DEFPOINTS
  6
BYBLOCK
 62
     0
100
AcDbPoint
 10
70.628992
 20
12.418167
 30
0.0
  0
ENDBLK
  5
208
100
AcDbEntity
  8
0
100
AcDbBlockEnd
  0
BLOCK
  5
209
100
AcDbEntity
  8
0
100
AcDbBlockBegin
  2
*D6
 70
     1
 10
0.0
 20
0.0
 30
0.0
  3
*D6
  1

  0
LINE
  5
20A
100
AcDbEntity
  8
0
  6
BYBLOCK
 62
     0
100
AcDbLine
 10
68.728566
 20
12.480667
 30
0.0
 11
69.732918
 21
12.480667
 31
0.0
  0
LINE
  5
20B
100
AcDbEntity
  8
0
  6
BYBLOCK
 62
     0
100
AcDbLine
 10
68.728566
 20
14.293167
 30
0.0
 11
69.732918
 21
14.293167
 31
0.0
  0
LINE
  5
20C
100
AcDbEntity
  8
0
  6
BYBLOCK
 62
     0
100
AcDbLine
 10
69.372918
 20
12.660667
 30
0.0
 11
69.372918
 21
13.116917
 31
0.0
  0
LINE
  5
20D
100
AcDbEntity
  8
0
  6
BYBLOCK
 62
     0
100
AcDbLine
 10
69.372918
 20
14.113167
 30
0.0
 11
69.372918
 21
13.656917
 31
0.0
  0
SOLID
  5
20E
100
AcDbEntity
  8
0
  6
BYBLOCK
 62
     0
100
AcDbTrace
 10
69.342918
 20
12.660667
 30
0.0
 11
69.402918
 21
12.660667
 31
0.0
 12
69.372918
 22
12.480667
 32
0.0
 13
69.372918
 23
12.480667
 33
0.0
  0
SOLID
  5
20F
100
AcDbEntity
  8
0
  6
BYBLOCK
 62
     0
100
AcDbTrace
 10
69.342918
 20
14.113167
 30
0.0
 11
69.402918
 21
14.113167
 31
0.0
 12
69.372918
 22
14.293167
 32
0.0
 13
69.372918
 23
14.293167
 33
0.0
  0
TEXT
  5
210
100
AcDbEntity
  8
0
  6
BYBLOCK
 62
     0
100
AcDbText
 10
69.072918
 20
13.296917
 30
0.0
 40
0.18
  1
%%C
 72
     1
 11
69.132918
 21
13.386917
 31
0.0
100
AcDbText
 73
     2
  0
TEXT
  5
211
100
AcDbEntity
  8
0
  6
BYBLOCK
 62
     0
100
AcDbText
 10
69.252918
 20
13.296917
 30
0.0
 40
0.18
  1
1.81
 72
     1
 11
69.462918
 21
13.386917
 31
0.0
100
AcDbText
 73
     2
  0
POINT
  5
212
100
AcDbEntity
  8
DEFPOINTS
  6
BYBLOCK
 62
     0
100
AcDbPoint
 10
68.603566
 20
12.480667
 30
0.0
  0
POINT
  5
213
100
AcDbEntity
  8
DEFPOINTS
  6
BYBLOCK
 62
     0
100
AcDbPoint
 10
68.603566
 20
14.293167
 30
0.0
  0
POINT
  5
214
100
AcDbEntity
  8
DEFPOINTS
  6
BYBLOCK
 62
     0
100
AcDbPoint
 10
69.372918
 20
14.293167
 30
0.0
  0
ENDBLK
  5
215
100
AcDbEntity
  8
0
100
AcDbBlockEnd
  0
BLOCK
  5
216
100
AcDbEntity
  8
0
100
AcDbBlockBegin
  2
*D7
 70
     1
 10
0.0
 20
0.0
 30
0.0
  3
*D7
  1

  0
LINE
  5
217
100
AcDbEntity
  8
0
  6
BYBLOCK
 62
     0
100
AcDbLine
 10
72.697334
 20
12.898615
 30
0.0
 11
72.53576
 21
13.116917
 31
0.0
  0
LINE
  5
218
100
AcDbEntity
  8
0
  6
BYBLOCK
 62
     0
100
AcDbLine
 10
71.974513
 20
13.875219
 30
0.0
 11
72.136086
 21
13.656917
 31
0.0
  0
SOLID
  5
219
100
AcDbEntity
  8
0
  6
BYBLOCK
 62
     0
100
AcDbTrace
 10
72.67322
 20
12.880768
 30
0.0
 11
72.721447
 21
12.916462
 31
0.0
 12
72.804418
 22
12.753933
 32
0.0
 13
72.804418
 23
12.753933
 33
0.0
  0
SOLID
  5
21A
100
AcDbEntity
  8
0
  6
BYBLOCK
 62
     0
100
AcDbTrace
 10
71.950399
 20
13.857371
 30
0.0
 11
71.998626
 21
13.893066
 31
0.0
 12
71.867428
 22
14.019901
 32
0.0
 13
71.867428
 23
14.019901
 33
0.0
  0
TEXT
  5
21B
100
AcDbEntity
  8
0
  6
BYBLOCK
 62
     0
100
AcDbText
 10
72.005923
 20
13.296917
 30
0.0
 40
0.18
  1
%%c1.57
 72
     1
 11
72.335923
 21
13.386917
 31
0.0
100
AcDbText
 73
     2
  0
POINT
  5
21C
100
AcDbEntity
  8
DEFPOINTS
  6
BYBLOCK
 62
     0
100
AcDbPoint
 10
72.804418
 20
12.753933
 30
0.0
  0
POINT
  5
21D
100
AcDbEntity
  8
DEFPOINTS
  6
BYBLOCK
 62
     0
100
AcDbPoint
 10
71.867428
 20
14.019901
 30
0.0
  0
ENDBLK
  5
21E
100
AcDbEntity
  8
0
100
AcDbBlockEnd
  0
BLOCK
  5
21F
100
AcDbEntity
  8
0
100
AcDbBlockBegin
  2
*D8
 70
     1
 10
0.0
 20
0.0
 30
0.0
  3
*D8
  1

  0
LINE
  5
220
100
AcDbEntity
  8
0
  6
BYBLOCK
 62
     0
100
AcDbLine
 10
79.518286
 20
12.312017
 30
0.0
 11
79.518286
 21
10.8258
 31
0.0
  0
LINE
  5
221
100
AcDbEntity
  8
0
  6
BYBLOCK
 62
     0
100
AcDbLine
 10
79.318286
 20
12.312017
 30
0.0
 11
79.318286
 21
10.8258
 31
0.0
  0
LINE
  5
222
100
AcDbEntity
  8
0
  6
BYBLOCK
 62
     0
100
AcDbLine
 10
79.698286
 20
11.1858
 30
0.0
 11
79.878286
 21
11.1858
 31
0.0
  0
LINE
  5
223
100
AcDbEntity
  8
0
  6
BYBLOCK
 62
     0
100
AcDbLine
 10
79.138286
 20
11.1858
 30
0.0
 11
78.958286
 21
11.1858
 31
0.0
  0
SOLID
  5
224
100
AcDbEntity
  8
0
  6
BYBLOCK
 62
     0
100
AcDbTrace
 10
79.698286
 20
11.2158
 30
0.0
 11
79.698286
 21
11.1558
 31
0.0
 12
79.518286
 22
11.1858
 32
0.0
 13
79.518286
 23
11.1858
 33
0.0
  0
SOLID
  5
225
100
AcDbEntity
  8
0
  6
BYBLOCK
 62
     0
100
AcDbTrace
 10
79.138286
 20
11.2158
 30
0.0
 11
79.138286
 21
11.1558
 31
0.0
 12
79.318286
 22
11.1858
 32
0.0
 13
79.318286
 23
11.1858
 33
0.0
  0
TEXT
  5
226
100
AcDbEntity
  8
0
  6
BYBLOCK
 62
     0
100
AcDbText
 10
78.298286
 20
11.0958
 30
0.0
 40
0.18
  1
0.20
 72
     1
 11
78.538286
 21
11.1858
 31
0.0
100
AcDbText
 73
     2
  0
POINT
  5
227
100
AcDbEntity
  8
DEFPOINTS
  6
BYBLOCK
 62
     0
100
AcDbPoint
 10
79.518286
 20
12.437017
 30
0.0
  0
POINT
  5
228
100
AcDbEntity
  8
DEFPOINTS
  6
BYBLOCK
 62
     0
100
AcDbPoint
 10
79.318286
 20
12.437017
 30
0.0
  0
POINT
  5
229
100
AcDbEntity
  8
DEFPOINTS
  6
BYBLOCK
 62
     0
100
AcDbPoint
 10
79.318286
 20
11.1858
 30
0.0
  0
ENDBLK
  5
22A
100
AcDbEntity
  8
0
100
AcDbBlockEnd
  0
BLOCK
  5
22B
100
AcDbEntity
  8
0
100
AcDbBlockBegin
  2
*D9
 70
     1
 10
0.0
 20
0.0
 30
0.0
  3
*D9
  1

  0
LINE
  5
22C
100
AcDbEntity
  8
0
  6
BYBLOCK
 62
     0
100
AcDbLine
 10
79.098286
 20
12.307542
 30
0.0
 11
79.098286
 21
10.073392
 31
0.0
  0
LINE
  5
22D
100
AcDbEntity
  8
0
  6
BYBLOCK
 62
     0
100
AcDbLine
 10
80.383286
 20
12.307542
 30
0.0
 11
80.383286
 21
10.073392
 31
0.0
  0
LINE
  5
22E
100
AcDbEntity
  8
0
  6
BYBLOCK
 62
     0
100
AcDbLine
 10
78.918286
 20
10.433392
 30
0.0
 11
78.738286
 21
10.433392
 31
0.0
  0
LINE
  5
22F
100
AcDbEntity
  8
0
  6
BYBLOCK
 62
     0
100
AcDbLine
 10
80.563286
 20
10.433392
 30
0.0
 11
80.743286
 21
10.433392
 31
0.0
  0
SOLID
  5
230
100
AcDbEntity
  8
0
  6
BYBLOCK
 62
     0
100
AcDbTrace
 10
78.918286
 20
10.463392
 30
0.0
 11
78.918286
 21
10.403392
 31
0.0
 12
79.098286
 22
10.433392
 32
0.0
 13
79.098286
 23
10.433392
 33
0.0
  0
SOLID
  5
231
100
AcDbEntity
  8
0
  6
BYBLOCK
 62
     0
100
AcDbTrace
 10
80.563286
 20
10.463392
 30
0.0
 11
80.563286
 21
10.403392
 31
0.0
 12
80.383286
 22
10.433392
 32
0.0
 13
80.383286
 23
10.433392
 33
0.0
  0
TEXT
  5
232
100
AcDbEntity
  8
0
  6
BYBLOCK
 62
     0
100
AcDbText
 10
79.500786
 20
10.343392
 30
0.0
 40
0.18
  1
1.28
 72
     1
 11
79.740786
 21
10.433392
 31
0.0
100
AcDbText
 73
     2
  0
POINT
  5
233
100
AcDbEntity
  8
DEFPOINTS
  6
BYBLOCK
 62
     0
100
AcDbPoint
 10
79.098286
 20
12.432542
 30
0.0
  0
POINT
  5
234
100
AcDbEntity
  8
DEFPOINTS
  6
BYBLOCK
 62
     0
100
AcDbPoint
 10
80.383286
 20
12.432542
 30
0.0
  0
POINT
  5
235
100
AcDbEntity
  8
DEFPOINTS
  6
BYBLOCK
 62
     0
100
AcDbPoint
 10
80.383286
 20
10.433392
 30
0.0
  0
ENDBLK
  5
236
100
AcDbEntity
  8
0
100
AcDbBlockEnd
  0
BLOCK
  5
237
100
AcDbEntity
  8
0
100
AcDbBlockBegin
  2
*D10
 70
     1
 10
0.0
 20
0.0
 30
0.0
  3
*D10
  1

  0
LINE
  5
238
100
AcDbEntity
  8
0
  6
BYBLOCK
 62
     0
100
AcDbLine
 10
79.098286
 20
14.466292
 30
0.0
 11
79.098286
 21
15.14944
 31
0.0
  0
LINE
  5
239
100
AcDbEntity
  8
0
  6
BYBLOCK
 62
     0
100
AcDbLine
 10
79.418286
 20
14.461817
 30
0.0
 11
79.418286
 21
15.14944
 31
0.0
  0
LINE
  5
23A
100
AcDbEntity
  8
0
  6
BYBLOCK
 62
     0
100
AcDbLine
 10
78.918286
 20
14.78944
 30
0.0
 11
78.738286
 21
14.78944
 31
0.0
  0
LINE
  5
23B
100
AcDbEntity
  8
0
  6
BYBLOCK
 62
     0
100
AcDbLine
 10
79.598286
 20
14.78944
 30
0.0
 11
79.778286
 21
14.78944
 31
0.0
  0
SOLID
  5
23C
100
AcDbEntity
  8
0
  6
BYBLOCK
 62
     0
100
AcDbTrace
 10
78.918286
 20
14.81944
 30
0.0
 11
78.918286
 21
14.75944
 31
0.0
 12
79.098286
 22
14.78944
 32
0.0
 13
79.098286
 23
14.78944
 33
0.0
  0
SOLID
  5
23D
100
AcDbEntity
  8
0
  6
BYBLOCK
 62
     0
100
AcDbTrace
 10
79.598286
 20
14.81944
 30
0.0
 11
79.598286
 21
14.75944
 31
0.0
 12
79.418286
 22
14.78944
 32
0.0
 13
79.418286
 23
14.78944
 33
0.0
  0
TEXT
  5
23E
100
AcDbEntity
  8
0
  6
BYBLOCK
 62
     0
100
AcDbText
 10
79.958286
 20
14.69944
 30
0.0
 40
0.18
  1
0.32
 72
     1
 11
80.213286
 21
14.78944
 31
0.0
100
AcDbText
 73
     2
  0
POINT
  5
23F
100
AcDbEntity
  8
DEFPOINTS
  6
BYBLOCK
 62
     0
100
AcDbPoint
 10
79.098286
 20
14.341292
 30
0.0
  0
POINT
  5
240
100
AcDbEntity
  8
DEFPOINTS
  6
BYBLOCK
 62
     0
100
AcDbPoint
 10
79.418286
 20
14.336817
 30
0.0
  0
POINT
  5
241
100
AcDbEntity
  8
DEFPOINTS
  6
BYBLOCK
 62
     0
100
AcDbPoint
 10
79.418286
 20
14.78944
 30
0.0
  0
ENDBLK
  5
242
100
AcDbEntity
  8
0
100
AcDbBlockEnd
  0
BLOCK
  5
243
100
AcDbEntity
  8
0
100
AcDbBlockBegin
  2
*D11
 70
     1
 10
0.0
 20
0.0
 30
0.0
  3
*D11
  1

  0
LINE
  5
244
100
AcDbEntity
  8
0
  6
BYBLOCK
 62
     0
100
AcDbLine
 10
79.543286
 20
14.236817
 30
0.0
 11
81.550895
 21
14.236817
 31
0.0
  0
LINE
  5
245
100
AcDbEntity
  8
0
  6
BYBLOCK
 62
     0
100
AcDbLine
 10
79.543286
 20
12.537017
 30
0.0
 11
81.550895
 21
12.537017
 31
0.0
  0
LINE
  5
246
100
AcDbEntity
  8
0
  6
BYBLOCK
 62
     0
100
AcDbLine
 10
81.190895
 20
14.056817
 30
0.0
 11
81.190895
 21
13.656917
 31
0.0
  0
LINE
  5
247
100
AcDbEntity
  8
0
  6
BYBLOCK
 62
     0
100
AcDbLine
 10
81.190895
 20
12.717017
 30
0.0
 11
81.190895
 21
13.116917
 31
0.0
  0
SOLID
  5
248
100
AcDbEntity
  8
0
  6
BYBLOCK
 62
     0
100
AcDbTrace
 10
81.160895
 20
14.056817
 30
0.0
 11
81.220895
 21
14.056817
 31
0.0
 12
81.190895
 22
14.236817
 32
0.0
 13
81.190895
 23
14.236817
 33
0.0
  0
SOLID
  5
249
100
AcDbEntity
  8
0
  6
BYBLOCK
 62
     0
100
AcDbTrace
 10
81.160895
 20
12.717017
 30
0.0
 11
81.220895
 21
12.717017
 31
0.0
 12
81.190895
 22
12.537017
 32
0.0
 13
81.190895
 23
12.537017
 33
0.0
  0
TEXT
  5
24A
100
AcDbEntity
  8
0
  6
BYBLOCK
 62
     0
100
AcDbText
 10
80.875895
 20
13.296917
 30
0.0
 40
0.18
  1
%%C
 72
     1
 11
80.935895
 21
13.386917
 31
0.0
100
AcDbText
 73
     2
  0
TEXT
  5
24B
100
AcDbEntity
  8
0
  6
BYBLOCK
 62
     0
100
AcDbText
 10
81.055895
 20
13.296917
 30
0.0
 40
0.18
  1
1.70
 72
     1
 11
81.280895
 21
13.386917
 31
0.0
100
AcDbText
 73
     2
  0
POINT
  5
24C
100
AcDbEntity
  8
DEFPOINTS
  6
BYBLOCK
 62
     0
100
AcDbPoint
 10
79.418286
 20
14.236817
 30
0.0
  0
POINT
  5
24D
100
AcDbEntity
  8
DEFPOINTS
  6
BYBLOCK
 62
     0
100
AcDbPoint
 10
79.418286
 20
12.537017
 30
0.0
  0
POINT
  5
24E
100
AcDbEntity
  8
DEFPOINTS
  6
BYBLOCK
 62
     0
100
AcDbPoint
 10
81.190895
 20
12.537017
 30
0.0
  0
ENDBLK
  5
24F
100
AcDbEntity
  8
0
100
AcDbBlockEnd
  0
BLOCK
  5
250
100
AcDbEntity
  8
0
100
AcDbBlockBegin
  2
*D12
 70
     1
 10
0.0
 20
0.0
 30
0.0
  3
*D12
  1

  0
LINE
  5
251
100
AcDbEntity
  8
0
  6
BYBLOCK
 62
     0
100
AcDbLine
 10
80.478286
 20
14.371292
 30
0.0
 11
82.680269
 21
14.371292
 31
0.0
  0
LINE
  5
252
100
AcDbEntity
  8
0
  6
BYBLOCK
 62
     0
100
AcDbLine
 10
80.478286
 20
12.402542
 30
0.0
 11
82.680269
 21
12.402542
 31
0.0
  0
LINE
  5
253
100
AcDbEntity
  8
0
  6
BYBLOCK
 62
     0
100
AcDbLine
 10
82.320269
 20
14.191292
 30
0.0
 11
82.320269
 21
13.656917
 31
0.0
  0
LINE
  5
254
100
AcDbEntity
  8
0
  6
BYBLOCK
 62
     0
100
AcDbLine
 10
82.320269
 20
12.582542
 30
0.0
 11
82.320269
 21
13.116917
 31
0.0
  0
SOLID
  5
255
100
AcDbEntity
  8
0
  6
BYBLOCK
 62
     0
100
AcDbTrace
 10
82.290269
 20
14.191292
 30
0.0
 11
82.350269
 21
14.191292
 31
0.0
 12
82.320269
 22
14.371292
 32
0.0
 13
82.320269
 23
14.371292
 33
0.0
  0
SOLID
  5
256
100
AcDbEntity
  8
0
  6
BYBLOCK
 62
     0
100
AcDbTrace
 10
82.290269
 20
12.582542
 30
0.0
 11
82.350269
 21
12.582542
 31
0.0
 12
82.320269
 22
12.402542
 32
0.0
 13
82.320269
 23
12.402542
 33
0.0
  0
TEXT
  5
257
100
AcDbEntity
  8
0
  6
BYBLOCK
 62
     0
100
AcDbText
 10
81.990269
 20
13.296917
 30
0.0
 40
0.18
  1
%%C
 72
     1
 11
82.050269
 21
13.386917
 31
0.0
100
AcDbText
 73
     2
  0
TEXT
  5
258
100
AcDbEntity
  8
0
  6
BYBLOCK
 62
     0
100
AcDbText
 10
82.170269
 20
13.296917
 30
0.0
 40
0.18
  1
1.97
 72
     1
 11
82.410269
 21
13.386917
 31
0.0
100
AcDbText
 73
     2
  0
POINT
  5
259
100
AcDbEntity
  8
DEFPOINTS
  6
BYBLOCK
 62
     0
100
AcDbPoint
 10
80.353286
 20
14.371292
 30
0.0
  0
POINT
  5
25A
100
AcDbEntity
  8
DEFPOINTS
  6
BYBLOCK
 62
     0
100
AcDbPoint
 10
80.353286
 20
12.402542
 30
0.0
  0
POINT
  5
25B
100
AcDbEntity
  8
DEFPOINTS
  6
BYBLOCK
 62
     0
100
AcDbPoint
 10
82.320269
 20
12.402542
 30
0.0
  0
ENDBLK
  5
25C
100
AcDbEntity
  8
0
100
AcDbBlockEnd
  0
BLOCK
  5
25D
100
AcDbEntity
  8
0
100
AcDbBlockBegin
  2
*D13
 70
     1
 10
0.0
 20
0.0
 30
0.0
  3
*D13
  1

  0
LINE
  5
25E
100
AcDbEntity
  8
0
  6
BYBLOCK
 62
     0
100
AcDbLine
 10
90.169352
 20
12.110817
 30
0.0
 11
90.169352
 21
11.008921
 31
0.0
  0
LINE
  5
25F
100
AcDbEntity
  8
0
  6
BYBLOCK
 62
     0
100
AcDbLine
 10
91.372839
 20
12.110817
 30
0.0
 11
91.372839
 21
11.008921
 31
0.0
  0
LINE
  5
260
100
AcDbEntity
  8
0
  6
BYBLOCK
 62
     0
100
AcDbLine
 10
89.989352
 20
11.368921
 30
0.0
 11
89.809352
 21
11.368921
 31
0.0
  0
LINE
  5
261
100
AcDbEntity
  8
0
  6
BYBLOCK
 62
     0
100
AcDbLine
 10
91.552839
 20
11.368921
 30
0.0
 11
91.732839
 21
11.368921
 31
0.0
  0
SOLID
  5
262
100
AcDbEntity
  8
0
  6
BYBLOCK
 62
     0
100
AcDbTrace
 10
89.989352
 20
11.398921
 30
0.0
 11
89.989352
 21
11.338921
 31
0.0
 12
90.169352
 22
11.368921
 32
0.0
 13
90.169352
 23
11.368921
 33
0.0
  0
SOLID
  5
263
100
AcDbEntity
  8
0
  6
BYBLOCK
 62
     0
100
AcDbTrace
 10
91.552839
 20
11.398921
 30
0.0
 11
91.552839
 21
11.338921
 31
0.0
 12
91.372839
 22
11.368921
 32
0.0
 13
91.372839
 23
11.368921
 33
0.0
  0
TEXT
  5
264
100
AcDbEntity
  8
0
  6
BYBLOCK
 62
     0
100
AcDbText
 10
90.546096
 20
11.278921
 30
0.0
 40
0.18
  1
1.20
 72
     1
 11
90.771096
 21
11.368921
 31
0.0
100
AcDbText
 73
     2
  0
POINT
  5
265
100
AcDbEntity
  8
DEFPOINTS
  6
BYBLOCK
 62
     0
100
AcDbPoint
 10
90.169352
 20
12.235817
 30
0.0
  0
POINT
  5
266
100
AcDbEntity
  8
DEFPOINTS
  6
BYBLOCK
 62
     0
100
AcDbPoint
 10
91.372839
 20
12.235817
 30
0.0
  0
POINT
  5
267
100
AcDbEntity
  8
DEFPOINTS
  6
BYBLOCK
 62
     0
100
AcDbPoint
 10
91.372839
 20
11.368921
 30
0.0
  0
ENDBLK
  5
268
100
AcDbEntity
  8
0
100
AcDbBlockEnd
  0
BLOCK
  5
269
100
AcDbEntity
  8
0
100
AcDbBlockBegin
  2
*D14
 70
     1
 10
0.0
 20
0.0
 30
0.0
  3
*D14
  1

  0
LINE
  5
26A
100
AcDbEntity
  8
0
  6
BYBLOCK
 62
     0
100
AcDbLine
 10
91.454352
 20
12.412017
 30
0.0
 11
91.454352
 21
10.338866
 31
0.0
  0
LINE
  5
26B
100
AcDbEntity
  8
0
  6
BYBLOCK
 62
     0
100
AcDbLine
 10
90.169352
 20
12.110817
 30
0.0
 11
90.169352
 21
10.338866
 31
0.0
  0
LINE
  5
26C
100
AcDbEntity
  8
0
  6
BYBLOCK
 62
     0
100
AcDbLine
 10
91.634352
 20
10.698866
 30
0.0
 11
91.814352
 21
10.698866
 31
0.0
  0
LINE
  5
26D
100
AcDbEntity
  8
0
  6
BYBLOCK
 62
     0
100
AcDbLine
 10
89.989352
 20
10.698866
 30
0.0
 11
89.809352
 21
10.698866
 31
0.0
  0
SOLID
  5
26E
100
AcDbEntity
  8
0
  6
BYBLOCK
 62
     0
100
AcDbTrace
 10
91.634352
 20
10.728866
 30
0.0
 11
91.634352
 21
10.668866
 31
0.0
 12
91.454352
 22
10.698866
 32
0.0
 13
91.454352
 23
10.698866
 33
0.0
  0
SOLID
  5
26F
100
AcDbEntity
  8
0
  6
BYBLOCK
 62
     0
100
AcDbTrace
 10
89.989352
 20
10.728866
 30
0.0
 11
89.989352
 21
10.668866
 31
0.0
 12
90.169352
 22
10.698866
 32
0.0
 13
90.169352
 23
10.698866
 33
0.0
  0
TEXT
  5
270
100
AcDbEntity
  8
0
  6
BYBLOCK
 62
     0
100
AcDbText
 10
90.571852
 20
10.608866
 30
0.0
 40
0.18
  1
1.28
 72
     1
 11
90.811852
 21
10.698866
 31
0.0
100
AcDbText
 73
     2
  0
POINT
  5
271
100
AcDbEntity
  8
DEFPOINTS
  6
BYBLOCK
 62
     0
100
AcDbPoint
 10
91.454352
 20
12.537017
 30
0.0
  0
POINT
  5
272
100
AcDbEntity
  8
DEFPOINTS
  6
BYBLOCK
 62
     0
100
AcDbPoint
 10
90.169352
 20
12.235817
 30
0.0
  0
POINT
  5
273
100
AcDbEntity
  8
DEFPOINTS
  6
BYBLOCK
 62
     0
100
AcDbPoint
 10
90.169352
 20
10.698866
 30
0.0
  0
ENDBLK
  5
274
100
AcDbEntity
  8
0
100
AcDbBlockEnd
  0
BLOCK
  5
275
100
AcDbEntity
  8
0
100
AcDbBlockBegin
  2
*D15
 70
     1
 10
0.0
 20
0.0
 30
0.0
  3
*D15
  1

  0
LINE
  5
276
100
AcDbEntity
  8
0
  6
BYBLOCK
 62
     0
100
AcDbLine
 10
96.229677
 20
12.925073
 30
0.0
 11
96.06574
 21
13.116917
 31
0.0
  0
LINE
  5
277
100
AcDbEntity
  8
0
  6
BYBLOCK
 62
     0
100
AcDbLine
 10
95.440356
 20
13.84876
 30
0.0
 11
95.604292
 21
13.656917
 31
0.0
  0
SOLID
  5
278
100
AcDbEntity
  8
0
  6
BYBLOCK
 62
     0
100
AcDbTrace
 10
96.20687
 20
12.905584
 30
0.0
 11
96.252484
 21
12.944563
 31
0.0
 12
96.346613
 22
12.788231
 32
0.0
 13
96.346613
 23
12.788231
 33
0.0
  0
SOLID
  5
279
100
AcDbEntity
  8
0
  6
BYBLOCK
 62
     0
100
AcDbTrace
 10
95.417549
 20
13.829271
 30
0.0
 11
95.463163
 21
13.86825
 31
0.0
 12
95.323419
 22
13.985603
 32
0.0
 13
95.323419
 23
13.985603
 33
0.0
  0
TEXT
  5
27A
100
AcDbEntity
  8
0
  6
BYBLOCK
 62
     0
100
AcDbText
 10
95.505016
 20
13.296917
 30
0.0
 40
0.18
  1
%%c1.57
 72
     1
 11
95.835016
 21
13.386917
 31
0.0
100
AcDbText
 73
     2
  0
POINT
  5
27B
100
AcDbEntity
  8
DEFPOINTS
  6
BYBLOCK
 62
     0
100
AcDbPoint
 10
96.346613
 20
12.788231
 30
0.0
  0
POINT
  5
27C
100
AcDbEntity
  8
DEFPOINTS
  6
BYBLOCK
 62
     0
100
AcDbPoint
 10
95.323419
 20
13.985603
 30
0.0
  0
ENDBLK
  5
27D
100
AcDbEntity
  8
0
100
AcDbBlockEnd
  0
BLOCK
  5
27E
100
AcDbEntity
  8
0
100
AcDbBlockBegin
  2
*D16
 70
     1
 10
0.0
 20
0.0
 30
0.0
  3
*D16
  1

  0
LINE
  5
27F
100
AcDbEntity
  8
0
  6
BYBLOCK
 62
     0
100
AcDbLine
 10
91.467839
 20
14.568017
 30
0.0
 11
93.694477
 21
14.568017
 31
0.0
  0
LINE
  5
280
100
AcDbEntity
  8
0
  6
BYBLOCK
 62
     0
100
AcDbLine
 10
91.467839
 20
12.205817
 30
0.0
 11
93.694477
 21
12.205817
 31
0.0
  0
LINE
  5
281
100
AcDbEntity
  8
0
  6
BYBLOCK
 62
     0
100
AcDbLine
 10
93.334477
 20
14.388017
 30
0.0
 11
93.334477
 21
13.656917
 31
0.0
  0
LINE
  5
282
100
AcDbEntity
  8
0
  6
BYBLOCK
 62
     0
100
AcDbLine
 10
93.334477
 20
12.385817
 30
0.0
 11
93.334477
 21
13.116917
 31
0.0
  0
SOLID
  5
283
100
AcDbEntity
  8
0
  6
BYBLOCK
 62
     0
100
AcDbTrace
 10
93.304477
 20
14.388017
 30
0.0
 11
93.364477
 21
14.388017
 31
0.0
 12
93.334477
 22
14.568017
 32
0.0
 13
93.334477
 23
14.568017
 33
0.0
  0
SOLID
  5
284
100
AcDbEntity
  8
0
  6
BYBLOCK
 62
     0
100
AcDbTrace
 10
93.304477
 20
12.385817
 30
0.0
 11
93.364477
 21
12.385817
 31
0.0
 12
93.334477
 22
12.205817
 32
0.0
 13
93.334477
 23
12.205817
 33
0.0
  0
TEXT
  5
285
100
AcDbEntity
  8
0
  6
BYBLOCK
 62
     0
100
AcDbText
 10
92.884477
 20
13.296917
 30
0.0
 40
0.18
  1
%%C
 72
     1
 11
92.944477
 21
13.386917
 31
0.0
100
AcDbText
 73
     2
  0
TEXT
  5
286
100
AcDbEntity
  8
0
  6
BYBLOCK
 62
     0
100
AcDbText
 10
93.064477
 20
13.296917
 30
0.0
 40
0.18
  1
2.362
 72
     1
 11
93.424477
 21
13.386917
 31
0.0
100
AcDbText
 73
     2
  0
POINT
  5
287
100
AcDbEntity
  8
DEFPOINTS
  6
BYBLOCK
 62
     0
100
AcDbPoint
 10
91.342839
 20
14.568017
 30
0.0
  0
POINT
  5
288
100
AcDbEntity
  8
DEFPOINTS
  6
BYBLOCK
 62
     0
100
AcDbPoint
 10
91.342839
 20
12.205817
 30
0.0
  0
POINT
  5
289
100
AcDbEntity
  8
DEFPOINTS
  6
BYBLOCK
 62
     0
100
AcDbPoint
 10
93.334477
 20
12.205817
 30
0.0
  0
ENDBLK
  5
28A
100
AcDbEntity
  8
0
100
AcDbBlockEnd
  0
BLOCK
  5
28B
100
AcDbEntity
  8
0
100
AcDbBlockBegin
  2
*D17
 70
     1
 10
0.0
 20
0.0
 30
0.0
  3
*D17
  1

  0
LINE
  5
28C
100
AcDbEntity
  8
0
  6
BYBLOCK
 62
     0
100
AcDbLine
 10
91.579352
 20
12.537017
 30
0.0
 11
92.556647
 21
12.537017
 31
0.0
  0
LINE
  5
28D
100
AcDbEntity
  8
0
  6
BYBLOCK
 62
     0
100
AcDbLine
 10
91.579352
 20
14.236817
 30
0.0
 11
92.556647
 21
14.236817
 31
0.0
  0
LINE
  5
28E
100
AcDbEntity
  8
0
  6
BYBLOCK
 62
     0
100
AcDbLine
 10
92.196647
 20
12.717017
 30
0.0
 11
92.196647
 21
13.116917
 31
0.0
  0
LINE
  5
28F
100
AcDbEntity
  8
0
  6
BYBLOCK
 62
     0
100
AcDbLine
 10
92.196647
 20
14.056817
 30
0.0
 11
92.196647
 21
13.656917
 31
0.0
  0
SOLID
  5
290
100
AcDbEntity
  8
0
  6
BYBLOCK
 62
     0
100
AcDbTrace
 10
92.166647
 20
12.717017
 30
0.0
 11
92.226647
 21
12.717017
 31
0.0
 12
92.196647
 22
12.537017
 32
0.0
 13
92.196647
 23
12.537017
 33
0.0
  0
SOLID
  5
291
100
AcDbEntity
  8
0
  6
BYBLOCK
 62
     0
100
AcDbTrace
 10
92.166647
 20
14.056817
 30
0.0
 11
92.226647
 21
14.056817
 31
0.0
 12
92.196647
 22
14.236817
 32
0.0
 13
92.196647
 23
14.236817
 33
0.0
  0
TEXT
  5
292
100
AcDbEntity
  8
0
  6
BYBLOCK
 62
     0
100
AcDbText
 10
91.806647
 20
13.296917
 30
0.0
 40
0.18
  1
%%C
 72
     1
 11
91.866647
 21
13.386917
 31
0.0
100
AcDbText
 73
     2
  0
TEXT
  5
293
100
AcDbEntity
  8
0
  6
BYBLOCK
 62
     0
100
AcDbText
 10
91.986647
 20
13.296917
 30
0.0
 40
0.18
  1
1.700
 72
     1
 11
92.286647
 21
13.386917
 31
0.0
100
AcDbText
 73
     2
  0
POINT
  5
294
100
AcDbEntity
  8
DEFPOINTS
  6
BYBLOCK
 62
     0
100
AcDbPoint
 10
91.454352
 20
12.537017
 30
0.0
  0
POINT
  5
295
100
AcDbEntity
  8
DEFPOINTS
  6
BYBLOCK
 62
     0
100
AcDbPoint
 10
91.454352
 20
14.236817
 30
0.0
  0
POINT
  5
296
100
AcDbEntity
  8
DEFPOINTS
  6
BYBLOCK
 62
     0
100
AcDbPoint
 10
92.196647
 20
14.236817
 30
0.0
  0
ENDBLK
  5
297
100
AcDbEntity
  8
0
100
AcDbBlockEnd
  0
BLOCK
  5
2B0
100
AcDbEntity
  8
0
100
AcDbBlockBegin
  2
*D18
 70
     1
 10
0.0
 20
0.0
 30
0.0
  3
*D18
  1

  0
LINE
  5
2B1
100
AcDbEntity
  8
0
  6
BYBLOCK
 62
     0
100
AcDbLine
 10
84.710275
 20
12.943143
 30
0.0
 11
84.547818
 21
13.116917
 31
0.0
  0
LINE
  5
2B2
100
AcDbEntity
  8
0
  6
BYBLOCK
 62
     0
100
AcDbLine
 10
83.880527
 20
13.830691
 30
0.0
 11
84.042984
 21
13.656917
 31
0.0
  0
SOLID
  5
2B3
100
AcDbEntity
  8
0
  6
BYBLOCK
 62
     0
100
AcDbTrace
 10
84.688361
 20
12.922655
 30
0.0
 11
84.73219
 21
12.96363
 31
0.0
 12
84.833201
 22
12.811654
 32
0.0
 13
84.833201
 23
12.811654
 33
0.0
  0
SOLID
  5
2B4
100
AcDbEntity
  8
0
  6
BYBLOCK
 62
     0
100
AcDbTrace
 10
83.858612
 20
13.810203
 30
0.0
 11
83.902441
 21
13.851179
 31
0.0
 12
83.757601
 22
13.96218
 32
0.0
 13
83.757601
 23
13.96218
 33
0.0
  0
TEXT
  5
2B5
100
AcDbEntity
  8
0
  6
BYBLOCK
 62
     0
100
AcDbText
 10
83.965401
 20
13.296917
 30
0.0
 40
0.18
  1
%%c1.58
 72
     1
 11
84.295401
 21
13.386917
 31
0.0
100
AcDbText
 73
     2
  0
POINT
  5
2B6
100
AcDbEntity
  8
DEFPOINTS
  6
BYBLOCK
 62
     0
100
AcDbPoint
 10
84.833201
 20
12.811654
 30
0.0
  0
POINT
  5
2B7
100
AcDbEntity
  8
DEFPOINTS
  6
BYBLOCK
 62
     0
100
AcDbPoint
 10
83.757601
 20
13.96218
 30
0.0
  0
ENDBLK
  5
2B8
100
AcDbEntity
  8
0
100
AcDbBlockEnd
  0
BLOCK
  5
39A
100
AcDbEntity
  8
0
100
AcDbBlockBegin
  2
*D19
 70
     1
 10
0.0
 20
0.0
 30
0.0
  3
*D19
  1

  0
LINE
  5
39B
100
AcDbEntity
  8
0
  6
BYBLOCK
 62
     0
100
AcDbLine
 10
76.437277
 20
21.588829
 30
0.0
 11
76.294999
 21
21.699087
 31
0.0
  0
LINE
  5
39C
100
AcDbEntity
  8
0
  6
BYBLOCK
 62
     0
100
AcDbLine
 10
76.294999
 20
21.699087
 30
0.0
 11
76.114999
 21
21.699087
 31
0.0
  0
SOLID
  5
39D
100
AcDbEntity
  8
0
  6
BYBLOCK
 62
     0
100
AcDbTrace
 10
76.4189
 20
21.565116
 30
0.0
 11
76.455653
 21
21.612542
 31
0.0
 12
76.579555
 22
21.47857
 32
0.0
 13
76.579555
 23
21.47857
 33
0.0
  0
LINE
  5
39E
100
AcDbEntity
  8
0
  6
BYBLOCK
 62
     0
100
AcDbLine
 10
77.632631
 20
20.522995
 30
0.0
 11
77.992631
 21
20.522995
 31
0.0
  0
LINE
  5
39F
100
AcDbEntity
  8
0
  6
BYBLOCK
 62
     0
100
AcDbLine
 10
77.812631
 20
20.342995
 30
0.0
 11
77.812631
 21
20.702995
 31
0.0
  0
TEXT
  5
3A0
100
AcDbEntity
  8
0
  6
BYBLOCK
 62
     0
100
AcDbText
 10
75.274999
 20
21.609087
 30
0.0
 40
0.18
  1
%%c3.12
 72
     1
 11
75.604999
 21
21.699087
 31
0.0
100
AcDbText
 73
     2
  0
POINT
  5
3A1
100
AcDbEntity
  8
DEFPOINTS
  6
BYBLOCK
 62
     0
100
AcDbPoint
 10
76.579555
 20
21.47857
 30
0.0
  0
POINT
  5
3A2
100
AcDbEntity
  8
DEFPOINTS
  6
BYBLOCK
 62
     0
100
AcDbPoint
 10
79.045707
 20
19.567421
 30
0.0
  0
ENDBLK
  5
3A3
100
AcDbEntity
  8
0
100
AcDbBlockEnd
  0
BLOCK
  5
3A4
100
AcDbEntity
  8
0
100
AcDbBlockBegin
  2
*D20
 70
     1
 10
0.0
 20
0.0
 30
0.0
  3
*D20
  1

  0
LINE
  5
3A5
100
AcDbEntity
  8
0
  6
BYBLOCK
 62
     0
100
AcDbLine
 10
76.783483
 20
19.320681
 30
0.0
 11
76.708776
 21
19.156917
 31
0.0
  0
LINE
  5
3A6
100
AcDbEntity
  8
0
  6
BYBLOCK
 62
     0
100
AcDbLine
 10
76.708776
 20
19.156917
 30
0.0
 11
76.528776
 21
19.156917
 31
0.0
  0
SOLID
  5
3A7
100
AcDbEntity
  8
0
  6
BYBLOCK
 62
     0
100
AcDbTrace
 10
76.810777
 20
19.30823
 30
0.0
 11
76.756189
 21
19.333132
 31
0.0
 12
76.858191
 22
19.484445
 32
0.0
 13
76.858191
 23
19.484445
 33
0.0
  0
LINE
  5
3A8
100
AcDbEntity
  8
0
  6
BYBLOCK
 62
     0
100
AcDbLine
 10
76.748748
 20
19.639112
 30
0.0
 11
77.108748
 21
19.639112
 31
0.0
  0
LINE
  5
3A9
100
AcDbEntity
  8
0
  6
BYBLOCK
 62
     0
100
AcDbLine
 10
76.928748
 20
19.459112
 30
0.0
 11
76.928748
 21
19.819112
 31
0.0
  0
TEXT
  5
3AA
100
AcDbEntity
  8
0
  6
BYBLOCK
 62
     0
100
AcDbText
 10
75.058776
 20
19.066917
 30
0.0
 40
0.18
  1
4X 
 72
     1
 11
75.328776
 21
19.156917
 31
0.0
100
AcDbText
 73
     2
  0
TEXT
  5
3AB
100
AcDbEntity
  8
0
  6
BYBLOCK
 62
     0
100
AcDbText
 10
75.658776
 20
19.066917
 30
0.0
 40
0.18
  1
%%c0.34
 72
     1
 11
76.003776
 21
19.156917
 31
0.0
100
AcDbText
 73
     2
  0
POINT
  5
3AC
100
AcDbEntity
  8
DEFPOINTS
  6
BYBLOCK
 62
     0
100
AcDbPoint
 10
76.858191
 20
19.484445
 30
0.0
  0
POINT
  5
3AD
100
AcDbEntity
  8
DEFPOINTS
  6
BYBLOCK
 62
     0
100
AcDbPoint
 10
76.999305
 20
19.793778
 30
0.0
  0
ENDBLK
  5
3AE
100
AcDbEntity
  8
0
100
AcDbBlockEnd
  0
BLOCK
  5
3AF
100
AcDbEntity
  8
0
100
AcDbBlockBegin
  2
*D21
 70
     1
 10
0.0
 20
0.0
 30
0.0
  3
*D21
  1

  0
LINE
  5
3B0
100
AcDbEntity
  8
0
  6
BYBLOCK
 62
     0
100
AcDbLine
 10
77.229106
 20
19.217469
 30
0.0
 11
77.014056
 21
18.736335
 31
0.0
  0
LINE
  5
3B1
100
AcDbEntity
  8
0
  6
BYBLOCK
 62
     0
100
AcDbLine
 10
77.014056
 20
18.736335
 30
0.0
 11
76.834056
 21
18.736335
 31
0.0
  0
SOLID
  5
3B2
100
AcDbEntity
  8
0
  6
BYBLOCK
 62
     0
100
AcDbTrace
 10
77.256495
 20
19.205227
 30
0.0
 11
77.201718
 21
19.229711
 31
0.0
 12
77.302557
 22
19.381801
 32
0.0
 13
77.302557
 23
19.381801
 33
0.0
  0
LINE
  5
3B3
100
AcDbEntity
  8
0
  6
BYBLOCK
 62
     0
100
AcDbLine
 10
77.632631
 20
20.522995
 30
0.0
 11
77.992631
 21
20.522995
 31
0.0
  0
LINE
  5
3B4
100
AcDbEntity
  8
0
  6
BYBLOCK
 62
     0
100
AcDbLine
 10
77.812631
 20
20.342995
 30
0.0
 11
77.812631
 21
20.702995
 31
0.0
  0
TEXT
  5
3B5
100
AcDbEntity
  8
0
  6
BYBLOCK
 62
     0
100
AcDbText
 10
75.964056
 20
18.646335
 30
0.0
 40
0.18
  1
%%c2.50
 72
     1
 11
76.309056
 21
18.736335
 31
0.0
100
AcDbText
 73
     2
  0
POINT
  5
3B6
100
AcDbEntity
  8
DEFPOINTS
  6
BYBLOCK
 62
     0
100
AcDbPoint
 10
77.302557
 20
19.381801
 30
0.0
  0
POINT
  5
3B7
100
AcDbEntity
  8
DEFPOINTS
  6
BYBLOCK
 62
     0
100
AcDbPoint
 10
78.322705
 20
21.66419
 30
0.0
  0
ENDBLK
  5
3B8
100
AcDbEntity
  8
0
100
AcDbBlockEnd
  0
BLOCK
  5
3B9
100
AcDbEntity
  8
0
100
AcDbBlockBegin
  2
*D22
 70
     1
 10
0.0
 20
0.0
 30
0.0
  3
*D22
  1

  0
LINE
  5
3BA
100
AcDbEntity
  8
0
  6
BYBLOCK
 62
     0
100
AcDbLine
 10
69.797682
 20
21.516923
 30
0.0
 11
69.54086
 21
22.121093
 31
0.0
  0
LINE
  5
3BB
100
AcDbEntity
  8
0
  6
BYBLOCK
 62
     0
100
AcDbLine
 10
69.54086
 20
22.121093
 30
0.0
 11
69.36086
 21
22.121093
 31
0.0
  0
SOLID
  5
3BC
100
AcDbEntity
  8
0
  6
BYBLOCK
 62
     0
100
AcDbTrace
 10
69.770073
 20
21.505187
 30
0.0
 11
69.825291
 21
21.528659
 31
0.0
 12
69.868099
 22
21.351269
 32
0.0
 13
69.868099
 23
21.351269
 33
0.0
  0
LINE
  5
3BD
100
AcDbEntity
  8
0
  6
BYBLOCK
 62
     0
100
AcDbLine
 10
70.040183
 20
20.522995
 30
0.0
 11
70.400183
 21
20.522995
 31
0.0
  0
LINE
  5
3BE
100
AcDbEntity
  8
0
  6
BYBLOCK
 62
     0
100
AcDbLine
 10
70.220183
 20
20.342995
 30
0.0
 11
70.220183
 21
20.702995
 31
0.0
  0
TEXT
  5
3BF
100
AcDbEntity
  8
0
  6
BYBLOCK
 62
     0
100
AcDbText
 10
68.55086
 20
22.031093
 30
0.0
 40
0.18
  1
%%c1.80
 72
     1
 11
68.86586
 21
22.121093
 31
0.0
100
AcDbText
 73
     2
  0
POINT
  5
3C0
100
AcDbEntity
  8
DEFPOINTS
  6
BYBLOCK
 62
     0
100
AcDbPoint
 10
69.868099
 20
21.351269
 30
0.0
  0
POINT
  5
3C1
100
AcDbEntity
  8
DEFPOINTS
  6
BYBLOCK
 62
     0
100
AcDbPoint
 10
70.572268
 20
19.694722
 30
0.0
  0
ENDBLK
  5
3C2
100
AcDbEntity
  8
0
100
AcDbBlockEnd
  0
BLOCK
  5
2DE8
100
AcDbEntity
  8
0
100
AcDbBlockBegin
  2
*D23
 70
     1
 10
0.0
 20
0.0
 30
0.0
  3
*D23
  1

  0
LINE
  5
2DE9
100
AcDbEntity
  8
0
  6
BYBLOCK
 62
     0
100
AcDbLine
 10
137.133865
 20
23.867262
 30
0.0
 11
133.972332
 21
23.867262
 31
0.0
  0
LINE
  5
2DEA
100
AcDbEntity
  8
0
  6
BYBLOCK
 62
     0
100
AcDbLine
 10
135.883865
 20
22.927944
 30
0.0
 11
133.972332
 21
22.927944
 31
0.0
  0
LINE
  5
2DEB
100
AcDbEntity
  8
0
  6
BYBLOCK
 62
     0
100
AcDbLine
 10
134.332332
 20
23.687262
 30
0.0
 11
134.332332
 21
23.507262
 31
0.0
  0
LINE
  5
2DEC
100
AcDbEntity
  8
0
  6
BYBLOCK
 62
     0
100
AcDbLine
 10
134.332332
 20
23.107944
 30
0.0
 11
134.332332
 21
23.287944
 31
0.0
  0
SOLID
  5
2DED
100
AcDbEntity
  8
0
  6
BYBLOCK
 62
     0
100
AcDbTrace
 10
134.302332
 20
23.687262
 30
0.0
 11
134.362332
 21
23.687262
 31
0.0
 12
134.332332
 22
23.867262
 32
0.0
 13
134.332332
 23
23.867262
 33
0.0
  0
SOLID
  5
2DEE
100
AcDbEntity
  8
0
  6
BYBLOCK
 62
     0
100
AcDbTrace
 10
134.302332
 20
23.107944
 30
0.0
 11
134.362332
 21
23.107944
 31
0.0
 12
134.332332
 22
22.927944
 32
0.0
 13
134.332332
 23
22.927944
 33
0.0
  0
MTEXT
  5
2DEF
100
AcDbEntity
  8
0
  6
BYBLOCK
 62
     0
100
AcDbMText
 10
134.332332
 20
23.408448
 30
0.0
 40
0.18
 41
0.0
 71
     5
 72
     1
  1
\A1;0.94
  0
POINT
  5
2DF0
100
AcDbEntity
  8
DEFPOINTS
  6
BYBLOCK
 62
     0
100
AcDbPoint
 10
137.258865
 20
23.867262
 30
0.0
  0
POINT
  5
2DF1
100
AcDbEntity
  8
DEFPOINTS
  6
BYBLOCK
 62
     0
100
AcDbPoint
 10
136.008865
 20
22.927944
 30
0.0
  0
POINT
  5
2DF2
100
AcDbEntity
  8
DEFPOINTS
  6
BYBLOCK
 62
     0
100
AcDbPoint
 10
134.332332
 20
22.927944
 30
0.0
  0
ENDBLK
  5
2DF3
100
AcDbEntity
  8
0
100
AcDbBlockEnd
  0
BLOCK
  5
131C
100
AcDbEntity
  8
0
100
AcDbBlockBegin
  2
*D24
 70
     1
 10
0.0
 20
0.0
 30
0.0
  3
*D24
  1

  0
LINE
  5
131D
100
AcDbEntity
  8
0
  6
BYBLOCK
 62
     0
100
AcDbLine
 10
91.776408
 20
25.736146
 30
0.0
 11
94.260554
 21
25.736146
 31
0.0
  0
LINE
  5
131E
100
AcDbEntity
  8
0
  6
BYBLOCK
 62
     0
100
AcDbLine
 10
91.776408
 20
26.726146
 30
0.0
 11
94.260554
 21
26.726146
 31
0.0
  0
LINE
  5
131F
100
AcDbEntity
  8
0
  6
BYBLOCK
 62
     0
100
AcDbLine
 10
93.900554
 20
25.916146
 30
0.0
 11
93.900554
 21
26.546146
 31
0.0
  0
LINE
  5
1320
100
AcDbEntity
  8
0
  6
BYBLOCK
 62
     0
100
AcDbLine
 10
93.900554
 20
26.726146
 30
0.0
 11
93.900554
 21
26.906146
 31
0.0
  0
LINE
  5
1321
100
AcDbEntity
  8
0
  6
BYBLOCK
 62
     0
100
AcDbLine
 10
93.900554
 20
26.906146
 30
0.0
 11
94.080554
 21
26.906146
 31
0.0
  0
SOLID
  5
1322
100
AcDbEntity
  8
0
  6
BYBLOCK
 62
     0
100
AcDbTrace
 10
93.870554
 20
25.916146
 30
0.0
 11
93.930554
 21
25.916146
 31
0.0
 12
93.900554
 22
25.736146
 32
0.0
 13
93.900554
 23
25.736146
 33
0.0
  0
SOLID
  5
1323
100
AcDbEntity
  8
0
  6
BYBLOCK
 62
     0
100
AcDbTrace
 10
93.870554
 20
26.546146
 30
0.0
 11
93.930554
 21
26.546146
 31
0.0
 12
93.900554
 22
26.726146
 32
0.0
 13
93.900554
 23
26.726146
 33
0.0
  0
MTEXT
  5
1324
100
AcDbEntity
  8
0
  6
BYBLOCK
 62
     0
100
AcDbMText
 10
94.515554
 20
26.906146
 30
0.0
 40
0.18
 41
0.0
 71
     5
 72
     1
  1
\A1;0.99
  0
POINT
  5
1325
100
AcDbEntity
  8
DEFPOINTS
  6
BYBLOCK
 62
     0
100
AcDbPoint
 10
91.651408
 20
25.736146
 30
0.0
  0
POINT
  5
1326
100
AcDbEntity
  8
DEFPOINTS
  6
BYBLOCK
 62
     0
100
AcDbPoint
 10
91.651408
 20
26.726146
 30
0.0
  0
POINT
  5
1327
100
AcDbEntity
  8
DEFPOINTS
  6
BYBLOCK
 62
     0
100
AcDbPoint
 10
93.900554
 20
26.726146
 30
0.0
  0
ENDBLK
  5
1328
100
AcDbEntity
  8
0
100
AcDbBlockEnd
  0
BLOCK
  5
2D87
100
AcDbEntity
  8
0
100
AcDbBlockBegin
  2
*D25
 70
     1
 10
0.0
 20
0.0
 30
0.0
  3
*D25
  1

  0
LINE
  5
2D88
100
AcDbEntity
  8
0
  6
BYBLOCK
 62
     0
100
AcDbLine
 10
139.187188
 20
23.737944
 30
0.0
 11
140.963335
 21
23.737944
 31
0.0
  0
LINE
  5
2D89
100
AcDbEntity
  8
0
  6
BYBLOCK
 62
     0
100
AcDbLine
 10
139.557188
 20
23.302944
 30
0.0
 11
140.963335
 21
23.302944
 31
0.0
  0
LINE
  5
2D8A
100
AcDbEntity
  8
0
  6
BYBLOCK
 62
     0
100
AcDbLine
 10
140.603335
 20
23.917944
 30
0.0
 11
140.603335
 21
24.097944
 31
0.0
  0
LINE
  5
2D8B
100
AcDbEntity
  8
0
  6
BYBLOCK
 62
     0
100
AcDbLine
 10
140.603335
 20
23.122944
 30
0.0
 11
140.603335
 21
22.942944
 31
0.0
  0
LINE
  5
2D8C
100
AcDbEntity
  8
0
  6
BYBLOCK
 62
     0
100
AcDbLine
 10
140.603335
 20
22.942944
 30
0.0
 11
140.423335
 21
22.942944
 31
0.0
  0
SOLID
  5
2D8D
100
AcDbEntity
  8
0
  6
BYBLOCK
 62
     0
100
AcDbTrace
 10
140.573335
 20
23.917944
 30
0.0
 11
140.633335
 21
23.917944
 31
0.0
 12
140.603335
 22
23.737944
 32
0.0
 13
140.603335
 23
23.737944
 33
0.0
  0
SOLID
  5
2D8E
100
AcDbEntity
  8
0
  6
BYBLOCK
 62
     0
100
AcDbTrace
 10
140.573335
 20
23.122944
 30
0.0
 11
140.633335
 21
23.122944
 31
0.0
 12
140.603335
 22
23.302944
 32
0.0
 13
140.603335
 23
23.302944
 33
0.0
  0
MTEXT
  5
2D8F
100
AcDbEntity
  8
0
  6
BYBLOCK
 62
     0
100
AcDbMText
 10
139.988335
 20
22.942944
 30
0.0
 40
0.18
 41
0.0
 71
     5
 72
     1
  1
\A1;0.44
  0
POINT
  5
2D90
100
AcDbEntity
  8
DEFPOINTS
  6
BYBLOCK
 62
     0
100
AcDbPoint
 10
139.062188
 20
23.737944
 30
0.0
  0
POINT
  5
2D91
100
AcDbEntity
  8
DEFPOINTS
  6
BYBLOCK
 62
     0
100
AcDbPoint
 10
139.432188
 20
23.302944
 30
0.0
  0
POINT
  5
2D92
100
AcDbEntity
  8
DEFPOINTS
  6
BYBLOCK
 62
     0
100
AcDbPoint
 10
140.603335
 20
23.302944
 30
0.0
  0
ENDBLK
  5
2D93
100
AcDbEntity
  8
0
100
AcDbBlockEnd
  0
BLOCK
  5
2D5B
100
AcDbEntity
  8
0
100
AcDbBlockBegin
  2
*D26
 70
     1
 10
0.0
 20
0.0
 30
0.0
  3
*D26
  1

  0
LINE
  5
2D5C
100
AcDbEntity
  8
0
  6
BYBLOCK
 62
     0
100
AcDbLine
 10
139.367188
 20
23.737944
 30
0.0
 11
140.28956
 21
23.737944
 31
0.0
  0
LINE
  5
2D5D
100
AcDbEntity
  8
0
  6
BYBLOCK
 62
     0
100
AcDbLine
 10
138.742514
 20
24.525262
 30
0.0
 11
140.28956
 21
24.525262
 31
0.0
  0
LINE
  5
2D5E
100
AcDbEntity
  8
0
  6
BYBLOCK
 62
     0
100
AcDbLine
 10
139.92956
 20
23.917944
 30
0.0
 11
139.92956
 21
24.345262
 31
0.0
  0
LINE
  5
2D5F
100
AcDbEntity
  8
0
  6
BYBLOCK
 62
     0
100
AcDbLine
 10
139.92956
 20
24.525262
 30
0.0
 11
139.92956
 21
24.705262
 31
0.0
  0
LINE
  5
2D60
100
AcDbEntity
  8
0
  6
BYBLOCK
 62
     0
100
AcDbLine
 10
139.92956
 20
24.705262
 30
0.0
 11
140.10956
 21
24.705262
 31
0.0
  0
SOLID
  5
2D61
100
AcDbEntity
  8
0
  6
BYBLOCK
 62
     0
100
AcDbTrace
 10
139.89956
 20
23.917944
 30
0.0
 11
139.95956
 21
23.917944
 31
0.0
 12
139.92956
 22
23.737944
 32
0.0
 13
139.92956
 23
23.737944
 33
0.0
  0
SOLID
  5
2D62
100
AcDbEntity
  8
0
  6
BYBLOCK
 62
     0
100
AcDbTrace
 10
139.89956
 20
24.345262
 30
0.0
 11
139.95956
 21
24.345262
 31
0.0
 12
139.92956
 22
24.525262
 32
0.0
 13
139.92956
 23
24.525262
 33
0.0
  0
MTEXT
  5
2D63
100
AcDbEntity
  8
0
  6
BYBLOCK
 62
     0
100
AcDbMText
 10
140.54456
 20
24.705262
 30
0.0
 40
0.18
 41
0.0
 71
     5
 72
     1
  1
\A1;0.79
  0
POINT
  5
2D64
100
AcDbEntity
  8
DEFPOINTS
  6
BYBLOCK
 62
     0
100
AcDbPoint
 10
139.242188
 20
23.737944
 30
0.0
  0
POINT
  5
2D65
100
AcDbEntity
  8
DEFPOINTS
  6
BYBLOCK
 62
     0
100
AcDbPoint
 10
138.617514
 20
24.525262
 30
0.0
  0
POINT
  5
2D66
100
AcDbEntity
  8
DEFPOINTS
  6
BYBLOCK
 62
     0
100
AcDbPoint
 10
139.92956
 20
24.525262
 30
0.0
  0
ENDBLK
  5
2D67
100
AcDbEntity
  8
0
100
AcDbBlockEnd
  0
BLOCK
  5
12A7
100
AcDbEntity
  8
0
100
AcDbBlockBegin
  2
*D27
 70
     1
 10
0.0
 20
0.0
 30
0.0
  3
*D27
  1

  0
LINE
  5
12A8
100
AcDbEntity
  8
0
  6
BYBLOCK
 62
     0
100
AcDbLine
 10
87.427019
 20
18.686893
 30
0.0
 11
86.616799
 21
18.686893
 31
0.0
  0
LINE
  5
12A9
100
AcDbEntity
  8
0
  6
BYBLOCK
 62
     0
100
AcDbLine
 10
88.651019
 20
20.056893
 30
0.0
 11
86.616799
 21
20.056893
 31
0.0
  0
LINE
  5
12AA
100
AcDbEntity
  8
0
  6
BYBLOCK
 62
     0
100
AcDbLine
 10
86.976799
 20
18.866893
 30
0.0
 11
86.976799
 21
19.110512
 31
0.0
  0
LINE
  5
12AB
100
AcDbEntity
  8
0
  6
BYBLOCK
 62
     0
100
AcDbLine
 10
86.976799
 20
19.876893
 30
0.0
 11
86.976799
 21
19.650512
 31
0.0
  0
SOLID
  5
12AC
100
AcDbEntity
  8
0
  6
BYBLOCK
 62
     0
100
AcDbTrace
 10
86.946799
 20
18.866893
 30
0.0
 11
87.006799
 21
18.866893
 31
0.0
 12
86.976799
 22
18.686893
 32
0.0
 13
86.976799
 23
18.686893
 33
0.0
  0
SOLID
  5
12AD
100
AcDbEntity
  8
0
  6
BYBLOCK
 62
     0
100
AcDbTrace
 10
86.946799
 20
19.876893
 30
0.0
 11
87.006799
 21
19.876893
 31
0.0
 12
86.976799
 22
20.056893
 32
0.0
 13
86.976799
 23
20.056893
 33
0.0
  0
MTEXT
  5
12AE
100
AcDbEntity
  8
0
  6
BYBLOCK
 62
     0
100
AcDbMText
 10
86.976799
 20
19.380512
 30
0.0
 40
0.18
 41
0.0
 71
     5
 72
     1
  1
\A1;1.37
  0
POINT
  5
12AF
100
AcDbEntity
  8
DEFPOINTS
  6
BYBLOCK
 62
     0
100
AcDbPoint
 10
87.552019
 20
18.686893
 30
0.0
  0
POINT
  5
12B0
100
AcDbEntity
  8
DEFPOINTS
  6
BYBLOCK
 62
     0
100
AcDbPoint
 10
88.776019
 20
20.056893
 30
0.0
  0
POINT
  5
12B1
100
AcDbEntity
  8
DEFPOINTS
  6
BYBLOCK
 62
     0
100
AcDbPoint
 10
86.976799
 20
20.056893
 30
0.0
  0
ENDBLK
  5
12B2
100
AcDbEntity
  8
0
100
AcDbBlockEnd
  0
BLOCK
  5
124E
100
AcDbEntity
  8
0
100
AcDbBlockBegin
  2
*D28
 70
     1
 10
0.0
 20
0.0
 30
0.0
  3
*D28
  1

  0
LINE
  5
124F
100
AcDbEntity
  8
0
  6
BYBLOCK
 62
     0
100
AcDbLine
 10
96.850564
 20
19.488005
 30
0.0
 11
98.399084
 21
19.488005
 31
0.0
  0
LINE
  5
1250
100
AcDbEntity
  8
0
  6
BYBLOCK
 62
     0
100
AcDbLine
 10
96.850564
 20
19.113005
 30
0.0
 11
98.399084
 21
19.113005
 31
0.0
  0
LINE
  5
1251
100
AcDbEntity
  8
0
  6
BYBLOCK
 62
     0
100
AcDbLine
 10
98.039084
 20
19.668005
 30
0.0
 11
98.039084
 21
19.848005
 31
0.0
  0
LINE
  5
1252
100
AcDbEntity
  8
0
  6
BYBLOCK
 62
     0
100
AcDbLine
 10
98.039084
 20
18.933005
 30
0.0
 11
98.039084
 21
18.753005
 31
0.0
  0
LINE
  5
1253
100
AcDbEntity
  8
0
  6
BYBLOCK
 62
     0
100
AcDbLine
 10
98.039084
 20
18.753005
 30
0.0
 11
97.859084
 21
18.753005
 31
0.0
  0
SOLID
  5
1254
100
AcDbEntity
  8
0
  6
BYBLOCK
 62
     0
100
AcDbTrace
 10
98.009084
 20
19.668005
 30
0.0
 11
98.069084
 21
19.668005
 31
0.0
 12
98.039084
 22
19.488005
 32
0.0
 13
98.039084
 23
19.488005
 33
0.0
  0
SOLID
  5
1255
100
AcDbEntity
  8
0
  6
BYBLOCK
 62
     0
100
AcDbTrace
 10
98.009084
 20
18.933005
 30
0.0
 11
98.069084
 21
18.933005
 31
0.0
 12
98.039084
 22
19.113005
 32
0.0
 13
98.039084
 23
19.113005
 33
0.0
  0
MTEXT
  5
1256
100
AcDbEntity
  8
0
  6
BYBLOCK
 62
     0
100
AcDbMText
 10
97.424084
 20
18.753005
 30
0.0
 40
0.18
 41
0.0
 71
     5
 72
     1
  1
\A1;0.38
  0
POINT
  5
1257
100
AcDbEntity
  8
DEFPOINTS
  6
BYBLOCK
 62
     0
100
AcDbPoint
 10
96.725564
 20
19.488005
 30
0.0
  0
POINT
  5
1258
100
AcDbEntity
  8
DEFPOINTS
  6
BYBLOCK
 62
     0
100
AcDbPoint
 10
96.725564
 20
19.113005
 30
0.0
  0
POINT
  5
1259
100
AcDbEntity
  8
DEFPOINTS
  6
BYBLOCK
 62
     0
100
AcDbPoint
 10
98.039084
 20
19.113005
 30
0.0
  0
ENDBLK
  5
125A
100
AcDbEntity
  8
0
100
AcDbBlockEnd
  0
BLOCK
  5
125D
100
AcDbEntity
  8
0
100
AcDbBlockBegin
  2
*D29
 70
     1
 10
0.0
 20
0.0
 30
0.0
  3
*D29
  1

  0
LINE
  5
125E
100
AcDbEntity
  8
0
  6
BYBLOCK
 62
     0
100
AcDbLine
 10
95.885533
 20
21.863005
 30
0.0
 11
99.330475
 21
21.863005
 31
0.0
  0
LINE
  5
125F
100
AcDbEntity
  8
0
  6
BYBLOCK
 62
     0
100
AcDbLine
 10
96.850564
 20
19.113005
 30
0.0
 11
99.330475
 21
19.113005
 31
0.0
  0
LINE
  5
1260
100
AcDbEntity
  8
0
  6
BYBLOCK
 62
     0
100
AcDbLine
 10
98.970475
 20
21.683005
 30
0.0
 11
98.970475
 21
20.758005
 31
0.0
  0
LINE
  5
1261
100
AcDbEntity
  8
0
  6
BYBLOCK
 62
     0
100
AcDbLine
 10
98.970475
 20
19.293005
 30
0.0
 11
98.970475
 21
20.218005
 31
0.0
  0
SOLID
  5
1262
100
AcDbEntity
  8
0
  6
BYBLOCK
 62
     0
100
AcDbTrace
 10
98.940475
 20
21.683005
 30
0.0
 11
99.000475
 21
21.683005
 31
0.0
 12
98.970475
 22
21.863005
 32
0.0
 13
98.970475
 23
21.863005
 33
0.0
  0
SOLID
  5
1263
100
AcDbEntity
  8
0
  6
BYBLOCK
 62
     0
100
AcDbTrace
 10
98.940475
 20
19.293005
 30
0.0
 11
99.000475
 21
19.293005
 31
0.0
 12
98.970475
 22
19.113005
 32
0.0
 13
98.970475
 23
19.113005
 33
0.0
  0
MTEXT
  5
1264
100
AcDbEntity
  8
0
  6
BYBLOCK
 62
     0
100
AcDbMText
 10
98.970475
 20
20.488005
 30
0.0
 40
0.18
 41
0.0
 71
     5
 72
     1
  1
\A1;2.75
  0
POINT
  5
1265
100
AcDbEntity
  8
DEFPOINTS
  6
BYBLOCK
 62
     0
100
AcDbPoint
 10
95.760533
 20
21.863005
 30
0.0
  0
POINT
  5
1266
100
AcDbEntity
  8
DEFPOINTS
  6
BYBLOCK
 62
     0
100
AcDbPoint
 10
96.725564
 20
19.113005
 30
0.0
  0
POINT
  5
1267
100
AcDbEntity
  8
DEFPOINTS
  6
BYBLOCK
 62
     0
100
AcDbPoint
 10
98.970475
 20
19.113005
 30
0.0
  0
ENDBLK
  5
1268
100
AcDbEntity
  8
0
100
AcDbBlockEnd
  0
BLOCK
  5
12B3
100
AcDbEntity
  8
0
100
AcDbBlockBegin
  2
*D30
 70
     1
 10
0.0
 20
0.0
 30
0.0
  3
*D30
  1

  0
LINE
  5
12B4
100
AcDbEntity
  8
0
  6
BYBLOCK
 62
     0
100
AcDbLine
 10
90.961988
 20
21.561893
 30
0.0
 11
90.961988
 21
22.587858
 31
0.0
  0
LINE
  5
12B5
100
AcDbEntity
  8
0
  6
BYBLOCK
 62
     0
100
AcDbLine
 10
88.427019
 20
21.424504
 30
0.0
 11
88.427019
 21
22.587858
 31
0.0
  0
LINE
  5
12B6
100
AcDbEntity
  8
0
  6
BYBLOCK
 62
     0
100
AcDbLine
 10
90.781988
 20
22.227858
 30
0.0
 11
90.136939
 21
22.227858
 31
0.0
  0
LINE
  5
12B7
100
AcDbEntity
  8
0
  6
BYBLOCK
 62
     0
100
AcDbLine
 10
88.607019
 20
22.227858
 30
0.0
 11
89.236939
 21
22.227858
 31
0.0
  0
SOLID
  5
12B8
100
AcDbEntity
  8
0
  6
BYBLOCK
 62
     0
100
AcDbTrace
 10
90.781988
 20
22.257858
 30
0.0
 11
90.781988
 21
22.197858
 31
0.0
 12
90.961988
 22
22.227858
 32
0.0
 13
90.961988
 23
22.227858
 33
0.0
  0
SOLID
  5
12B9
100
AcDbEntity
  8
0
  6
BYBLOCK
 62
     0
100
AcDbTrace
 10
88.607019
 20
22.257858
 30
0.0
 11
88.607019
 21
22.197858
 31
0.0
 12
88.427019
 22
22.227858
 32
0.0
 13
88.427019
 23
22.227858
 33
0.0
  0
MTEXT
  5
12BA
100
AcDbEntity
  8
0
  6
BYBLOCK
 62
     0
100
AcDbMText
 10
89.686939
 20
22.227858
 30
0.0
 40
0.18
 41
0.0
 71
     5
 72
     1
  1
\A1;2.54
  0
POINT
  5
12BB
100
AcDbEntity
  8
DEFPOINTS
  6
BYBLOCK
 62
     0
100
AcDbPoint
 10
90.961988
 20
21.436893
 30
0.0
  0
POINT
  5
12BC
100
AcDbEntity
  8
DEFPOINTS
  6
BYBLOCK
 62
     0
100
AcDbPoint
 10
88.427019
 20
21.299504
 30
0.0
  0
POINT
  5
12BD
100
AcDbEntity
  8
DEFPOINTS
  6
BYBLOCK
 62
     0
100
AcDbPoint
 10
88.427019
 20
22.227858
 30
0.0
  0
ENDBLK
  5
12BE
100
AcDbEntity
  8
0
100
AcDbBlockEnd
  0
BLOCK
  5
129A
100
AcDbEntity
  8
0
100
AcDbBlockBegin
  2
*D31
 70
     1
 10
0.0
 20
0.0
 30
0.0
  3
*D31
  1

  0
LINE
  5
129B
100
AcDbEntity
  8
0
  6
BYBLOCK
 62
     0
100
AcDbLine
 10
89.274519
 20
21.847354
 30
0.0
 11
85.583995
 21
21.847354
 31
0.0
  0
LINE
  5
129C
100
AcDbEntity
  8
0
  6
BYBLOCK
 62
     0
100
AcDbLine
 10
87.427019
 20
18.686893
 30
0.0
 11
85.583995
 21
18.686893
 31
0.0
  0
LINE
  5
129D
100
AcDbEntity
  8
0
  6
BYBLOCK
 62
     0
100
AcDbLine
 10
85.943995
 20
21.667354
 30
0.0
 11
85.943995
 21
20.537124
 31
0.0
  0
LINE
  5
129E
100
AcDbEntity
  8
0
  6
BYBLOCK
 62
     0
100
AcDbLine
 10
85.943995
 20
18.866893
 30
0.0
 11
85.943995
 21
19.997124
 31
0.0
  0
SOLID
  5
129F
100
AcDbEntity
  8
0
  6
BYBLOCK
 62
     0
100
AcDbTrace
 10
85.913995
 20
21.667354
 30
0.0
 11
85.973995
 21
21.667354
 31
0.0
 12
85.943995
 22
21.847354
 32
0.0
 13
85.943995
 23
21.847354
 33
0.0
  0
SOLID
  5
12A0
100
AcDbEntity
  8
0
  6
BYBLOCK
 62
     0
100
AcDbTrace
 10
85.913995
 20
18.866893
 30
0.0
 11
85.973995
 21
18.866893
 31
0.0
 12
85.943995
 22
18.686893
 32
0.0
 13
85.943995
 23
18.686893
 33
0.0
  0
MTEXT
  5
12A1
100
AcDbEntity
  8
0
  6
BYBLOCK
 62
     0
100
AcDbMText
 10
85.943995
 20
20.267124
 30
0.0
 40
0.18
 41
0.0
 71
     5
 72
     1
  1
\A1;3.16
  0
POINT
  5
12A2
100
AcDbEntity
  8
DEFPOINTS
  6
BYBLOCK
 62
     0
100
AcDbPoint
 10
89.399519
 20
21.847354
 30
0.0
  0
POINT
  5
12A3
100
AcDbEntity
  8
DEFPOINTS
  6
BYBLOCK
 62
     0
100
AcDbPoint
 10
87.552019
 20
18.686893
 30
0.0
  0
POINT
  5
12A4
100
AcDbEntity
  8
DEFPOINTS
  6
BYBLOCK
 62
     0
100
AcDbPoint
 10
85.943995
 20
18.686893
 30
0.0
  0
ENDBLK
  5
12A5
100
AcDbEntity
  8
0
100
AcDbBlockEnd
  0
BLOCK
  5
1303
100
AcDbEntity
  8
0
100
AcDbBlockBegin
  2
*D32
 70
     1
 10
0.0
 20
0.0
 30
0.0
  3
*D32
  1

  0
LINE
  5
1304
100
AcDbEntity
  8
0
  6
BYBLOCK
 62
     0
100
AcDbLine
 10
88.281408
 20
25.361146
 30
0.0
 11
85.246399
 21
25.361146
 31
0.0
  0
LINE
  5
1305
100
AcDbEntity
  8
0
  6
BYBLOCK
 62
     0
100
AcDbLine
 10
88.349733
 20
26.958465
 30
0.0
 11
85.246399
 21
26.958465
 31
0.0
  0
LINE
  5
1306
100
AcDbEntity
  8
0
  6
BYBLOCK
 62
     0
100
AcDbLine
 10
85.606399
 20
25.541146
 30
0.0
 11
85.606399
 21
25.889805
 31
0.0
  0
LINE
  5
1307
100
AcDbEntity
  8
0
  6
BYBLOCK
 62
     0
100
AcDbLine
 10
85.606399
 20
26.778465
 30
0.0
 11
85.606399
 21
26.429805
 31
0.0
  0
SOLID
  5
1308
100
AcDbEntity
  8
0
  6
BYBLOCK
 62
     0
100
AcDbTrace
 10
85.576399
 20
25.541146
 30
0.0
 11
85.636399
 21
25.541146
 31
0.0
 12
85.606399
 22
25.361146
 32
0.0
 13
85.606399
 23
25.361146
 33
0.0
  0
SOLID
  5
1309
100
AcDbEntity
  8
0
  6
BYBLOCK
 62
     0
100
AcDbTrace
 10
85.576399
 20
26.778465
 30
0.0
 11
85.636399
 21
26.778465
 31
0.0
 12
85.606399
 22
26.958465
 32
0.0
 13
85.606399
 23
26.958465
 33
0.0
  0
MTEXT
  5
130A
100
AcDbEntity
  8
0
  6
BYBLOCK
 62
     0
100
AcDbMText
 10
85.606399
 20
26.159805
 30
0.0
 40
0.18
 41
0.0
 71
     5
 72
     1
  1
\A1;1.60
  0
POINT
  5
130B
100
AcDbEntity
  8
DEFPOINTS
  6
BYBLOCK
 62
     0
100
AcDbPoint
 10
88.406408
 20
25.361146
 30
0.0
  0
POINT
  5
130C
100
AcDbEntity
  8
DEFPOINTS
  6
BYBLOCK
 62
     0
100
AcDbPoint
 10
88.474733
 20
26.958465
 30
0.0
  0
POINT
  5
130D
100
AcDbEntity
  8
DEFPOINTS
  6
BYBLOCK
 62
     0
100
AcDbPoint
 10
85.606399
 20
26.958465
 30
0.0
  0
ENDBLK
  5
130E
100
AcDbEntity
  8
0
100
AcDbBlockEnd
  0
BLOCK
  5
2E57
100
AcDbEntity
  8
0
100
AcDbBlockBegin
  2
*D33
 70
     1
 10
0.0
 20
0.0
 30
0.0
  3
*D33
  1

  0
LINE
  5
2E58
100
AcDbEntity
  8
0
  6
BYBLOCK
 62
     0
100
AcDbLine
 10
121.405302
 20
25.364705
 30
0.0
 11
121.405302
 21
24.414959
 31
0.0
  0
LINE
  5
2E59
100
AcDbEntity
  8
0
  6
BYBLOCK
 62
     0
100
AcDbLine
 10
123.195762
 20
26.037205
 30
0.0
 11
123.195762
 21
24.414959
 31
0.0
  0
LINE
  5
2E5A
100
AcDbEntity
  8
0
  6
BYBLOCK
 62
     0
100
AcDbLine
 10
121.585302
 20
24.774959
 30
0.0
 11
123.015762
 21
24.774959
 31
0.0
  0
LINE
  5
2E5B
100
AcDbEntity
  8
0
  6
BYBLOCK
 62
     0
100
AcDbLine
 10
123.195762
 20
24.774959
 30
0.0
 11
123.532328
 21
24.774959
 31
0.0
  0
SOLID
  5
2E5C
100
AcDbEntity
  8
0
  6
BYBLOCK
 62
     0
100
AcDbTrace
 10
121.585302
 20
24.804959
 30
0.0
 11
121.585302
 21
24.744959
 31
0.0
 12
121.405302
 22
24.774959
 32
0.0
 13
121.405302
 23
24.774959
 33
0.0
  0
SOLID
  5
2E5D
100
AcDbEntity
  8
0
  6
BYBLOCK
 62
     0
100
AcDbTrace
 10
123.015762
 20
24.804959
 30
0.0
 11
123.015762
 21
24.744959
 31
0.0
 12
123.195762
 22
24.774959
 32
0.0
 13
123.195762
 23
24.774959
 33
0.0
  0
MTEXT
  5
2E5E
100
AcDbEntity
  8
0
  6
BYBLOCK
 62
     0
100
AcDbMText
 10
123.952328
 20
24.774959
 30
0.0
 40
0.18
 41
0.0
 71
     5
 72
     1
  1
\A1;1.79
  0
POINT
  5
2E5F
100
AcDbEntity
  8
DEFPOINTS
  6
BYBLOCK
 62
     0
100
AcDbPoint
 10
121.405302
 20
25.489705
 30
0.0
  0
POINT
  5
2E60
100
AcDbEntity
  8
DEFPOINTS
  6
BYBLOCK
 62
     0
100
AcDbPoint
 10
123.195762
 20
26.162205
 30
0.0
  0
POINT
  5
2E61
100
AcDbEntity
  8
DEFPOINTS
  6
BYBLOCK
 62
     0
100
AcDbPoint
 10
123.195762
 20
24.774959
 30
0.0
  0
ENDBLK
  5
2E62
100
AcDbEntity
  8
0
100
AcDbBlockEnd
  0
BLOCK
  5
135C
100
AcDbEntity
  8
0
 62
     7
100
AcDbBlockBegin
  2
A$C63965B9F
 70
     0
 10
0.0
 20
0.0
 30
0.0
  3
A$C63965B9F
  1

  0
TEXT
  5
135A
100
AcDbEntity
  8
0
 62
     7
100
AcDbText
 10
0.0
 20
0.375
 30
0.0
 40
0.225
  1
SEE WHEEL
100
AcDbText
  0
TEXT
  5
135B
100
AcDbEntity
  8
0
 62
     7
100
AcDbText
 10
0.0
 20
0.0
 30
0.0
 40
0.225
  1
DIMENSIONS
100
AcDbText
  0
ENDBLK
  5
135D
100
AcDbEntity
  8
0
 62
     7
100
AcDbBlockEnd
  0
BLOCK
  5
1643
100
AcDbEntity
  8
0
 62
     7
100
AcDbBlockBegin
  2
COPY
 70
     0
 10
0.0
 20
0.0
 30
0.0
  3
COPY
  1

  0
LWPOLYLINE
  5
1639
100
AcDbEntity
  8
BORDER
100
AcDbPolyline
 90
        4
 70
     1
 43
0.01
 10
3.111191
 20
0.0
 10
0.0
 20
0.0
 10
0.0
 20
-0.888912
 10
3.111191
 20
-0.888912
  0
TEXT
  5
163A
100
AcDbEntity
  8
BORDER
 62
     2
100
AcDbText
 10
0.058933
 20
-0.355565
 30
0.0
 40
0.042668
  1
IS THE CONFIDENTIAL PROPERTY OF DOVER FLEXO ELECTRONICS, NONE OF WHICH SHALL
 41
0.95
100
AcDbText
  0
TEXT
  5
163B
100
AcDbEntity
  8
BORDER
 62
     2
100
AcDbText
 10
0.058933
 20
-0.444456
 30
0.0
 40
0.042668
  1
BE COPIED, REPRODUCED, DISCLOSED TO OTHERS, PUBLISHED OR USED IN WHOLE OR IN
 41
0.95
100
AcDbText
  0
TEXT
  5
163C
100
AcDbEntity
  8
BORDER
 62
     2
100
AcDbText
 10
0.058933
 20
-0.533347
 30
0.0
 40
0.042668
  1
PART, FOR ANY PURPOSE OTHER THAN THAT FOR WHICH IT IS BEING MADE AVAILABLE
 41
0.95
100
AcDbText
  0
TEXT
  5
163D
100
AcDbEntity
  8
BORDER
 62
     2
100
AcDbText
 10
0.058933
 20
-0.622238
 30
0.0
 40
0.042668
  1
WITHOUT THE EXPRESS ADVANCE WRITTEN PERMISSION OF A DULY AUTHORIZED AGENT
 41
0.95
100
AcDbText
  0
TEXT
  5
163E
100
AcDbEntity
  8
BORDER
 62
     2
100
AcDbText
 10
0.058933
 20
-0.711129
 30
0.0
 40
0.042668
  1
OF THE COMPANY. THIS DOCUMENT IS THE PROPERTY OF DFE AND
 41
0.95
100
AcDbText
  0
TEXT
  5
163F
100
AcDbEntity
  8
BORDER
 62
     2
100
AcDbText
 10
0.058933
 20
-0.266673
 30
0.0
 40
0.042668
  1
THE SUBJECT MATTER DISCLOSED HEREIN EMBODIES PROPRIETARY INFORMATION WHICH
 41
0.95
100
AcDbText
  0
TEXT
  5
1640
100
AcDbEntity
  8
BORDER
 62
     2
100
AcDbText
 10
0.803396
 20
-0.122222
 30
0.0
 40
0.060446
  1
COMPANY CONFIDENTIAL
 41
1.25
100
AcDbText
  0
LINE
  5
1641
100
AcDbEntity
  8
BORDER
 62
     2
100
AcDbLine
 10
0.770062
 20
-0.144445
 30
0.0
 11
2.281212
 21
-0.144445
 31
0.0
  0
TEXT
  5
1642
100
AcDbEntity
  8
BORDER
 62
     2
100
AcDbText
 10
0.058933
 20
-0.80002
 30
0.0
 40
0.042668
  1
IS TO BE RETURNED TO THE COMPANY ON DEMAND.
 41
0.95
100
AcDbText
  0
ENDBLK
  5
1644
100
AcDbEntity
  8
0
 62
     7
100
AcDbBlockEnd
  0
BLOCK
  5
2D95
100
AcDbEntity
  8
0
100
AcDbBlockBegin
  2
*D36
 70
     1
 10
0.0
 20
0.0
 30
0.0
  3
*D36
  1

  0
LINE
  5
2D96
100
AcDbEntity
  8
0
  6
BYBLOCK
 62
     0
100
AcDbLine
 10
135.812188
 20
23.952944
 30
0.0
 11
135.812188
 21
26.508698
 31
0.0
  0
LINE
  5
2D97
100
AcDbEntity
  8
0
  6
BYBLOCK
 62
     0
100
AcDbLine
 10
139.062188
 20
23.952944
 30
0.0
 11
139.062188
 21
26.508698
 31
0.0
  0
LINE
  5
2D98
100
AcDbEntity
  8
0
  6
BYBLOCK
 62
     0
100
AcDbLine
 10
135.992188
 20
26.148698
 30
0.0
 11
136.987188
 21
26.148698
 31
0.0
  0
LINE
  5
2D99
100
AcDbEntity
  8
0
  6
BYBLOCK
 62
     0
100
AcDbLine
 10
138.882188
 20
26.148698
 30
0.0
 11
137.887188
 21
26.148698
 31
0.0
  0
SOLID
  5
2D9A
100
AcDbEntity
  8
0
  6
BYBLOCK
 62
     0
100
AcDbTrace
 10
135.992188
 20
26.178698
 30
0.0
 11
135.992188
 21
26.118698
 31
0.0
 12
135.812188
 22
26.148698
 32
0.0
 13
135.812188
 23
26.148698
 33
0.0
  0
SOLID
  5
2D9B
100
AcDbEntity
  8
0
  6
BYBLOCK
 62
     0
100
AcDbTrace
 10
138.882188
 20
26.178698
 30
0.0
 11
138.882188
 21
26.118698
 31
0.0
 12
139.062188
 22
26.148698
 32
0.0
 13
139.062188
 23
26.148698
 33
0.0
  0
MTEXT
  5
2D9C
100
AcDbEntity
  8
0
  6
BYBLOCK
 62
     0
100
AcDbMText
 10
137.437188
 20
26.148698
 30
0.0
 40
0.18
 41
0.0
 71
     5
 72
     1
  1
\A1;3.25
  0
POINT
  5
2D9D
100
AcDbEntity
  8
DEFPOINTS
  6
BYBLOCK
 62
     0
100
AcDbPoint
 10
135.812188
 20
23.827944
 30
0.0
  0
POINT
  5
2D9E
100
AcDbEntity
  8
DEFPOINTS
  6
BYBLOCK
 62
     0
100
AcDbPoint
 10
139.062188
 20
23.827944
 30
0.0
  0
POINT
  5
2D9F
100
AcDbEntity
  8
DEFPOINTS
  6
BYBLOCK
 62
     0
100
AcDbPoint
 10
139.062188
 20
26.148698
 30
0.0
  0
ENDBLK
  5
2DA0
100
AcDbEntity
  8
0
100
AcDbBlockEnd
  0
BLOCK
  5
2DDC
100
AcDbEntity
  8
0
100
AcDbBlockBegin
  2
*D37
 70
     1
 10
0.0
 20
0.0
 30
0.0
  3
*D37
  1

  0
LINE
  5
2DDD
100
AcDbEntity
  8
0
  6
BYBLOCK
 62
     0
100
AcDbLine
 10
136.4318
 20
22.927944
 30
0.0
 11
134.838814
 21
22.927944
 31
0.0
  0
LINE
  5
2DDE
100
AcDbEntity
  8
0
  6
BYBLOCK
 62
     0
100
AcDbLine
 10
137.0553
 20
21.712156
 30
0.0
 11
134.838814
 21
21.712156
 31
0.0
  0
LINE
  5
2DDF
100
AcDbEntity
  8
0
  6
BYBLOCK
 62
     0
100
AcDbLine
 10
135.198814
 20
22.747944
 30
0.0
 11
135.198814
 21
22.567944
 31
0.0
  0
LINE
  5
2DE0
100
AcDbEntity
  8
0
  6
BYBLOCK
 62
     0
100
AcDbLine
 10
135.198814
 20
21.892156
 30
0.0
 11
135.198814
 21
22.072156
 31
0.0
  0
SOLID
  5
2DE1
100
AcDbEntity
  8
0
  6
BYBLOCK
 62
     0
100
AcDbTrace
 10
135.168814
 20
22.747944
 30
0.0
 11
135.228814
 21
22.747944
 31
0.0
 12
135.198814
 22
22.927944
 32
0.0
 13
135.198814
 23
22.927944
 33
0.0
  0
SOLID
  5
2DE2
100
AcDbEntity
  8
0
  6
BYBLOCK
 62
     0
100
AcDbTrace
 10
135.168814
 20
21.892156
 30
0.0
 11
135.228814
 21
21.892156
 31
0.0
 12
135.198814
 22
21.712156
 32
0.0
 13
135.198814
 23
21.712156
 33
0.0
  0
MTEXT
  5
2DE3
100
AcDbEntity
  8
0
  6
BYBLOCK
 62
     0
100
AcDbMText
 10
135.198814
 20
22.32005
 30
0.0
 40
0.18
 41
0.0
 71
     5
 72
     1
  1
\A1;1.22
  0
POINT
  5
2DE4
100
AcDbEntity
  8
DEFPOINTS
  6
BYBLOCK
 62
     0
100
AcDbPoint
 10
136.5568
 20
22.927944
 30
0.0
  0
POINT
  5
2DE5
100
AcDbEntity
  8
DEFPOINTS
  6
BYBLOCK
 62
     0
100
AcDbPoint
 10
137.1803
 20
21.712156
 30
0.0
  0
POINT
  5
2DE6
100
AcDbEntity
  8
DEFPOINTS
  6
BYBLOCK
 62
     0
100
AcDbPoint
 10
135.198814
 20
21.712156
 30
0.0
  0
ENDBLK
  5
2DE7
100
AcDbEntity
  8
0
100
AcDbBlockEnd
  0
BLOCK
  5
2E4A
100
AcDbEntity
  8
0
100
AcDbBlockBegin
  2
*D38
 70
     1
 10
0.0
 20
0.0
 30
0.0
  3
*D38
  1

  0
LINE
  5
2E4B
100
AcDbEntity
  8
0
  6
BYBLOCK
 62
     0
100
AcDbLine
 10
120.505302
 20
25.359705
 30
0.0
 11
120.505302
 21
23.736936
 31
0.0
  0
LINE
  5
2E4C
100
AcDbEntity
  8
0
  6
BYBLOCK
 62
     0
100
AcDbLine
 10
122.305302
 20
25.359705
 30
0.0
 11
122.305302
 21
23.736936
 31
0.0
  0
LINE
  5
2E4D
100
AcDbEntity
  8
0
  6
BYBLOCK
 62
     0
100
AcDbLine
 10
120.685302
 20
24.096936
 30
0.0
 11
121.000302
 21
24.096936
 31
0.0
  0
LINE
  5
2E4E
100
AcDbEntity
  8
0
  6
BYBLOCK
 62
     0
100
AcDbLine
 10
122.125302
 20
24.096936
 30
0.0
 11
121.810302
 21
24.096936
 31
0.0
  0
SOLID
  5
2E4F
100
AcDbEntity
  8
0
  6
BYBLOCK
 62
     0
100
AcDbTrace
 10
120.685302
 20
24.126936
 30
0.0
 11
120.685302
 21
24.066936
 31
0.0
 12
120.505302
 22
24.096936
 32
0.0
 13
120.505302
 23
24.096936
 33
0.0
  0
SOLID
  5
2E50
100
AcDbEntity
  8
0
  6
BYBLOCK
 62
     0
100
AcDbTrace
 10
122.125302
 20
24.126936
 30
0.0
 11
122.125302
 21
24.066936
 31
0.0
 12
122.305302
 22
24.096936
 32
0.0
 13
122.305302
 23
24.096936
 33
0.0
  0
MTEXT
  5
2E51
100
AcDbEntity
  8
0
  6
BYBLOCK
 62
     0
100
AcDbMText
 10
121.405302
 20
24.096936
 30
0.0
 40
0.18
 41
0.0
 71
     5
 72
     1
  1
\A1;1.80
  0
POINT
  5
2E52
100
AcDbEntity
  8
DEFPOINTS
  6
BYBLOCK
 62
     0
100
AcDbPoint
 10
120.505302
 20
25.489705
 30
0.0
  0
POINT
  5
2E53
100
AcDbEntity
  8
DEFPOINTS
  6
BYBLOCK
 62
     0
100
AcDbPoint
 10
122.305302
 20
25.489705
 30
0.0
  0
POINT
  5
2E54
100
AcDbEntity
  8
DEFPOINTS
  6
BYBLOCK
 62
     0
100
AcDbPoint
 10
122.305302
 20
24.096936
 30
0.0
  0
ENDBLK
  5
2E55
100
AcDbEntity
  8
0
100
AcDbBlockEnd
  0
BLOCK
  5
2E80
100
AcDbEntity
  8
0
100
AcDbBlockBegin
  2
*D39
 70
     1
 10
0.0
 20
0.0
 30
0.0
  3
*D39
  1

  0
LINE
  5
2E81
100
AcDbEntity
  8
0
  6
BYBLOCK
 62
     0
100
AcDbLine
 10
119.893434
 20
10.136932
 30
0.0
 11
119.893434
 21
11.054252
 31
0.0
  0
LINE
  5
2E82
100
AcDbEntity
  8
0
  6
BYBLOCK
 62
     0
100
AcDbLine
 10
122.786434
 20
10.205682
 30
0.0
 11
122.786434
 21
11.054252
 31
0.0
  0
LINE
  5
2E83
100
AcDbEntity
  8
0
  6
BYBLOCK
 62
     0
100
AcDbLine
 10
120.073434
 20
10.694252
 30
0.0
 11
120.889934
 21
10.694252
 31
0.0
  0
LINE
  5
2E84
100
AcDbEntity
  8
0
  6
BYBLOCK
 62
     0
100
AcDbLine
 10
122.606434
 20
10.694252
 30
0.0
 11
121.789934
 21
10.694252
 31
0.0
  0
SOLID
  5
2E85
100
AcDbEntity
  8
0
  6
BYBLOCK
 62
     0
100
AcDbTrace
 10
120.073434
 20
10.724252
 30
0.0
 11
120.073434
 21
10.664252
 31
0.0
 12
119.893434
 22
10.694252
 32
0.0
 13
119.893434
 23
10.694252
 33
0.0
  0
SOLID
  5
2E86
100
AcDbEntity
  8
0
  6
BYBLOCK
 62
     0
100
AcDbTrace
 10
122.606434
 20
10.724252
 30
0.0
 11
122.606434
 21
10.664252
 31
0.0
 12
122.786434
 22
10.694252
 32
0.0
 13
122.786434
 23
10.694252
 33
0.0
  0
MTEXT
  5
2E87
100
AcDbEntity
  8
0
  6
BYBLOCK
 62
     0
100
AcDbMText
 10
121.339934
 20
10.694252
 30
0.0
 40
0.18
 41
0.0
 71
     5
 72
     1
  1
\A1;2.89
  0
POINT
  5
2E88
100
AcDbEntity
  8
DEFPOINTS
  6
BYBLOCK
 62
     0
100
AcDbPoint
 10
119.893434
 20
10.006932
 30
0.0
  0
POINT
  5
2E89
100
AcDbEntity
  8
DEFPOINTS
  6
BYBLOCK
 62
     0
100
AcDbPoint
 10
122.786434
 20
10.075682
 30
0.0
  0
POINT
  5
2E8A
100
AcDbEntity
  8
DEFPOINTS
  6
BYBLOCK
 62
     0
100
AcDbPoint
 10
122.786434
 20
10.694252
 30
0.0
  0
ENDBLK
  5
2E8B
100
AcDbEntity
  8
0
100
AcDbBlockEnd
  0
BLOCK
  5
2EAC
100
AcDbEntity
  8
0
100
AcDbBlockBegin
  2
*D40
 70
     1
 10
0.0
 20
0.0
 30
0.0
  3
*D40
  1

  0
LINE
  5
2EAD
100
AcDbEntity
  8
0
  6
BYBLOCK
 62
     0
100
AcDbLine
 10
129.901457
 20
10.156932
 30
0.0
 11
129.901457
 21
11.557796
 31
0.0
  0
LINE
  5
2EAE
100
AcDbEntity
  8
0
  6
BYBLOCK
 62
     0
100
AcDbLine
 10
132.786457
 20
10.191307
 30
0.0
 11
132.786457
 21
11.557796
 31
0.0
  0
LINE
  5
2EAF
100
AcDbEntity
  8
0
  6
BYBLOCK
 62
     0
100
AcDbLine
 10
130.081457
 20
11.197796
 30
0.0
 11
130.893957
 21
11.197796
 31
0.0
  0
LINE
  5
2EB0
100
AcDbEntity
  8
0
  6
BYBLOCK
 62
     0
100
AcDbLine
 10
132.606457
 20
11.197796
 30
0.0
 11
131.793957
 21
11.197796
 31
0.0
  0
SOLID
  5
2EB1
100
AcDbEntity
  8
0
  6
BYBLOCK
 62
     0
100
AcDbTrace
 10
130.081457
 20
11.227796
 30
0.0
 11
130.081457
 21
11.167796
 31
0.0
 12
129.901457
 22
11.197796
 32
0.0
 13
129.901457
 23
11.197796
 33
0.0
  0
SOLID
  5
2EB2
100
AcDbEntity
  8
0
  6
BYBLOCK
 62
     0
100
AcDbTrace
 10
132.606457
 20
11.227796
 30
0.0
 11
132.606457
 21
11.167796
 31
0.0
 12
132.786457
 22
11.197796
 32
0.0
 13
132.786457
 23
11.197796
 33
0.0
  0
MTEXT
  5
2EB3
100
AcDbEntity
  8
0
  6
BYBLOCK
 62
     0
100
AcDbMText
 10
131.343957
 20
11.197796
 30
0.0
 40
0.18
 41
0.0
 71
     5
 72
     1
  1
\A1;2.89
  0
POINT
  5
2EB4
100
AcDbEntity
  8
DEFPOINTS
  6
BYBLOCK
 62
     0
100
AcDbPoint
 10
129.901457
 20
10.026932
 30
0.0
  0
POINT
  5
2EB5
100
AcDbEntity
  8
DEFPOINTS
  6
BYBLOCK
 62
     0
100
AcDbPoint
 10
132.786457
 20
10.061307
 30
0.0
  0
POINT
  5
2EB6
100
AcDbEntity
  8
DEFPOINTS
  6
BYBLOCK
 62
     0
100
AcDbPoint
 10
132.786457
 20
11.197796
 30
0.0
  0
ENDBLK
  5
2EB7
100
AcDbEntity
  8
0
100
AcDbBlockEnd
  0
BLOCK
  5
2ED8
100
AcDbEntity
  8
0
100
AcDbBlockBegin
  2
*D41
 70
     1
 10
0.0
 20
0.0
 30
0.0
  3
*D41
  1

  0
LINE
  5
2ED9
100
AcDbEntity
  8
0
  6
BYBLOCK
 62
     0
100
AcDbLine
 10
139.901434
 20
10.156932
 30
0.0
 11
139.901434
 21
11.447354
 31
0.0
  0
LINE
  5
2EDA
100
AcDbEntity
  8
0
  6
BYBLOCK
 62
     0
100
AcDbLine
 10
142.786434
 20
10.086832
 30
0.0
 11
142.786434
 21
11.447354
 31
0.0
  0
LINE
  5
2EDB
100
AcDbEntity
  8
0
  6
BYBLOCK
 62
     0
100
AcDbLine
 10
140.081434
 20
11.087354
 30
0.0
 11
140.893934
 21
11.087354
 31
0.0
  0
LINE
  5
2EDC
100
AcDbEntity
  8
0
  6
BYBLOCK
 62
     0
100
AcDbLine
 10
142.606434
 20
11.087354
 30
0.0
 11
141.793934
 21
11.087354
 31
0.0
  0
SOLID
  5
2EDD
100
AcDbEntity
  8
0
  6
BYBLOCK
 62
     0
100
AcDbTrace
 10
140.081434
 20
11.117354
 30
0.0
 11
140.081434
 21
11.057354
 31
0.0
 12
139.901434
 22
11.087354
 32
0.0
 13
139.901434
 23
11.087354
 33
0.0
  0
SOLID
  5
2EDE
100
AcDbEntity
  8
0
  6
BYBLOCK
 62
     0
100
AcDbTrace
 10
142.606434
 20
11.117354
 30
0.0
 11
142.606434
 21
11.057354
 31
0.0
 12
142.786434
 22
11.087354
 32
0.0
 13
142.786434
 23
11.087354
 33
0.0
  0
MTEXT
  5
2EDF
100
AcDbEntity
  8
0
  6
BYBLOCK
 62
     0
100
AcDbMText
 10
141.343934
 20
11.087354
 30
0.0
 40
0.18
 41
0.0
 71
     5
 72
     1
  1
\A1;2.89
  0
POINT
  5
2EE0
100
AcDbEntity
  8
DEFPOINTS
  6
BYBLOCK
 62
     0
100
AcDbPoint
 10
139.901434
 20
10.026932
 30
0.0
  0
POINT
  5
2EE1
100
AcDbEntity
  8
DEFPOINTS
  6
BYBLOCK
 62
     0
100
AcDbPoint
 10
142.786434
 20
9.956832
 30
0.0
  0
POINT
  5
2EE2
100
AcDbEntity
  8
DEFPOINTS
  6
BYBLOCK
 62
     0
100
AcDbPoint
 10
142.786434
 20
11.087354
 30
0.0
  0
ENDBLK
  5
2EE3
100
AcDbEntity
  8
0
100
AcDbBlockEnd
  0
ENDSEC
  0
SECTION
  2
ENTITIES
  0
TEXT
  5
3EA
100
AcDbEntity
  8
3
 62
     7
100
AcDbText
 10
2.630054
 20
9.610973
 30
0.0
 40
0.044446
  1

  7
ITALICC
100
AcDbText
  0
TEXT
  5
3EC
100
AcDbEntity
  8
3
 62
     7
100
AcDbText
 10
2.574497
 20
9.722087
 30
0.0
 40
0.044446
  1

  7
ITALICC
100
AcDbText
  0
TEXT
  5
3ED
100
AcDbEntity
  8
3
 62
     7
100
AcDbText
 10
2.607832
 20
9.66653
 30
0.0
 40
0.044446
  1

  7
ITALICC
100
AcDbText
  0
TEXT
  5
3EE
100
AcDbEntity
  8
3
 62
     7
100
AcDbText
 10
1.882008
 20
-5.295607
 30
0.0
 40
0.044446
  1

  7
ITALICC
100
AcDbText
  0
TEXT
  5
3EF
100
AcDbEntity
  8
3
 62
     7
100
AcDbText
 10
1.826451
 20
-5.184493
 30
0.0
 40
0.044446
  1

  7
ITALICC
100
AcDbText
  0
TEXT
  5
3F0
100
AcDbEntity
  8
3
 62
     7
100
AcDbText
 10
1.859786
 20
-5.24005
 30
0.0
 40
0.044446
  1

  7
ITALICC
100
AcDbText
  0
TEXT
  5
3F1
100
AcDbEntity
  8
3
 62
     7
100
AcDbText
 10
35.911046
 20
17.878163
 30
0.0
 40
0.044446
  1

  7
ITALICC
100
AcDbText
  0
TEXT
  5
3F2
100
AcDbEntity
  8
3
 62
     7
100
AcDbText
 10
35.855489
 20
17.989277
 30
0.0
 40
0.044446
  1

  7
ITALICC
100
AcDbText
  0
TEXT
  5
3F3
100
AcDbEntity
  8
3
 62
     7
100
AcDbText
 10
35.888823
 20
17.93372
 30
0.0
 40
0.044446
  1

  7
ITALICC
100
AcDbText
  0
TEXT
  5
3F4
100
AcDbEntity
  8
3
 62
     7
100
AcDbText
 10
35.911046
 20
2.405137
 30
0.0
 40
0.044446
  1

  7
ITALICC
100
AcDbText
  0
TEXT
  5
3F5
100
AcDbEntity
  8
3
 62
     7
100
AcDbText
 10
35.855489
 20
2.51625
 30
0.0
 40
0.044446
  1

  7
ITALICC
100
AcDbText
  0
TEXT
  5
3F6
100
AcDbEntity
  8
3
 62
     7
100
AcDbText
 10
35.888823
 20
2.460693
 30
0.0
 40
0.044446
  1

  7
ITALICC
100
AcDbText
  0
TEXT
  5
403
100
AcDbEntity
  8
3
 62
     7
100
AcDbText
 10
24.726179
 20
17.972609
 30
0.0
 40
0.044446
  1

  7
ITALICC
100
AcDbText
  0
TEXT
  5
404
100
AcDbEntity
  8
3
 62
     7
100
AcDbText
 10
24.670622
 20
18.083723
 30
0.0
 40
0.044446
  1

  7
ITALICC
100
AcDbText
  0
TEXT
  5
405
100
AcDbEntity
  8
3
 62
     7
100
AcDbText
 10
24.703956
 20
18.028166
 30
0.0
 40
0.044446
  1

  7
ITALICC
100
AcDbText
  0
TEXT
  5
406
100
AcDbEntity
  8
0
 62
     7
100
AcDbText
 10
38.18749
 20
9.250221
 30
0.0
 40
0.09
  1

100
AcDbText
  0
TEXT
  5
407
100
AcDbEntity
  8
3
 62
     7
100
AcDbText
 10
-0.930391
 20
40.81418
 30
0.0
 40
0.088891
  1

 50
21.457561
  7
ITALICC
100
AcDbText
  0
TEXT
  5
408
100
AcDbEntity
  8
3
 62
     7
100
AcDbText
 10
-1.115097
 20
40.980358
 30
0.0
 40
0.088891
  1

 50
21.457561
  7
ITALICC
100
AcDbText
  0
TEXT
  5
409
100
AcDbEntity
  8
3
 62
     7
100
AcDbText
 10
-1.012402
 20
40.901333
 30
0.0
 40
0.088891
  1

 50
21.457561
  7
ITALICC
100
AcDbText
  0
TEXT
  5
40A
100
AcDbEntity
  8
3
 62
     7
100
AcDbText
 10
18.614074
 20
48.496231
 30
0.0
 40
0.088891
  1

 50
21.457561
  7
ITALICC
100
AcDbText
  0
TEXT
  5
40B
100
AcDbEntity
  8
3
 62
     7
100
AcDbText
 10
18.429368
 20
48.662409
 30
0.0
 40
0.088891
  1

 50
21.457561
  7
ITALICC
100
AcDbText
  0
TEXT
  5
40C
100
AcDbEntity
  8
3
 62
     7
100
AcDbText
 10
18.532062
 20
48.583385
 30
0.0
 40
0.088891
  1

 50
21.457561
  7
ITALICC
100
AcDbText
  0
TEXT
  5
40D
100
AcDbEntity
  8
3
 62
     7
100
AcDbText
 10
38.158538
 20
56.178282
 30
0.0
 40
0.088891
  1

 50
21.457561
  7
ITALICC
100
AcDbText
  0
TEXT
  5
40E
100
AcDbEntity
  8
3
 62
     7
100
AcDbText
 10
37.973832
 20
56.344461
 30
0.0
 40
0.088891
  1

 50
21.457561
  7
ITALICC
100
AcDbText
  0
TEXT
  5
40F
100
AcDbEntity
  8
3
 62
     7
100
AcDbText
 10
38.076526
 20
56.265436
 30
0.0
 40
0.088891
  1

 50
21.457561
  7
ITALICC
100
AcDbText
  0
TEXT
  5
410
100
AcDbEntity
  8
3
 62
     7
100
AcDbText
 10
57.703002
 20
63.860334
 30
0.0
 40
0.088891
  1

 50
21.457561
  7
ITALICC
100
AcDbText
  0
TEXT
  5
411
100
AcDbEntity
  8
3
 62
     7
100
AcDbText
 10
57.518296
 20
64.026512
 30
0.0
 40
0.088891
  1

 50
21.457561
  7
ITALICC
100
AcDbText
  0
TEXT
  5
412
100
AcDbEntity
  8
3
 62
     7
100
AcDbText
 10
57.620991
 20
63.947488
 30
0.0
 40
0.088891
  1

 50
21.457561
  7
ITALICC
100
AcDbText
  0
TEXT
  5
413
100
AcDbEntity
  8
3
 62
     7
100
AcDbText
 10
4.922601
 20
25.923159
 30
0.0
 40
0.088891
  1

 50
21.457561
  7
ITALICC
100
AcDbText
  0
TEXT
  5
414
100
AcDbEntity
  8
3
 62
     7
100
AcDbText
 10
4.737895
 20
26.089337
 30
0.0
 40
0.088891
  1

 50
21.457561
  7
ITALICC
100
AcDbText
  0
TEXT
  5
415
100
AcDbEntity
  8
3
 62
     7
100
AcDbText
 10
4.840589
 20
26.010313
 30
0.0
 40
0.088891
  1

 50
21.457561
  7
ITALICC
100
AcDbText
  0
TEXT
  5
416
100
AcDbEntity
  8
3
 62
     7
100
AcDbText
 10
24.467065
 20
33.605211
 30
0.0
 40
0.088891
  1

 50
21.457561
  7
ITALICC
100
AcDbText
  0
TEXT
  5
417
100
AcDbEntity
  8
3
 62
     7
100
AcDbText
 10
24.282359
 20
33.771389
 30
0.0
 40
0.088891
  1

 50
21.457561
  7
ITALICC
100
AcDbText
  0
TEXT
  5
418
100
AcDbEntity
  8
3
 62
     7
100
AcDbText
 10
24.385053
 20
33.692364
 30
0.0
 40
0.088891
  1

 50
21.457561
  7
ITALICC
100
AcDbText
  0
TEXT
  5
419
100
AcDbEntity
  8
3
 62
     7
100
AcDbText
 10
44.01153
 20
41.287262
 30
0.0
 40
0.088891
  1

 50
21.457561
  7
ITALICC
100
AcDbText
  0
TEXT
  5
41A
100
AcDbEntity
  8
3
 62
     7
100
AcDbText
 10
43.826823
 20
41.45344
 30
0.0
 40
0.088891
  1

 50
21.457561
  7
ITALICC
100
AcDbText
  0
TEXT
  5
41B
100
AcDbEntity
  8
3
 62
     7
100
AcDbText
 10
43.929518
 20
41.374416
 30
0.0
 40
0.088891
  1

 50
21.457561
  7
ITALICC
100
AcDbText
  0
TEXT
  5
41C
100
AcDbEntity
  8
3
 62
     7
100
AcDbText
 10
63.555994
 20
48.969313
 30
0.0
 40
0.088891
  1

 50
21.457561
  7
ITALICC
100
AcDbText
  0
TEXT
  5
41D
100
AcDbEntity
  8
3
 62
     7
100
AcDbText
 10
63.371288
 20
49.135492
 30
0.0
 40
0.088891
  1

 50
21.457561
  7
ITALICC
100
AcDbText
  0
TEXT
  5
41E
100
AcDbEntity
  8
3
 62
     7
100
AcDbText
 10
63.473982
 20
49.056467
 30
0.0
 40
0.088891
  1

 50
21.457561
  7
ITALICC
100
AcDbText
  0
TEXT
  5
41F
100
AcDbEntity
  8
3
 62
     7
100
AcDbText
 10
10.775593
 20
11.032139
 30
0.0
 40
0.088891
  1

 50
21.457561
  7
ITALICC
100
AcDbText
  0
TEXT
  5
420
100
AcDbEntity
  8
3
 62
     7
100
AcDbText
 10
10.590886
 20
11.198317
 30
0.0
 40
0.088891
  1

 50
21.457561
  7
ITALICC
100
AcDbText
  0
TEXT
  5
421
100
AcDbEntity
  8
3
 62
     7
100
AcDbText
 10
10.693581
 20
11.119292
 30
0.0
 40
0.088891
  1

 50
21.457561
  7
ITALICC
100
AcDbText
  0
TEXT
  5
422
100
AcDbEntity
  8
3
 62
     7
100
AcDbText
 10
30.320057
 20
18.71419
 30
0.0
 40
0.088891
  1

 50
21.457561
  7
ITALICC
100
AcDbText
  0
TEXT
  5
423
100
AcDbEntity
  8
3
 62
     7
100
AcDbText
 10
30.135351
 20
18.880368
 30
0.0
 40
0.088891
  1

 50
21.457561
  7
ITALICC
100
AcDbText
  0
TEXT
  5
424
100
AcDbEntity
  8
3
 62
     7
100
AcDbText
 10
30.238045
 20
18.801344
 30
0.0
 40
0.088891
  1

 50
21.457561
  7
ITALICC
100
AcDbText
  0
TEXT
  5
425
100
AcDbEntity
  8
3
 62
     7
100
AcDbText
 10
49.864521
 20
26.396241
 30
0.0
 40
0.088891
  1

 50
21.457561
  7
ITALICC
100
AcDbText
  0
TEXT
  5
426
100
AcDbEntity
  8
3
 62
     7
100
AcDbText
 10
49.679815
 20
26.56242
 30
0.0
 40
0.088891
  1

 50
21.457561
  7
ITALICC
100
AcDbText
  0
TEXT
  5
427
100
AcDbEntity
  8
3
 62
     7
100
AcDbText
 10
49.782509
 20
26.483395
 30
0.0
 40
0.088891
  1

 50
21.457561
  7
ITALICC
100
AcDbText
  0
TEXT
  5
428
100
AcDbEntity
  8
3
 62
     7
100
AcDbText
 10
69.408985
 20
34.078293
 30
0.0
 40
0.088891
  1

 50
21.457561
  7
ITALICC
100
AcDbText
  0
TEXT
  5
429
100
AcDbEntity
  8
3
 62
     7
100
AcDbText
 10
69.224279
 20
34.244471
 30
0.0
 40
0.088891
  1

 50
21.457561
  7
ITALICC
100
AcDbText
  0
TEXT
  5
42A
100
AcDbEntity
  8
3
 62
     7
100
AcDbText
 10
69.326974
 20
34.165447
 30
0.0
 40
0.088891
  1

 50
21.457561
  7
ITALICC
100
AcDbText
  0
TEXT
  5
42B
100
AcDbEntity
  8
3
 62
     7
100
AcDbText
 10
45.351108
 20
6.668446
 30
0.0
 40
0.088891
  1

 50
21.457561
  7
ITALICC
100
AcDbText
  0
TEXT
  5
42C
100
AcDbEntity
  8
3
 62
     7
100
AcDbText
 10
45.166401
 20
6.834624
 30
0.0
 40
0.088891
  1

 50
21.457561
  7
ITALICC
100
AcDbText
  0
TEXT
  5
42D
100
AcDbEntity
  8
3
 62
     7
100
AcDbText
 10
45.269096
 20
6.755599
 30
0.0
 40
0.088891
  1

 50
21.457561
  7
ITALICC
100
AcDbText
  0
TEXT
  5
42E
100
AcDbEntity
  8
0
100
AcDbText
 10
56.079891
 20
11.998571
 30
0.0
 40
0.086193
  1

 50
348.897994
  7
HELV
100
AcDbText
  0
TEXT
  5
430
100
AcDbEntity
  8
0
100
AcDbText
 10
57.875525
 20
10.95335
 30
0.0
 40
0.086193
  1

 50
169.647637
  7
HELV
100
AcDbText
  0
TEXT
  5
431
100
AcDbEntity
  8
0
100
AcDbText
 10
58.13266
 20
10.971243
 30
0.0
 40
0.086193
  1

 50
194.263022
  7
HELV
100
AcDbText
  0
TEXT
  5
432
100
AcDbEntity
  8
0
100
AcDbText
 10
58.513336
 20
11.301039
 30
0.0
 40
0.086193
  1

 50
243.493791
  7
HELV
100
AcDbText
  0
TEXT
  5
433
100
AcDbEntity
  8
0
100
AcDbText
 10
58.542657
 20
11.723751
 30
0.0
 40
0.086193
  1

 50
284.519432
  7
HELV
100
AcDbText
  0
TEXT
  5
434
100
AcDbEntity
  8
0
100
AcDbText
 10
58.211161
 20
12.102947
 30
0.0
 40
0.086193
  1

 50
333.750201
  7
HELV
100
AcDbText
  0
TEXT
  5
43E
100
AcDbEntity
  8
0
100
AcDbText
 10
58.247721
 20
10.917154
 30
0.0
 40
0.046544
  1

 50
26.178009
  7
HELV
100
AcDbText
  0
TEXT
  5
43F
100
AcDbEntity
  8
0
100
AcDbText
 10
58.534059
 20
11.154713
 30
0.0
 40
0.046544
  1

 50
57.212492
  7
HELV
100
AcDbText
  0
TEXT
  5
440
100
AcDbEntity
  8
0
100
AcDbText
 10
58.64999
 20
11.443523
 30
0.0
 40
0.046544
  1

 50
83.074561
  7
HELV
100
AcDbText
  0
TEXT
  5
441
100
AcDbEntity
  8
0
100
AcDbText
 10
58.607374
 20
11.813127
 30
0.0
 40
0.046544
  1

 50
114.109044
  7
HELV
100
AcDbText
  0
TEXT
  5
442
100
AcDbEntity
  8
0
100
AcDbText
 10
58.513918
 20
11.975959
 30
0.0
 40
0.046544
  1

 50
129.626285
  7
HELV
100
AcDbText
  0
LINE
  5
5A1
100
AcDbEntity
  8
CTR
  6
CENTER2
 62
     7
100
AcDbLine
 10
132.289208
 20
25.349705
 30
0.0
 11
132.289208
 21
26.004705
 31
0.0
  0
LINE
  5
5A2
100
AcDbEntity
  8
CTR
  6
CENTER2
 62
     7
100
AcDbLine
 10
130.521442
 20
25.349705
 30
0.0
 11
130.521442
 21
26.004705
 31
0.0
  0
LINE
  5
5A3
100
AcDbEntity
  8
OBJASSY
 62
     7
100
AcDbLine
 10
130.505325
 20
25.864705
 30
0.0
 11
130.505325
 21
27.014705
 31
0.0
  0
LINE
  5
5A6
100
AcDbEntity
  8
OBJASSY
 62
     7
100
AcDbLine
 10
130.505325
 20
25.449705
 30
0.0
 11
132.305325
 21
25.449705
 31
0.0
  0
LINE
  5
5A7
100
AcDbEntity
  8
HID
 62
     7
100
AcDbLine
 10
132.459208
 20
25.489705
 30
0.0
 11
132.459208
 21
25.854705
 31
0.0
  0
LINE
  5
5A9
100
AcDbEntity
  8
OBJASSY
 62
     7
100
AcDbLine
 10
132.305325
 20
25.449705
 30
0.0
 11
132.305325
 21
25.459705
 31
0.0
  0
LINE
  5
5AB
100
AcDbEntity
  8
OBJASSY
 62
     7
100
AcDbLine
 10
132.305325
 20
25.864705
 30
0.0
 11
132.305325
 21
25.927205
 31
0.0
  0
LINE
  5
5AC
100
AcDbEntity
  8
OBJASSY
 62
     7
100
AcDbLine
 10
132.153786
 20
25.927205
 30
0.0
 11
132.305325
 21
25.927205
 31
0.0
  0
LINE
  5
5AE
100
AcDbEntity
  8
HID
 62
     7
100
AcDbLine
 10
132.119208
 20
25.489705
 30
0.0
 11
132.119208
 21
25.854705
 31
0.0
  0
LINE
  5
5B1
100
AcDbEntity
  8
HID
 62
     7
100
AcDbLine
 10
130.351442
 20
25.489705
 30
0.0
 11
130.351442
 21
25.854705
 31
0.0
  0
LINE
  5
5B2
100
AcDbEntity
  8
HID
 62
     7
100
AcDbLine
 10
130.691442
 20
25.489705
 30
0.0
 11
130.691442
 21
25.854705
 31
0.0
  0
LINE
  5
5B3
100
AcDbEntity
  8
OBJASSY
 62
     7
100
AcDbLine
 10
130.505325
 20
25.449705
 30
0.0
 11
130.505325
 21
25.459705
 31
0.0
  0
LINE
  5
5B5
100
AcDbEntity
  8
OBJASSY
 62
     7
100
AcDbLine
 10
130.505325
 20
27.014705
 30
0.0
 11
132.305325
 21
27.014705
 31
0.0
  0
LINE
  5
5B6
100
AcDbEntity
  8
OBJASSY
 62
     7
100
AcDbLine
 10
132.191727
 20
27.014705
 30
0.0
 11
132.191727
 21
27.097705
 31
0.0
  0
LINE
  5
5B7
100
AcDbEntity
  8
OBJASSY
 62
     7
100
AcDbLine
 10
132.153786
 20
26.952205
 30
0.0
 11
132.305325
 21
26.952205
 31
0.0
  0
LINE
  5
5B8
100
AcDbEntity
  8
OBJASSY
 62
     7
100
AcDbLine
 10
132.305325
 20
26.952205
 30
0.0
 11
132.305325
 21
27.014705
 31
0.0
  0
LINE
  5
5B9
100
AcDbEntity
  8
OBJASSY
 62
     7
100
AcDbLine
 10
130.617825
 20
27.014705
 30
0.0
 11
130.617825
 21
27.097705
 31
0.0
  0
LINE
  5
5C2
100
AcDbEntity
  8
CTR
 62
     7
100
AcDbLine
 10
130.617574
 20
17.359947
 30
0.0
 11
130.617574
 21
17.699947
 31
0.0
  0
LINE
  5
5C3
100
AcDbEntity
  8
CTR
 62
     7
100
AcDbLine
 10
130.617574
 20
19.127714
 30
0.0
 11
130.617574
 21
19.467714
 31
0.0
  0
LINE
  5
5C4
100
AcDbEntity
  8
CTR
 62
     7
100
AcDbLine
 10
132.385341
 20
17.359947
 30
0.0
 11
132.385341
 21
17.699947
 31
0.0
  0
LINE
  5
5C5
100
AcDbEntity
  8
CTR
 62
     7
100
AcDbLine
 10
132.385341
 20
19.127714
 30
0.0
 11
132.385341
 21
19.467714
 31
0.0
  0
LINE
  5
5C6
100
AcDbEntity
  8
CTR
 62
     7
100
AcDbLine
 10
130.447574
 20
17.529947
 30
0.0
 11
130.787574
 21
17.529947
 31
0.0
  0
LINE
  5
5C7
100
AcDbEntity
  8
CTR
 62
     7
100
AcDbLine
 10
132.215341
 20
17.529947
 30
0.0
 11
132.555341
 21
17.529947
 31
0.0
  0
LINE
  5
5C8
100
AcDbEntity
  8
CTR
 62
     7
100
AcDbLine
 10
132.215341
 20
19.297714
 30
0.0
 11
132.555341
 21
19.297714
 31
0.0
  0
LINE
  5
5C9
100
AcDbEntity
  8
CTR
 62
     7
100
AcDbLine
 10
130.447574
 20
19.297714
 30
0.0
 11
130.787574
 21
19.297714
 31
0.0
  0
DIMENSION
  5
5E9
100
AcDbEntity
  8
DIM
 62
     7
100
AcDbDimension
  2
*D2
 10
133.800796
 20
25.854705
 30
0.0
 11
133.800796
 21
25.672205
 31
0.0
 12
53.592694
 22
0.434431
 32
0.0
100
AcDbAlignedDimension
 13
132.965325
 23
25.489705
 33
0.0
 14
132.965325
 24
25.854705
 34
0.0
 50
90.0
100
AcDbRotatedDimension
  0
DIMENSION
  5
5EA
100
AcDbEntity
  8
DIM
 62
     7
100
AcDbDimension
  2
*D19
 10
132.734534
 20
17.458256
 30
0.0
 11
129.293825
 21
19.589923
 31
0.0
 12
53.688826
 22
-2.109165
 32
0.0
 70
     3
100
AcDbDiametricDimension
 15
130.268381
 25
19.369405
 35
0.0
 40
0.197024
  0
DIMENSION
  5
5EB
100
AcDbEntity
  8
DIM
 62
     7
100
AcDbDimension
  2
*D20
 10
130.688131
 20
17.684614
 30
0.0
 11
129.392602
 21
17.047752
 31
0.0
 12
53.688826
 22
-2.109165
 32
0.0
 70
     3
  1
4X <>
100
AcDbDiametricDimension
 15
130.547017
 25
17.375281
 35
0.0
 40
0.0
  0
DIMENSION
  5
5EC
100
AcDbEntity
  8
DIM
 62
     7
100
AcDbDimension
  2
*D21
 10
132.011532
 20
19.555025
 30
0.0
 11
129.997883
 21
16.627171
 31
0.0
 12
53.688826
 22
-2.109165
 32
0.0
 70
     3
100
AcDbDiametricDimension
 15
130.991383
 25
17.272636
 35
0.0
 40
0.707007
  0
TEXT
  5
5ED
100
AcDbEntity
  8
TEXT
  6
BYBLOCK
 62
     7
100
AcDbText
 10
129.752832
 20
14.851117
 30
0.0
 40
0.18
  1
FLANGE MAY BE ROTATED.
  7
ROMANS
 72
     4
 11
131.557118
 21
14.941117
 31
0.0
100
AcDbText
  0
TEXT
  5
5FF
100
AcDbEntity
  8
TEXT
  6
BYBLOCK
 62
     7
100
AcDbText
 10
140.751193
 20
15.235931
 30
0.0
 40
0.228229
  1
%%USTYLE PB%%U
  7
ROMANS
 72
     4
 11
141.549181
 21
15.327223
 31
0.0
100
AcDbText
  0
LINE
  5
617
100
AcDbEntity
  8
OBJASSY
 62
     7
100
AcDbLine
 10
132.153786
 20
25.927205
 30
0.0
 11
132.153786
 21
26.952205
 31
0.0
  0
TEXT
  5
654
100
AcDbEntity
  8
TEXT
  6
BYBLOCK
 62
     7
100
AcDbText
 10
130.770316
 20
15.295541
 30
0.0
 40
0.228229
  1
%%USTYLE FL%%U
  7
ROMANS
 72
     4
 11
131.541133
 21
15.386833
 31
0.0
100
AcDbText
  0
TEXT
  5
655
100
AcDbEntity
  8
TEXT
 62
     7
100
AcDbText
 10
120.467293
 20
2.4054
 30
0.0
 40
0.18
  1
%%UMECHANICAL SPECIFICATIONS
  7
ROMANS
100
AcDbText
  0
TEXT
  5
656
100
AcDbEntity
  8
TEXT
 62
     7
100
AcDbText
 10
121.222704
 20
1.631214
 30
0.0
 40
0.18
  1
OVERLOAD CAPACITY: 1200 lbs. (5338 N)
  7
ROMANS
100
AcDbText
  0
TEXT
  5
657
100
AcDbEntity
  8
TEXT
 62
     7
100
AcDbText
 10
121.222704
 20
1.339785
 30
0.0
 40
0.18
  1
TYPICAL SENSOR DEFLECTION: 0.005 MAX (0.127mm)
  7
ROMANS
100
AcDbText
  0
TEXT
  5
658
100
AcDbEntity
  8
TEXT
 62
     7
100
AcDbText
 10
121.222704
 20
1.048356
 30
0.0
 40
0.18
  1
BASIC LOAD RATING: 10, 25, 50, 100, 150 lbs.
  7
ROMANS
100
AcDbText
  0
TEXT
  5
659
100
AcDbEntity
  8
TEXT
 62
     7
100
AcDbText
 10
124.060589
 20
0.756928
 30
0.0
 40
0.18
  1
(44, 111, 222, 445, 667 N)
  7
ROMANS
100
AcDbText
  0
TEXT
  5
65A
100
AcDbEntity
  8
TEXT
 62
     7
100
AcDbText
 10
107.166586
 20
2.375639
 30
0.0
 40
0.18
  1
%%UELECTRICAL SPECIFICATIONS
  7
ROMANS
100
AcDbText
  0
TEXT
  5
65B
100
AcDbEntity
  8
TEXT
 62
     7
100
AcDbText
 10
107.921997
 20
1.897863
 30
0.0
 40
0.18
  1
EXCITATION: 5VDC, REGULATED
  7
ROMANS
100
AcDbText
  0
TEXT
  5
65C
100
AcDbEntity
  8
TEXT
 62
     7
100
AcDbText
 10
107.921997
 20
1.606434
 30
0.0
 40
0.18
  1
OUTPUT: 500mV, NOMINAL, AT 5V EXCITATION
  7
ROMANS
100
AcDbText
  0
TEXT
  5
65D
100
AcDbEntity
  8
TEXT
 62
     7
100
AcDbText
 10
107.921997
 20
1.315006
 30
0.0
 40
0.18
  1
STRAIN GAGE RESISTANCE: 100 OHMS, NOMINAL
  7
ROMANS
100
AcDbText
  0
TEXT
  5
65E
100
AcDbEntity
  8
TEXT
 62
     7
100
AcDbText
 10
107.921997
 20
1.023577
 30
0.0
 40
0.18
  1
NON-REPEATABILITY: %%P1/4%%% FULL SPAN (FS)
  7
ROMANS
100
AcDbText
  0
TEXT
  5
65F
100
AcDbEntity
  8
TEXT
 62
     7
100
AcDbText
 10
107.921997
 20
0.732148
 30
0.0
 40
0.18
  1
COMBINED NON-LINEARITY & HYSTERESIS: %%P1/2%%% FS
  7
ROMANS
100
AcDbText
  0
TEXT
  5
660
100
AcDbEntity
  8
TEXT
 62
     7
100
AcDbText
 10
107.921997
 20
0.44072
 30
0.0
 40
0.18
  1
TEMPERATURE RANGE: -10%%DF TO 200%%DF (-23%%DC TO 93%%DC)
  7
ROMANS
100
AcDbText
  0
TEXT
  5
661
100
AcDbEntity
  8
TEXT
 62
     7
100
AcDbText
 10
107.921997
 20
0.149291
 30
0.0
 40
0.18
  1
TEMPERATURE COEFFICIENT: 0.02%%% FS PER F%%D, TYPICAL (0.036%%% FS/C%%D)
  7
ROMANS
100
AcDbText
  0
TEXT
  5
662
100
AcDbEntity
  8
TEXT
 62
     7
100
AcDbText
 10
107.921997
 20
-0.141777
 30
0.0
 40
0.18
  1
MATING ELECTRICAL CONNECTOR: MS3106A-10SL-6S
  7
ROMANS
100
AcDbText
  0
TEXT
  5
663
100
AcDbEntity
  8
TEXT
 62
     7
100
AcDbText
 10
107.921997
 20
-0.429578
 30
0.0
 40
0.18
  1
STANDARD ELECTRICAL CONNECTOR POSITION:
  7
ROMANS
100
AcDbText
  0
TEXT
  5
664
100
AcDbEntity
  8
TEXT
100
AcDbText
 10
69.897979
 20
5.081866
 30
0.0
 40
0.18
  1

  7
ROMANS
100
AcDbText
  0
LINE
  5
6B1
100
AcDbEntity
  8
OBJASSY
 62
     7
100
AcDbLine
 10
132.153786
 20
26.939705
 30
0.0
 11
132.528786
 21
26.939705
 31
0.0
  0
LINE
  5
6B2
100
AcDbEntity
  8
OBJASSY
 62
     7
100
AcDbLine
 10
132.153786
 20
25.939705
 30
0.0
 11
132.528786
 21
25.939705
 31
0.0
  0
LINE
  5
6B3
100
AcDbEntity
  8
OBJASSY
 62
     7
100
AcDbLine
 10
132.153786
 20
25.939705
 30
0.0
 11
132.153786
 21
26.939705
 31
0.0
  0
LINE
  5
6B4
100
AcDbEntity
  8
OBJASSY
 62
     7
100
AcDbLine
 10
132.528786
 20
26.939705
 30
0.0
 11
132.528786
 21
25.939705
 31
0.0
  0
LINE
  5
6B5
100
AcDbEntity
  8
OBJASSY
 62
     7
100
AcDbLine
 10
132.630786
 20
26.096205
 30
0.0
 11
132.630786
 21
26.783205
 31
0.0
  0
LINE
  5
6B6
100
AcDbEntity
  8
OBJASSY
 62
     7
100
AcDbLine
 10
132.528786
 20
25.939705
 30
0.0
 11
132.528786
 21
26.939705
 31
0.0
  0
ARC
  5
6B7
100
AcDbEntity
  8
OBJASSY
 62
     7
100
AcDbCircle
 10
132.53767
 20
26.08521
 30
0.0
 40
0.14381
100
AcDbArc
 50
310.716676
 51
49.283324
  0
LINE
  5
6B8
100
AcDbEntity
  8
OBJASSY
 62
     7
100
AcDbLine
 10
132.630786
 20
26.939705
 30
0.0
 11
132.630786
 21
26.783205
 31
0.0
  0
ARC
  5
6B9
100
AcDbEntity
  8
OBJASSY
 62
     7
100
AcDbCircle
 10
132.53767
 20
26.79221
 30
0.0
 40
0.14381
100
AcDbArc
 50
310.716676
 51
49.283324
  0
LINE
  5
6BA
100
AcDbEntity
  8
OBJASSY
 62
     7
100
AcDbLine
 10
132.528786
 20
26.939705
 30
0.0
 11
132.630786
 21
26.939705
 31
0.0
  0
LINE
  5
6BB
100
AcDbEntity
  8
OBJASSY
 62
     7
100
AcDbLine
 10
132.665786
 20
26.131205
 30
0.0
 11
133.140786
 21
26.131205
 31
0.0
  0
LINE
  5
6BC
100
AcDbEntity
  8
OBJASSY
 62
     7
100
AcDbLine
 10
132.674582
 20
26.748205
 30
0.0
 11
133.140786
 21
26.748205
 31
0.0
  0
LINE
  5
6C9
100
AcDbEntity
  8
OBJASSY
 62
     7
100
AcDbLine
 10
133.140786
 20
26.748205
 30
0.0
 11
133.140786
 21
26.131205
 31
0.0
  0
LINE
  5
6CA
100
AcDbEntity
  8
OBJASSY
 62
     7
100
AcDbLine
 10
133.195786
 20
26.717205
 30
0.0
 11
133.195786
 21
26.162205
 31
0.0
  0
LINE
  5
6CB
100
AcDbEntity
  8
OBJASSY
 62
     7
100
AcDbLine
 10
133.140786
 20
26.717205
 30
0.0
 11
133.195786
 21
26.717205
 31
0.0
  0
LINE
  5
6CC
100
AcDbEntity
  8
OBJASSY
 62
     7
100
AcDbLine
 10
133.140786
 20
26.162205
 30
0.0
 11
133.195786
 21
26.162205
 31
0.0
  0
LINE
  5
6CD
100
AcDbEntity
  8
OBJASSY
 62
     7
100
AcDbLine
 10
132.528786
 20
25.939705
 30
0.0
 11
132.630786
 21
25.939705
 31
0.0
  0
LINE
  5
6CE
100
AcDbEntity
  8
OBJASSY
 62
     7
100
AcDbLine
 10
132.630786
 20
25.939705
 30
0.0
 11
132.630786
 21
26.096205
 31
0.0
  0
LINE
  5
6EE
100
AcDbEntity
  8
CTR
  6
CENTER2
 62
     7
100
AcDbLine
 10
131.405325
 20
26.04694
 30
0.0
 11
131.405325
 21
25.311055
 31
0.0
  0
LWPOLYLINE
  5
70C
100
AcDbEntity
  8
OBJ
 62
     7
100
AcDbPolyline
 90
        4
 70
   129
 43
0.03
 10
132.965325
 20
25.854705
 10
129.845325
 20
25.854705
 10
129.845325
 20
25.489705
 10
132.965325
 20
25.489705
  0
LWPOLYLINE
  5
750
100
AcDbEntity
  8
OBJ
 62
     7
100
AcDbPolyline
 90
        2
 70
     1
 43
0.03
 10
132.389728
 20
19.467658
 42
485.387474
 10
132.391128
 20
19.467616
 42
0.00206
  0
LWPOLYLINE
  5
754
100
AcDbEntity
  8
OBJ
 62
     7
100
AcDbPolyline
 90
        2
 70
   129
 43
0.03
 10
131.532567
 20
19.973521
 42
3379.795702
 10
131.534412
 20
19.973483
 42
0.000296
  0
LWPOLYLINE
  5
758
100
AcDbEntity
  8
OBJ
 62
     7
100
AcDbPolyline
 90
        2
 70
     1
 43
0.03
 10
130.751344
 20
19.192807
 42
0.070093
 10
130.775121
 20
19.233847
 42
14.266729
  0
LWPOLYLINE
  5
75C
100
AcDbEntity
  8
OBJ
 62
     7
100
AcDbPolyline
 90
        2
 70
     1
 43
0.03
 10
132.547667
 20
17.580448
 42
83.79985
 10
132.549891
 20
17.572646
 42
0.011933
  0
LWPOLYLINE
  5
760
100
AcDbEntity
  8
OBJ
 62
     7
100
AcDbPolyline
 90
        2
 70
     1
 43
0.03
 10
130.711505
 20
17.671641
 42
41.587027
 10
130.724676
 20
17.661967
 42
0.024046
  0
TEXT
  5
797
100
AcDbEntity
  8
TEXT
 62
     7
100
AcDbText
 10
121.222704
 20
1.924561
 30
0.0
 40
0.18
  1
MATERIAL: ALUMINUM & STAINLESS STEEL
  7
ROMANS
100
AcDbText
  0
LWPOLYLINE
  5
7AC
100
AcDbEntity
  8
OBJ
 62
     7
100
AcDbPolyline
 90
        2
 70
     1
 43
0.03
 10
131.221013
 20
17.55864
 42
237.834114
 10
131.20667
 20
17.563477
 42
0.004205
  0
TEXT
  5
888
100
AcDbEntity
  8
TEXT
  6
BYBLOCK
 62
     7
100
AcDbText
 10
129.813927
 20
15.69411
 30
0.0
 40
0.228229
  1
%%UOPTIONAL MOUNTING%%U
  7
ROMANS
 72
     4
 11
131.541133
 21
15.785402
 31
0.0
100
AcDbText
  0
TEXT
  5
889
100
AcDbEntity
  8
TEXT
  6
BYBLOCK
 62
     7
100
AcDbText
 10
139.821974
 20
15.634501
 30
0.0
 40
0.228229
  1
%%UOPTIONAL MOUNTING%%U
  7
ROMANS
 72
     4
 11
141.549181
 21
15.725792
 31
0.0
100
AcDbText
  0
CIRCLE
  5
88F
100
AcDbEntity
  8
0
 62
     7
100
AcDbCircle
 10
148.151348
 20
9.106932
 30
0.0
 40
0.08138
  0
CIRCLE
  5
890
100
AcDbEntity
  8
HID
  6
HIDDEN
 62
     7
100
AcDbCircle
 10
148.151348
 20
9.106932
 30
0.0
 40
0.098425
  0
CIRCLE
  5
891
100
AcDbEntity
  8
0
 62
     7
100
AcDbCircle
 10
146.182848
 20
9.106932
 30
0.0
 40
0.08138
  0
CIRCLE
  5
892
100
AcDbEntity
  8
HID
  6
HIDDEN
 62
     7
100
AcDbCircle
 10
146.182848
 20
9.106932
 30
0.0
 40
0.098425
  0
CIRCLE
  5
893
100
AcDbEntity
  8
0
 62
     7
100
AcDbCircle
 10
147.167098
 20
8.122682
 30
0.0
 40
0.08138
  0
CIRCLE
  5
894
100
AcDbEntity
  8
HID
  6
HIDDEN
 62
     7
100
AcDbCircle
 10
147.167098
 20
8.122682
 30
0.0
 40
0.098425
  0
LINE
  5
895
100
AcDbEntity
  8
OBJASSY
  6
DASHDOT
 62
     7
100
AcDbLine
 10
141.418434
 20
9.606932
 30
0.0
 11
141.501434
 21
9.606932
 31
0.0
  0
CIRCLE
  5
896
100
AcDbEntity
  8
HID
  6
HIDDEN
 62
     7
100
AcDbCircle
 10
147.167098
 20
10.091182
 30
0.0
 40
0.098425
  0
CIRCLE
  5
897
100
AcDbEntity
  8
0
 62
     7
100
AcDbCircle
 10
147.167098
 20
10.091182
 30
0.0
 40
0.08138
  0
LINE
  5
898
100
AcDbEntity
  8
0
  6
CENTER
 62
     7
100
AcDbLine
 10
131.338463
 20
9.106932
 30
0.0
 11
132.88887
 21
9.106932
 31
0.0
  0
LINE
  5
899
100
AcDbEntity
  8
OBJASSY
  6
DASHDOT
 62
     7
100
AcDbLine
 10
130.411107
 20
7.911932
 30
0.0
 11
130.627807
 21
7.911932
 31
0.0
  0
LINE
  5
89A
100
AcDbEntity
  8
OBJASSY
  6
DASHDOT
 62
     7
100
AcDbLine
 10
131.129107
 20
7.911932
 30
0.0
 11
131.345807
 21
7.911932
 31
0.0
  0
LINE
  5
89B
100
AcDbEntity
  8
OBJASSY
  6
DASHDOT
 62
     7
100
AcDbLine
 10
129.921457
 20
8.919432
 30
0.0
 11
130.334457
 21
8.919432
 31
0.0
  0
LINE
  5
89C
100
AcDbEntity
  8
OBJASSY
  6
DASHDOT
 62
     7
100
AcDbLine
 10
129.921457
 20
8.953432
 30
0.0
 11
130.334457
 21
8.953432
 31
0.0
  0
LINE
  5
89D
100
AcDbEntity
  8
OBJASSY
  6
DASHDOT
 62
     7
100
AcDbLine
 10
129.921457
 20
9.294432
 30
0.0
 11
130.334457
 21
9.294432
 31
0.0
  0
LINE
  5
89E
100
AcDbEntity
  8
OBJASSY
  6
DASHDOT
 62
     7
100
AcDbLine
 10
129.921457
 20
9.260432
 30
0.0
 11
130.334457
 21
9.260432
 31
0.0
  0
LINE
  5
89F
100
AcDbEntity
  8
OBJASSY
  6
DASHDOT
 62
     7
100
AcDbLine
 10
131.418457
 20
8.606932
 30
0.0
 11
131.501457
 21
8.606932
 31
0.0
  0
LINE
  5
8A0
100
AcDbEntity
  8
OBJASSY
  6
DASHDOT
 62
     7
100
AcDbLine
 10
130.420457
 20
10.026932
 30
0.0
 11
131.232457
 21
10.026932
 31
0.0
  0
LINE
  5
8A1
100
AcDbEntity
  8
OBJASSY
  6
DASHDOT
 62
     7
100
AcDbLine
 10
130.420457
 20
10.006932
 30
0.0
 11
130.420457
 21
10.026932
 31
0.0
  0
LINE
  5
8A2
100
AcDbEntity
  8
OBJASSY
  6
DASHDOT
 62
     7
100
AcDbLine
 10
131.232457
 20
10.006932
 30
0.0
 11
131.232457
 21
10.026932
 31
0.0
  0
LWPOLYLINE
  5
8A3
100
AcDbEntity
  8
OBJASSY
  6
DASHDOT
 62
     7
100
AcDbPolyline
 90
        4
 70
     0
 43
0.0
 10
121.151934
 20
7.837675
 10
121.151934
 20
7.371472
 10
120.534934
 20
7.371472
 10
120.534934
 20
7.838331
  0
LWPOLYLINE
  5
8A9
100
AcDbEntity
  8
OBJASSY
  6
DASHDOT
 62
     7
100
AcDbPolyline
 90
        4
 70
     0
 43
0.0
 10
120.565934
 20
7.371472
 10
120.565934
 20
7.316472
 10
121.120934
 20
7.316472
 10
121.120934
 20
7.371472
  0
LWPOLYLINE
  5
8AF
100
AcDbEntity
  8
OBJASSY
  6
DASHDOT
 62
     7
100
AcDbPolyline
 90
        6
 70
     1
 43
0.0
 10
119.928434
 20
8.206932
 10
120.098434
 20
8.206932
 10
120.098434
 20
10.006932
 10
119.928434
 20
10.006932
 10
119.893434
 20
10.006932
 10
119.893434
 20
8.206932
  0
LWPOLYLINE
  5
8B7
100
AcDbEntity
  8
OBJASSY
  6
DASHDOT
 62
     7
100
AcDbPolyline
 90
        8
 70
     1
 43
0.0
 10
121.418434
 20
10.006932
 10
120.303434
 20
10.006932
 10
120.303434
 20
8.206932
 10
120.330934
 20
8.206932
 10
120.330934
 20
8.358472
 10
121.355934
 20
8.358472
 10
121.355934
 20
8.206932
 10
121.418434
 20
8.206932
  0
LWPOLYLINE
  5
8C1
100
AcDbEntity
  8
OBJASSY
  6
DASHDOT
 62
     7
100
AcDbPolyline
 90
        4
 70
     0
 43
0.0
 10
120.343434
 20
8.358472
 10
120.343434
 20
7.983472
 10
121.343434
 20
7.983472
 10
121.343434
 20
8.358472
  0
LWPOLYLINE
  5
8C7
100
AcDbEntity
  8
OBJASSY
  6
DASHDOT
 62
     7
100
AcDbPolyline
 90
        6
 70
     0
 43
0.0
 10
121.343434
 20
7.983472
 10
121.343434
 20
7.881472
 10
121.186934
 20
7.881472
 10
120.499934
 20
7.881472
 10
120.343434
 20
7.881472
 10
120.343434
 20
7.983472
  0
LINE
  5
8CF
100
AcDbEntity
  8
OBJASSY
  6
DASHDOT
 62
     7
100
AcDbLine
 10
120.343434
 20
7.983472
 30
0.0
 11
121.343434
 21
7.983472
 31
0.0
  0
LINE
  5
8D0
100
AcDbEntity
  8
OBJASSY
  6
DASHDOT
 62
     7
100
AcDbLine
 10
120.343434
 20
8.358472
 30
0.0
 11
121.343434
 21
8.358472
 31
0.0
  0
LWPOLYLINE
  5
8D1
100
AcDbEntity
  8
OBJASSY
  6
DASHDOT
 62
     7
100
AcDbPolyline
 90
        2
 70
     0
 43
0.0
 10
120.379939
 20
7.880777
 42
0.458716
 10
120.597939
 20
7.880777
 42
0.458716
  0
LWPOLYLINE
  5
8D5
100
AcDbEntity
  8
OBJASSY
  6
DASHDOT
 62
     7
100
AcDbPolyline
 90
        2
 70
     0
 43
0.0
 10
120.098434
 20
8.235432
 10
120.303434
 20
8.235432
  0
LWPOLYLINE
  5
8D9
100
AcDbEntity
  8
OBJASSY
  6
DASHDOT
 62
     7
100
AcDbPolyline
 90
        2
 70
     0
 43
0.0
 10
121.086939
 20
7.880777
 42
0.458716
 10
121.304939
 20
7.880777
 42
0.458716
  0
LWPOLYLINE
  5
8DD
100
AcDbEntity
  8
OBJASSY
  6
DASHDOT
 62
     7
100
AcDbPolyline
 90
        2
 70
     0
 43
0.0
 10
120.098434
 20
9.978432
 10
120.303434
 20
9.978432
  0
TEXT
  5
8E1
100
AcDbEntity
  8
TEXT
  6
BYBLOCK
 62
     7
100
AcDbText
 10
140.073782
 20
4.815102
 30
0.0
 40
0.228229
  1
%%UADAPTER WHEEL
  7
ROMANS
 72
     4
 11
141.442343
 21
4.906394
 31
0.0
100
AcDbText
  0
TEXT
  5
8E2
100
AcDbEntity
  8
TEXT
  6
BYBLOCK
 62
     7
100
AcDbText
 10
130.621785
 20
4.815102
 30
0.0
 40
0.228229
  1
%%UFILAMENT WHEEL
  7
ROMANS
 72
     4
 11
132.033818
 21
4.906394
 31
0.0
100
AcDbText
  0
TEXT
  5
8E3
100
AcDbEntity
  8
TEXT
  6
BYBLOCK
 62
     7
100
AcDbText
 10
120.031648
 20
4.793366
 30
0.0
 40
0.228229
  1
%%uRIBBON WHEEL 1" SHOWN 
  7
ROMANS
 72
     4
 11
122.42724
 21
4.906394
 31
0.0
100
AcDbText
  0
LWPOLYLINE
  5
8E4
100
AcDbEntity
  8
OBJ
  6
CONTINUOUS
 62
     7
100
AcDbPolyline
 90
        4
 70
     1
 43
0.025
 10
121.501434
 20
10.075682
 10
121.501434
 20
8.138182
 10
121.581434
 20
8.138182
 10
121.581434
 20
10.075682
  0
LWPOLYLINE
  5
8EA
100
AcDbEntity
  8
OBJ
  6
CONTINUOUS
 62
     7
100
AcDbPolyline
 90
        2
 70
     0
 43
0.025
 10
121.581434
 20
8.200682
 10
122.706434
 20
8.200682
  0
LWPOLYLINE
  5
8EE
100
AcDbEntity
  8
OBJ
  6
CONTINUOUS
 62
     7
100
AcDbPolyline
 90
        5
 70
     1
 43
0.025
 10
122.786434
 20
9.894332
 10
122.786434
 20
8.138182
 10
122.706434
 20
8.138182
 10
122.706434
 20
10.075682
 10
122.786434
 20
10.075682
  0
LWPOLYLINE
  5
8F5
100
AcDbEntity
  8
OBJ
  6
CONTINUOUS
 62
     7
100
AcDbPolyline
 90
        2
 70
     0
 43
0.025
 10
121.581434
 20
10.013182
 10
122.706434
 20
10.013182
  0
LWPOLYLINE
  5
8F9
100
AcDbEntity
  8
OBJASSY
  6
DASHDOT
 62
     7
100
AcDbPolyline
 90
        2
 70
     0
 43
0.0
 10
121.418434
 20
9.606932
 10
121.501434
 20
9.606932
  0
LWPOLYLINE
  5
8FD
100
AcDbEntity
  8
OBJASSY
  6
DASHDOT
 62
     7
100
AcDbPolyline
 90
        2
 70
     0
 43
0.0
 10
121.418434
 20
8.606932
 10
121.501434
 20
8.606932
  0
LWPOLYLINE
  5
90B
100
AcDbEntity
  8
OBJ
  6
CONTINUOUS
 62
     7
100
AcDbPolyline
 90
       14
 70
     0
 43
0.025
 10
131.921457
 20
10.056832
 42
-1.0
 10
131.721457
 20
10.056832
 10
131.721457
 20
8.157032
 42
-1.0
 10
131.921457
 20
8.157032
 10
131.921457
 20
8.152557
 10
131.951457
 20
8.122557
 10
132.756457
 20
8.122557
 10
132.786457
 20
8.152557
 10
132.786457
 20
10.061307
 10
132.756457
 20
10.091307
 10
131.951457
 20
10.091307
 10
131.921457
 20
10.061307
 10
131.921457
 20
10.056832
 10
131.921457
 20
8.157032
  0
LWPOLYLINE
  5
91B
100
AcDbEntity
  8
OBJ
  6
CONTINUOUS
 62
     7
100
AcDbPolyline
 90
       10
 70
     0
 43
0.025
 10
131.721457
 20
8.157032
 10
131.721457
 20
8.152557
 10
131.691457
 20
8.122557
 10
131.531457
 20
8.122557
 10
131.501457
 20
8.152557
 10
131.501457
 20
10.061307
 10
131.531457
 20
10.091307
 10
131.691457
 20
10.091307
 10
131.721457
 20
10.061307
 10
131.721457
 20
10.056832
  0
LWPOLYLINE
  5
927
100
AcDbEntity
  8
OBJASSY
  6
DASHDOT
 62
     7
100
AcDbPolyline
 90
       11
 70
     0
 43
0.0
 10
130.378457
 20
8.206932
 10
130.334457
 20
8.206932
 10
130.334457
 20
10.006932
 10
131.418457
 20
10.006932
 10
131.418457
 20
8.359932
 10
130.378457
 20
8.359932
 10
130.378457
 20
7.989932
 10
130.378457
 20
7.911932
 10
131.378457
 20
7.911932
 10
131.378457
 20
7.989932
 10
130.378457
 20
7.989932
  0
LWPOLYLINE
  5
93A
100
AcDbEntity
  8
OBJASSY
  6
DASHDOT
 62
     7
100
AcDbPolyline
 90
        2
 70
     0
 43
0.0
 10
130.179457
 20
9.941932
 10
130.334457
 20
9.941932
  0
LWPOLYLINE
  5
93E
100
AcDbEntity
  8
OBJASSY
  6
DASHDOT
 62
     7
100
AcDbPolyline
 90
        2
 70
     0
 43
0.0
 10
131.378457
 20
7.989932
 10
131.378457
 20
8.359932
  0
LWPOLYLINE
  5
942
100
AcDbEntity
  8
OBJASSY
  6
DASHDOT
 62
     7
100
AcDbPolyline
 90
        8
 70
     0
 43
0.0
 10
130.776107
 20
10.041932
 10
130.992807
 20
10.041932
 42
0.414214
 10
130.944807
 20
10.089932
 10
130.824107
 20
10.089932
 42
0.414214
 10
130.776107
 20
10.041932
 10
130.776107
 20
10.026932
 10
130.992807
 20
10.026932
 10
130.992807
 20
10.041932
  0
LWPOLYLINE
  5
94C
100
AcDbEntity
  8
OBJASSY
  6
DASHDOT
 62
     7
100
AcDbPolyline
 90
        2
 70
     0
 43
0.0
 10
130.179457
 20
8.271932
 10
130.334457
 20
8.271932
  0
LWPOLYLINE
  5
950
100
AcDbEntity
  8
OBJASSY
  6
DASHDOT
 62
     7
100
AcDbPolyline
 90
        2
 70
     0
 43
0.0
 10
131.418457
 20
8.606932
 10
131.501457
 20
8.606932
  0
LWPOLYLINE
  5
954
100
AcDbEntity
  8
OBJASSY
  6
DASHDOT
 62
     7
100
AcDbPolyline
 90
        3
 70
     0
 43
0.0
 10
131.418457
 20
9.606932
 10
131.501457
 20
9.606932
 10
131.418457
 20
9.606932
  0
LWPOLYLINE
  5
959
100
AcDbEntity
  8
OBJASSY
  6
DASHDOT
 62
     7
100
AcDbPolyline
 90
       11
 70
     0
 43
0.0
 10
140.378434
 20
8.206932
 10
140.334434
 20
8.206932
 10
140.334434
 20
10.006932
 10
141.418434
 20
10.006932
 10
141.418434
 20
8.359932
 10
140.378434
 20
8.359932
 10
140.378434
 20
7.989932
 10
140.378434
 20
7.911932
 10
141.378434
 20
7.911932
 10
141.378434
 20
7.989932
 10
140.378434
 20
7.989932
  0
LINE
  5
966
100
AcDbEntity
  8
OBJASSY
  6
DASHDOT
 62
     7
100
AcDbLine
 10
140.411084
 20
7.911932
 30
0.0
 11
140.627784
 21
7.911932
 31
0.0
  0
LINE
  5
967
100
AcDbEntity
  8
OBJASSY
  6
DASHDOT
 62
     7
100
AcDbLine
 10
140.420434
 20
10.026932
 30
0.0
 11
141.232434
 21
10.026932
 31
0.0
  0
LWPOLYLINE
  5
96E
100
AcDbEntity
  8
OBJASSY
  6
DASHDOT
 62
     7
100
AcDbPolyline
 90
        2
 70
     0
 43
0.0
 10
140.179434
 20
8.271932
 10
140.334434
 20
8.271932
  0
LINE
  5
972
100
AcDbEntity
  8
OBJASSY
  6
DASHDOT
 62
     7
100
AcDbLine
 10
139.921434
 20
8.919432
 30
0.0
 11
140.334434
 21
8.919432
 31
0.0
  0
LINE
  5
973
100
AcDbEntity
  8
OBJASSY
  6
DASHDOT
 62
     7
100
AcDbLine
 10
139.921434
 20
8.953432
 30
0.0
 11
140.334434
 21
8.953432
 31
0.0
  0
LINE
  5
974
100
AcDbEntity
  8
OBJASSY
  6
DASHDOT
 62
     7
100
AcDbLine
 10
139.921434
 20
9.294432
 30
0.0
 11
140.334434
 21
9.294432
 31
0.0
  0
LINE
  5
975
100
AcDbEntity
  8
OBJASSY
  6
DASHDOT
 62
     7
100
AcDbLine
 10
139.921434
 20
9.260432
 30
0.0
 11
140.334434
 21
9.260432
 31
0.0
  0
LWPOLYLINE
  5
976
100
AcDbEntity
  8
OBJASSY
  6
DASHDOT
 62
     7
100
AcDbPolyline
 90
        2
 70
     0
 43
0.0
 10
140.179434
 20
9.941932
 10
140.334434
 20
9.941932
  0
LINE
  5
97A
100
AcDbEntity
  8
OBJASSY
  6
DASHDOT
 62
     7
100
AcDbLine
 10
140.420434
 20
10.006932
 30
0.0
 11
140.420434
 21
10.026932
 31
0.0
  0
LWPOLYLINE
  5
97B
100
AcDbEntity
  8
OBJASSY
  6
DASHDOT
 62
     7
100
AcDbPolyline
 90
        2
 70
     0
 43
0.0
 10
141.378434
 20
7.989932
 10
141.378434
 20
8.359932
  0
LINE
  5
97F
100
AcDbEntity
  8
OBJASSY
  6
DASHDOT
 62
     7
100
AcDbLine
 10
141.129084
 20
7.911932
 30
0.0
 11
141.345784
 21
7.911932
 31
0.0
  0
LWPOLYLINE
  5
980
100
AcDbEntity
  8
OBJASSY
  6
DASHDOT
 62
     7
100
AcDbPolyline
 90
        8
 70
     0
 43
0.0
 10
140.776084
 20
10.041932
 10
140.992784
 20
10.041932
 42
0.414214
 10
140.944784
 20
10.089932
 10
140.824084
 20
10.089932
 42
0.414214
 10
140.776084
 20
10.041932
 10
140.776084
 20
10.026932
 10
140.992784
 20
10.026932
 10
140.992784
 20
10.041932
  0
LINE
  5
98A
100
AcDbEntity
  8
OBJASSY
  6
DASHDOT
 62
     7
100
AcDbLine
 10
141.232434
 20
10.006932
 30
0.0
 11
141.232434
 21
10.026932
 31
0.0
  0
LWPOLYLINE
  5
98B
100
AcDbEntity
  8
OBJ
  6
CONTINUOUS
 62
     7
100
AcDbPolyline
 90
        4
 70
     0
 43
0.025
 10
142.704922
 20
8.257032
 10
142.786434
 20
8.257032
 10
142.786434
 20
9.956832
 10
142.704922
 20
9.956832
  0
LWPOLYLINE
  5
991
100
AcDbEntity
  8
OBJ
  6
CONTINUOUS
 62
     7
100
AcDbPolyline
 90
        8
 70
     1
 43
0.025
 10
141.501434
 20
7.955832
 10
141.531434
 20
7.925832
 10
142.674922
 20
7.925832
 10
142.704922
 20
7.955832
 10
142.704922
 20
10.258032
 10
142.674922
 20
10.288032
 10
141.531434
 20
10.288032
 10
141.501434
 20
10.258032
  0
LWPOLYLINE
  5
99B
100
AcDbEntity
  8
OBJASSY
  6
DASHDOT
 62
     7
100
AcDbPolyline
 90
        2
 70
     0
 43
0.0
 10
141.418434
 20
9.606932
 10
141.501434
 20
9.606932
  0
LWPOLYLINE
  5
99F
100
AcDbEntity
  8
OBJ
  6
CONTINUOUS
 62
     7
100
AcDbPolyline
 90
        2
 70
     1
 43
0.025
 10
125.651292
 20
9.106932
 42
1.0
 10
127.226292
 20
9.106932
 42
1.0
  0
LWPOLYLINE
  5
9A3
100
AcDbEntity
  8
OBJ
  6
CONTINUOUS
 62
     7
100
AcDbPolyline
 90
        2
 70
     1
 43
0.025
 10
125.470292
 20
9.106932
 42
1.0
 10
127.407292
 20
9.106932
 42
1.0
  0
LWPOLYLINE
  5
9A7
100
AcDbEntity
  8
OBJ
  6
CONTINUOUS
 62
     7
100
AcDbPolyline
 90
        2
 70
     1
 43
0.025
 10
135.911073
 20
9.106932
 42
1.0
 10
137.486073
 20
9.106932
 42
1.0
  0
LWPOLYLINE
  5
9AB
100
AcDbEntity
  8
OBJ
  6
CONTINUOUS
 62
     7
100
AcDbPolyline
 90
        2
 70
     1
 43
0.025
 10
135.714073
 20
9.106932
 42
1.0
 10
137.683073
 20
9.106932
 42
1.0
  0
LWPOLYLINE
  5
9AF
100
AcDbEntity
  8
OBJ
  6
CONTINUOUS
 62
     7
100
AcDbPolyline
 90
        2
 70
     1
 43
0.025
 10
146.379598
 20
9.106932
 42
1.0
 10
147.954598
 20
9.106932
 42
1.0
  0
LWPOLYLINE
  5
9B3
100
AcDbEntity
  8
OBJ
  6
CONTINUOUS
 62
     7
100
AcDbPolyline
 90
        2
 70
     1
 43
0.025
 10
146.317098
 20
9.106932
 42
1.0
 10
148.017098
 20
9.106932
 42
1.0
  0
LWPOLYLINE
  5
9B7
100
AcDbEntity
  8
OBJ
  6
CONTINUOUS
 62
     7
100
AcDbPolyline
 90
        2
 70
     1
 43
0.025
 10
145.986098
 20
9.106932
 42
1.0
 10
148.348098
 20
9.106932
 42
1.0
  0
DIMENSION
  5
9BB
100
AcDbEntity
  8
DIM
 62
     7
100
AcDbDimension
  2
*D3
 10
123.626085
 20
26.439705
 30
0.0
 11
123.626085
 21
25.964705
 31
0.0
 12
51.185118
 22
0.434431
 32
0.0
100
AcDbAlignedDimension
 13
122.305302
 23
25.489705
 33
0.0
 14
123.195762
 24
26.439705
 34
0.0
 50
90.0
100
AcDbRotatedDimension
  0
LWPOLYLINE
  5
9BC
100
AcDbEntity
  8
OBJ
 62
     7
100
AcDbPolyline
 90
        2
 70
     1
 43
0.025
 10
121.500995
 20
19.313831
 42
412.553351
 10
121.509721
 20
19.313793
 42
0.002424
  0
LWPOLYLINE
  5
9C0
100
AcDbEntity
  8
OBJ
 62
     7
100
AcDbPolyline
 90
        2
 70
     1
 43
0.025
 10
121.912601
 20
18.009587
 42
58.723532
 10
121.92004
 20
18.01608
 42
0.017029
  0
LWPOLYLINE
  5
9C4
100
AcDbEntity
  8
OBJ
 62
     7
100
AcDbPolyline
 90
        2
 70
     1
 43
0.025
 10
122.049833
 20
19.06388
 42
122.737228
 10
122.05437
 20
19.06256
 42
0.008147
  0
LINE
  5
9C8
100
AcDbEntity
  8
OBJ
 62
     7
100
AcDbLine
 10
121.966357
 20
17.948908
 30
0.0
 11
121.949792
 21
17.887089
 31
0.0
  0
LINE
  5
9C9
100
AcDbEntity
  8
OBJ
 62
     7
100
AcDbLine
 10
122.073431
 20
17.920218
 30
0.0
 11
122.028176
 21
17.965472
 31
0.0
  0
ARC
  5
9CA
100
AcDbEntity
  8
OBJ
 62
     7
100
AcDbCircle
 10
122.011612
 20
17.903653
 30
0.0
 40
0.1375
100
AcDbArc
 50
130.157531
 51
125.322122
  0
LINE
  5
9CB
100
AcDbEntity
  8
OBJ
 62
     7
100
AcDbLine
 10
121.995047
 20
17.841834
 30
0.0
 11
122.056866
 21
17.858398
 31
0.0
  0
LINE
  5
9CC
100
AcDbEntity
  8
OBJ
 62
     7
100
AcDbLine
 10
122.056866
 20
17.858398
 30
0.0
 11
122.073431
 21
17.920218
 31
0.0
  0
LINE
  5
9CD
100
AcDbEntity
  8
OBJ
 62
     7
100
AcDbLine
 10
121.949792
 20
17.887089
 30
0.0
 11
121.995047
 21
17.841834
 31
0.0
  0
LINE
  5
9CE
100
AcDbEntity
  8
OBJ
 62
     7
100
AcDbLine
 10
122.073431
 20
18.907444
 30
0.0
 11
122.056866
 21
18.969263
 31
0.0
  0
LINE
  5
9CF
100
AcDbEntity
  8
OBJ
 62
     7
100
AcDbLine
 10
121.949792
 20
18.940573
 30
0.0
 11
121.966357
 21
18.878753
 31
0.0
  0
ARC
  5
9D0
100
AcDbEntity
  8
OBJ
 62
     7
100
AcDbCircle
 10
122.011612
 20
18.924008
 30
0.0
 40
0.1375
100
AcDbArc
 50
76.537267
 51
73.682995
  0
ARC
  5
9D1
100
AcDbEntity
  8
OBJ
 62
     7
100
AcDbCircle
 10
122.011612
 20
17.903653
 30
0.0
 40
0.1375
100
AcDbArc
 50
125.322122
 51
130.157531
  0
LINE
  5
9D2
100
AcDbEntity
  8
OBJ
 62
     7
100
AcDbLine
 10
122.028176
 20
17.965472
 30
0.0
 11
121.966357
 21
17.948908
 31
0.0
  0
ARC
  5
9D3
100
AcDbEntity
  8
OBJ
 62
     7
100
AcDbCircle
 10
122.222934
 20
18.413831
 30
0.0
 40
0.1375
100
AcDbArc
 50
107.313695
 51
104.078916
  0
LWPOLYLINE
  5
9D4
100
AcDbEntity
  8
OBJ
 62
     7
100
AcDbPolyline
 90
        2
 70
     1
 43
0.025
 10
122.179963
 20
18.552317
 42
90.890548
 10
122.186097
 20
18.554073
 42
0.011002
  0
LINE
  5
9D8
100
AcDbEntity
  8
OBJ
 62
     7
100
AcDbLine
 10
122.190934
 20
18.469256
 30
0.0
 11
122.158934
 21
18.413831
 31
0.0
  0
LINE
  5
9D9
100
AcDbEntity
  8
OBJ
 62
     7
100
AcDbLine
 10
122.286934
 20
18.413831
 30
0.0
 11
122.254934
 21
18.469256
 31
0.0
  0
LINE
  5
9DA
100
AcDbEntity
  8
OBJ
 62
     7
100
AcDbLine
 10
122.190934
 20
18.358405
 30
0.0
 11
122.254934
 21
18.358405
 31
0.0
  0
LINE
  5
9DB
100
AcDbEntity
  8
OBJ
 62
     7
100
AcDbLine
 10
122.254934
 20
18.358405
 30
0.0
 11
122.286934
 21
18.413831
 31
0.0
  0
LINE
  5
9DC
100
AcDbEntity
  8
OBJ
 62
     7
100
AcDbLine
 10
122.158934
 20
18.413831
 30
0.0
 11
122.190934
 21
18.358405
 31
0.0
  0
LINE
  5
9DD
100
AcDbEntity
  8
OBJ
 62
     7
100
AcDbLine
 10
122.254934
 20
18.469256
 30
0.0
 11
122.190934
 21
18.469256
 31
0.0
  0
ARC
  5
9DE
100
AcDbEntity
  8
OBJ
 62
     7
100
AcDbCircle
 10
122.222934
 20
18.413831
 30
0.0
 40
0.1375
100
AcDbArc
 50
104.078916
 51
107.313695
  0
LINE
  5
9DF
100
AcDbEntity
  8
OBJ
 62
     7
100
AcDbLine
 10
121.966357
 20
18.878753
 30
0.0
 11
122.028176
 21
18.862189
 31
0.0
  0
LINE
  5
9E0
100
AcDbEntity
  8
OBJ
 62
     7
100
AcDbLine
 10
122.028176
 20
18.862189
 30
0.0
 11
122.073431
 21
18.907444
 31
0.0
  0
ARC
  5
9E1
100
AcDbEntity
  8
OBJ
 62
     7
100
AcDbCircle
 10
122.011612
 20
18.924008
 30
0.0
 40
0.1375
100
AcDbArc
 50
73.682995
 51
76.537267
  0
LINE
  5
9E2
100
AcDbEntity
  8
OBJ
 62
     7
100
AcDbLine
 10
121.995047
 20
18.985828
 30
0.0
 11
121.949792
 21
18.940573
 31
0.0
  0
LINE
  5
9E3
100
AcDbEntity
  8
OBJ
 62
     7
100
AcDbLine
 10
122.056866
 20
18.969263
 30
0.0
 11
121.995047
 21
18.985828
 31
0.0
  0
LINE
  5
9E4
100
AcDbEntity
  8
OBJ
 62
     7
100
AcDbLine
 10
121.053076
 20
17.887089
 30
0.0
 11
121.036511
 21
17.948908
 31
0.0
  0
LINE
  5
9E5
100
AcDbEntity
  8
OBJ
 62
     7
100
AcDbLine
 10
120.974692
 20
17.965472
 30
0.0
 11
120.929437
 21
17.920218
 31
0.0
  0
LWPOLYLINE
  5
9E6
100
AcDbEntity
  8
OBJ
 62
     7
100
AcDbPolyline
 90
        2
 70
     1
 43
0.025
 10
121.021228
 20
18.045522
 42
111.716957
 10
121.026287
 20
18.044358
 42
0.008951
  0
ARC
  5
9EA
100
AcDbEntity
  8
OBJ
 62
     7
100
AcDbCircle
 10
120.991257
 20
17.903653
 30
0.0
 40
0.1375
100
AcDbArc
 50
80.874929
 51
77.767971
  0
LWPOLYLINE
  5
9EB
100
AcDbEntity
  8
OBJ
 62
     7
100
AcDbPolyline
 90
        2
 70
     1
 43
0.025
 10
121.490208
 20
17.836896
 42
48.469535
 10
121.502161
 20
17.837329
 42
0.020632
  0
ARC
  5
9EF
100
AcDbEntity
  8
OBJ
 62
     7
100
AcDbCircle
 10
121.501434
 20
17.692331
 30
0.0
 40
0.1375
100
AcDbArc
 50
97.655319
 51
91.874715
  0
LINE
  5
9F0
100
AcDbEntity
  8
OBJ
 62
     7
100
AcDbLine
 10
121.55686
 20
17.724331
 30
0.0
 11
121.501434
 21
17.756331
 31
0.0
  0
LINE
  5
9F1
100
AcDbEntity
  8
OBJ
 62
     7
100
AcDbLine
 10
121.55686
 20
17.660331
 30
0.0
 11
121.55686
 21
17.724331
 31
0.0
  0
LINE
  5
9F2
100
AcDbEntity
  8
OBJ
 62
     7
100
AcDbLine
 10
121.501434
 20
17.628331
 30
0.0
 11
121.55686
 21
17.660331
 31
0.0
  0
LINE
  5
9F3
100
AcDbEntity
  8
OBJ
 62
     7
100
AcDbLine
 10
121.446008
 20
17.724331
 30
0.0
 11
121.446008
 21
17.660331
 31
0.0
  0
LINE
  5
9F4
100
AcDbEntity
  8
OBJ
 62
     7
100
AcDbLine
 10
121.446008
 20
17.660331
 30
0.0
 11
121.501434
 21
17.628331
 31
0.0
  0
LINE
  5
9F5
100
AcDbEntity
  8
OBJ
 62
     7
100
AcDbLine
 10
121.501434
 20
17.756331
 30
0.0
 11
121.446008
 21
17.724331
 31
0.0
  0
ARC
  5
9F6
100
AcDbEntity
  8
OBJ
 62
     7
100
AcDbCircle
 10
121.501434
 20
17.692331
 30
0.0
 40
0.1375
100
AcDbArc
 50
91.874715
 51
97.655319
  0
LINE
  5
9F7
100
AcDbEntity
  8
OBJ
 62
     7
100
AcDbLine
 10
120.946002
 20
17.858398
 30
0.0
 11
121.007821
 21
17.841834
 31
0.0
  0
LINE
  5
9F8
100
AcDbEntity
  8
OBJ
 62
     7
100
AcDbLine
 10
120.929437
 20
17.920218
 30
0.0
 11
120.946002
 21
17.858398
 31
0.0
  0
LINE
  5
9F9
100
AcDbEntity
  8
OBJ
 62
     7
100
AcDbLine
 10
121.007821
 20
17.841834
 30
0.0
 11
121.053076
 21
17.887089
 31
0.0
  0
LWPOLYLINE
  5
9FA
100
AcDbEntity
  8
OBJ
 62
     7
100
AcDbPolyline
 90
        2
 70
     1
 43
0.025
 10
120.972916
 20
19.067844
 42
80.697159
 10
120.980065
 20
19.068576
 42
0.012392
  0
ARC
  5
9FE
100
AcDbEntity
  8
OBJ
 62
     7
100
AcDbCircle
 10
120.991257
 20
18.924008
 30
0.0
 40
0.1375
100
AcDbArc
 50
98.979847
 51
95.012616
  0
LWPOLYLINE
  5
9FF
100
AcDbEntity
  8
OBJ
 62
     7
100
AcDbPolyline
 90
        2
 70
     1
 43
0.025
 10
121.652227
 20
18.525265
 42
28.426595
 10
121.66636
 20
18.503025
 42
0.035178
  0
LWPOLYLINE
  5
A03
100
AcDbEntity
  8
HID
 62
     7
100
AcDbPolyline
 90
        2
 70
     1
 43
0.0
 10
121.495907
 20
18.567231
 42
94.996152
 10
121.502369
 20
18.567328
 42
0.010527
  0
ARC
  5
A07
100
AcDbEntity
  8
OBJ
 62
     7
100
AcDbCircle
 10
121.501434
 20
19.135331
 30
0.0
 40
0.1375
100
AcDbArc
 50
95.290583
 51
92.74282
  0
LWPOLYLINE
  5
A08
100
AcDbEntity
  8
OBJ
 62
     7
100
AcDbPolyline
 90
        2
 70
     1
 43
0.025
 10
121.489651
 20
19.279851
 42
133.088286
 10
121.493999
 20
19.28014
 42
0.007514
  0
LINE
  5
A0C
100
AcDbEntity
  8
OBJ
 62
     7
100
AcDbLine
 10
121.55686
 20
19.103331
 30
0.0
 11
121.55686
 21
19.167331
 31
0.0
  0
LINE
  5
A0D
100
AcDbEntity
  8
OBJ
 62
     7
100
AcDbLine
 10
121.446008
 20
19.167331
 30
0.0
 11
121.446008
 21
19.103331
 31
0.0
  0
LINE
  5
A0E
100
AcDbEntity
  8
OBJ
 62
     7
100
AcDbLine
 10
121.501434
 20
19.071331
 30
0.0
 11
121.55686
 21
19.103331
 31
0.0
  0
LINE
  5
A0F
100
AcDbEntity
  8
OBJ
 62
     7
100
AcDbLine
 10
121.446008
 20
19.103331
 30
0.0
 11
121.501434
 21
19.071331
 31
0.0
  0
LINE
  5
A10
100
AcDbEntity
  8
OBJ
 62
     7
100
AcDbLine
 10
121.55686
 20
19.167331
 30
0.0
 11
121.501434
 21
19.199331
 31
0.0
  0
LINE
  5
A11
100
AcDbEntity
  8
OBJ
 62
     7
100
AcDbLine
 10
121.501434
 20
19.199331
 30
0.0
 11
121.446008
 21
19.167331
 31
0.0
  0
ARC
  5
A12
100
AcDbEntity
  8
OBJ
 62
     7
100
AcDbCircle
 10
121.501434
 20
19.135331
 30
0.0
 40
0.1375
100
AcDbArc
 50
92.74282
 51
95.290583
  0
LINE
  5
A13
100
AcDbEntity
  8
OBJ
 62
     7
100
AcDbLine
 10
120.946002
 20
18.969263
 30
0.0
 11
120.929437
 21
18.907444
 31
0.0
  0
LINE
  5
A14
100
AcDbEntity
  8
OBJ
 62
     7
100
AcDbLine
 10
121.036511
 20
18.878753
 30
0.0
 11
121.053076
 21
18.940573
 31
0.0
  0
ARC
  5
A15
100
AcDbEntity
  8
OBJ
 62
     7
100
AcDbCircle
 10
120.991257
 20
17.903653
 30
0.0
 40
0.1375
100
AcDbArc
 50
77.767971
 51
80.874929
  0
LINE
  5
A16
100
AcDbEntity
  8
OBJ
 62
     7
100
AcDbLine
 10
121.036511
 20
17.948908
 30
0.0
 11
120.974692
 21
17.965472
 31
0.0
  0
LWPOLYLINE
  5
A17
100
AcDbEntity
  8
OBJ
 62
     7
100
AcDbPolyline
 90
        2
 70
     1
 43
0.025
 10
120.831887
 20
18.549204
 42
102.81071
 10
120.837113
 20
18.547081
 42
0.009727
  0
LINE
  5
A1B
100
AcDbEntity
  8
OBJ
 62
     7
100
AcDbLine
 10
120.843934
 20
18.413831
 30
0.0
 11
120.811934
 21
18.469256
 31
0.0
  0
ARC
  5
A1C
100
AcDbEntity
  8
OBJ
 62
     7
100
AcDbCircle
 10
120.779934
 20
18.413831
 30
0.0
 40
0.1375
100
AcDbArc
 50
70.411162
 51
66.91977
  0
LINE
  5
A1D
100
AcDbEntity
  8
OBJ
 62
     7
100
AcDbLine
 10
120.811934
 20
18.358405
 30
0.0
 11
120.843934
 21
18.413831
 31
0.0
  0
LINE
  5
A1E
100
AcDbEntity
  8
OBJ
 62
     7
100
AcDbLine
 10
120.974692
 20
18.862189
 30
0.0
 11
121.036511
 21
18.878753
 31
0.0
  0
LINE
  5
A1F
100
AcDbEntity
  8
OBJ
 62
     7
100
AcDbLine
 10
120.929437
 20
18.907444
 30
0.0
 11
120.974692
 21
18.862189
 31
0.0
  0
LINE
  5
A20
100
AcDbEntity
  8
OBJ
 62
     7
100
AcDbLine
 10
120.747934
 20
18.469256
 30
0.0
 11
120.715934
 21
18.413831
 31
0.0
  0
LINE
  5
A21
100
AcDbEntity
  8
OBJ
 62
     7
100
AcDbLine
 10
120.747934
 20
18.358405
 30
0.0
 11
120.811934
 21
18.358405
 31
0.0
  0
LINE
  5
A22
100
AcDbEntity
  8
OBJ
 62
     7
100
AcDbLine
 10
120.715934
 20
18.413831
 30
0.0
 11
120.747934
 21
18.358405
 31
0.0
  0
ARC
  5
A23
100
AcDbEntity
  8
OBJ
 62
     7
100
AcDbCircle
 10
120.779934
 20
18.413831
 30
0.0
 40
0.1375
100
AcDbArc
 50
66.91977
 51
70.411162
  0
LINE
  5
A24
100
AcDbEntity
  8
OBJ
 62
     7
100
AcDbLine
 10
120.811934
 20
18.469256
 30
0.0
 11
120.747934
 21
18.469256
 31
0.0
  0
ARC
  5
A25
100
AcDbEntity
  8
OBJ
 62
     7
100
AcDbCircle
 10
120.779934
 20
18.413831
 30
0.0
 40
0.1375
100
AcDbArc
 50
66.91977
 51
70.411162
  0
ARC
  5
A26
100
AcDbEntity
  8
OBJ
 62
     7
100
AcDbCircle
 10
120.991257
 20
18.924008
 30
0.0
 40
0.1375
100
AcDbArc
 50
95.012616
 51
98.979847
  0
LINE
  5
A27
100
AcDbEntity
  8
OBJ
 62
     7
100
AcDbLine
 10
121.053076
 20
18.940573
 30
0.0
 11
121.007821
 21
18.985828
 31
0.0
  0
LINE
  5
A28
100
AcDbEntity
  8
OBJ
 62
     7
100
AcDbLine
 10
121.007821
 20
18.985828
 30
0.0
 11
120.946002
 21
18.969263
 31
0.0
  0
LWPOLYLINE
  5
A29
100
AcDbEntity
  8
OBJ
 62
     7
100
AcDbPolyline
 90
        8
 70
     1
 43
0.025
 10
120.505302
 20
27.014705
 10
120.505302
 20
25.899705
 10
122.305302
 20
25.899705
 10
122.305302
 20
25.927205
 10
122.153762
 20
25.927205
 10
122.153762
 20
26.952205
 10
122.305302
 20
26.952205
 10
122.305302
 20
27.014705
  0
LWPOLYLINE
  5
A33
100
AcDbEntity
  8
OBJ
 62
     7
100
AcDbPolyline
 90
        6
 70
     1
 43
0.025
 10
122.305302
 20
25.524705
 10
122.305302
 20
25.694705
 10
120.505302
 20
25.694705
 10
120.505302
 20
25.524705
 10
120.505302
 20
25.489705
 10
122.305302
 20
25.489705
  0
LWPOLYLINE
  5
A3B
100
AcDbEntity
  8
OBJ
 62
     7
100
AcDbPolyline
 90
        4
 70
     0
 43
0.025
 10
122.674559
 20
26.748205
 10
123.140762
 20
26.748205
 10
123.140762
 20
26.131205
 10
122.673903
 20
26.131205
  0
LINE
  5
A41
100
AcDbEntity
  8
OBJ
 62
     7
100
AcDbLine
 10
122.153762
 20
25.939705
 30
0.0
 11
122.153762
 21
26.939705
 31
0.0
  0
LINE
  5
A42
100
AcDbEntity
  8
OBJ
 62
     7
100
AcDbLine
 10
122.528762
 20
25.939705
 30
0.0
 11
122.528762
 21
26.939705
 31
0.0
  0
LWPOLYLINE
  5
A43
100
AcDbEntity
  8
OBJ
 62
     7
100
AcDbPolyline
 90
        6
 70
     0
 43
0.025
 10
122.528762
 20
26.939705
 10
122.630762
 20
26.939705
 10
122.630762
 20
26.783205
 10
122.630762
 20
26.096205
 10
122.630762
 20
25.939705
 10
122.528762
 20
25.939705
  0
LINE
  5
A4B
100
AcDbEntity
  8
OBJ
 62
     7
100
AcDbLine
 10
122.700762
 20
26.717205
 30
0.0
 11
122.700762
 21
26.162205
 31
0.0
  0
LINE
  5
A4C
100
AcDbEntity
  8
OBJ
 62
     7
100
AcDbLine
 10
122.740762
 20
26.748205
 30
0.0
 11
122.740762
 21
26.131205
 31
0.0
  0
LINE
  5
A4D
100
AcDbEntity
  8
OBJ
 62
     7
100
AcDbLine
 10
122.780762
 20
26.717205
 30
0.0
 11
122.780762
 21
26.162205
 31
0.0
  0
LINE
  5
A4E
100
AcDbEntity
  8
OBJ
 62
     7
100
AcDbLine
 10
122.820762
 20
26.748205
 30
0.0
 11
122.820762
 21
26.131205
 31
0.0
  0
LINE
  5
A4F
100
AcDbEntity
  8
OBJ
 62
     7
100
AcDbLine
 10
122.860762
 20
26.717205
 30
0.0
 11
122.860762
 21
26.162205
 31
0.0
  0
LWPOLYLINE
  5
A50
100
AcDbEntity
  8
OBJ
 62
     7
100
AcDbPolyline
 90
        4
 70
     0
 43
0.025
 10
122.153762
 20
25.939705
 10
122.528762
 20
25.939705
 10
122.528762
 20
26.939705
 10
122.153762
 20
26.939705
  0
LWPOLYLINE
  5
A56
100
AcDbEntity
  8
OBJ
 62
     7
100
AcDbPolyline
 90
        2
 70
     0
 43
0.025
 10
122.631457
 20
25.97621
 42
0.458716
 10
122.631457
 20
26.19421
 42
0.458716
  0
LWPOLYLINE
  5
A5A
100
AcDbEntity
  8
OBJ
 62
     7
100
AcDbPolyline
 90
        2
 70
     0
 43
0.025
 10
122.276802
 20
25.694705
 10
122.276802
 20
25.899705
  0
LWPOLYLINE
  5
A5E
100
AcDbEntity
  8
OBJ
 62
     7
100
AcDbPolyline
 90
        2
 70
     0
 43
0.025
 10
122.631457
 20
26.68321
 42
0.458716
 10
122.631457
 20
26.90121
 42
0.458716
  0
LWPOLYLINE
  5
A62
100
AcDbEntity
  8
OBJ
  6
CONTINUOUS
 62
     7
100
AcDbPolyline
 90
        2
 70
     0
 43
0.025
 10
121.905302
 20
27.014705
 10
121.905302
 20
27.097705
  0
LWPOLYLINE
  5
A66
100
AcDbEntity
  8
OBJ
 62
     7
100
AcDbPolyline
 90
        2
 70
     0
 43
0.025
 10
120.533802
 20
25.694705
 10
120.533802
 20
25.899705
  0
LWPOLYLINE
  5
A6A
100
AcDbEntity
  8
OBJ
  6
CONTINUOUS
 62
     7
100
AcDbPolyline
 90
        2
 70
     0
 43
0.025
 10
120.905302
 20
27.014705
 10
120.905302
 20
27.097705
  0
TEXT
  5
A6E
100
AcDbEntity
  8
TEXT
  6
BYBLOCK
 62
     7
100
AcDbText
 10
119.753925
 20
15.700454
 30
0.0
 40
0.228229
  1
%%USTANDARD MOUNTING%%U
  7
ROMANS
 72
     4
 11
121.540905
 21
15.791745
 31
0.0
100
AcDbText
  0
TEXT
  5
A6F
100
AcDbEntity
  8
TEXT
  6
BYBLOCK
 62
     7
100
AcDbText
 10
120.862467
 20
15.301885
 30
0.0
 40
0.228229
  1
%%USTYLE S%%U
  7
ROMANS
 72
     4
 11
121.540905
 21
15.393176
 31
0.0
100
AcDbText
  0
LWPOLYLINE
  5
A70
100
AcDbEntity
  8
OBJ
 62
     7
100
AcDbPolyline
 90
        4
 70
     0
 43
0.025
 10
123.140762
 20
26.162205
 10
123.195762
 20
26.162205
 10
123.195762
 20
26.717205
 10
123.140762
 20
26.717205
  0
LINE
  5
A76
100
AcDbEntity
  8
OBJ
 62
     7
100
AcDbLine
 10
122.900762
 20
26.748205
 30
0.0
 11
122.900762
 21
26.131205
 31
0.0
  0
LINE
  5
A77
100
AcDbEntity
  8
OBJ
 62
     7
100
AcDbLine
 10
122.940762
 20
26.717205
 30
0.0
 11
122.940762
 21
26.162205
 31
0.0
  0
LINE
  5
A78
100
AcDbEntity
  8
OBJ
 62
     7
100
AcDbLine
 10
122.980762
 20
26.748205
 30
0.0
 11
122.980762
 21
26.131205
 31
0.0
  0
LINE
  5
A79
100
AcDbEntity
  8
OBJ
 62
     7
100
AcDbLine
 10
123.020762
 20
26.717205
 30
0.0
 11
123.020762
 21
26.162205
 31
0.0
  0
LINE
  5
A7A
100
AcDbEntity
  8
OBJ
 62
     7
100
AcDbLine
 10
123.060762
 20
26.748205
 30
0.0
 11
123.060762
 21
26.131205
 31
0.0
  0
LINE
  5
A7B
100
AcDbEntity
  8
OBJ
 62
     7
100
AcDbLine
 10
123.100762
 20
26.717205
 30
0.0
 11
123.100762
 21
26.162205
 31
0.0
  0
LINE
  5
A7C
100
AcDbEntity
  8
OBJASSY
  6
DASHDOT
 62
     7
100
AcDbLine
 10
120.224302
 20
28.382705
 30
0.0
 11
122.586302
 21
28.382705
 31
0.0
  0
LINE
  5
A7D
100
AcDbEntity
  8
OBJASSY
  6
DASHDOT
 62
     7
100
AcDbLine
 10
122.192702
 20
28.382705
 30
0.0
 11
122.374052
 21
28.382705
 31
0.0
  0
LINE
  5
A7E
100
AcDbEntity
  8
OBJASSY
  6
DASHDOT
 62
     7
100
AcDbLine
 10
120.224302
 20
27.097705
 30
0.0
 11
122.586302
 21
27.097705
 31
0.0
  0
LINE
  5
A7F
100
AcDbEntity
  8
OBJASSY
  6
DASHDOT
 62
     7
100
AcDbLine
 10
141.418434
 20
8.606932
 30
0.0
 11
141.501434
 21
8.606932
 31
0.0
  0
LWPOLYLINE
  5
A80
100
AcDbEntity
  8
OBJASSY
  6
DASHDOT
 62
     7
100
AcDbPolyline
 90
        2
 70
     0
 43
0.0
 10
141.418434
 20
8.606932
 10
141.501434
 20
8.606932
  0
LINE
  5
A84
100
AcDbEntity
  8
OBJASSY
  6
DASHDOT
 62
     7
100
AcDbLine
 10
120.392434
 20
10.026932
 30
0.0
 11
121.204434
 21
10.026932
 31
0.0
  0
LINE
  5
A85
100
AcDbEntity
  8
OBJASSY
  6
DASHDOT
 62
     7
100
AcDbLine
 10
120.392434
 20
10.006932
 30
0.0
 11
120.392434
 21
10.026932
 31
0.0
  0
LINE
  5
A86
100
AcDbEntity
  8
OBJASSY
  6
DASHDOT
 62
     7
100
AcDbLine
 10
121.204434
 20
10.006932
 30
0.0
 11
121.204434
 21
10.026932
 31
0.0
  0
LWPOLYLINE
  5
A87
100
AcDbEntity
  8
OBJASSY
  6
DASHDOT
 62
     7
100
AcDbPolyline
 90
        8
 70
     0
 43
0.0
 10
120.748084
 20
10.041932
 10
120.964784
 20
10.041932
 42
0.414214
 10
120.916784
 20
10.089932
 10
120.796084
 20
10.089932
 42
0.414214
 10
120.748084
 20
10.041932
 10
120.748084
 20
10.026932
 10
120.964784
 20
10.026932
 10
120.964784
 20
10.041932
  0
LWPOLYLINE
  5
A91
100
AcDbEntity
  8
OBJASSY
  6
DASHDOT
 62
     7
100
AcDbPolyline
 90
        4
 70
     0
 43
0.0
 10
141.179934
 20
7.837675
 10
141.179934
 20
7.371472
 10
140.562934
 20
7.371472
 10
140.562934
 20
7.838331
  0
LWPOLYLINE
  5
A97
100
AcDbEntity
  8
OBJASSY
  6
DASHDOT
 62
     7
100
AcDbPolyline
 90
        4
 70
     0
 43
0.0
 10
140.593934
 20
7.371472
 10
140.593934
 20
7.316472
 10
141.148934
 20
7.316472
 10
141.148934
 20
7.371472
  0
LWPOLYLINE
  5
A9D
100
AcDbEntity
  8
OBJASSY
  6
DASHDOT
 62
     7
100
AcDbPolyline
 90
        2
 70
     0
 43
0.0
 10
140.407939
 20
7.880777
 42
0.458716
 10
140.625939
 20
7.880777
 42
0.458716
  0
LWPOLYLINE
  5
AA1
100
AcDbEntity
  8
OBJASSY
  6
DASHDOT
 62
     7
100
AcDbPolyline
 90
        2
 70
     0
 43
0.0
 10
141.114939
 20
7.880777
 42
0.458716
 10
141.332939
 20
7.880777
 42
0.458716
  0
LWPOLYLINE
  5
AA5
100
AcDbEntity
  8
OBJASSY
  6
DASHDOT
 62
     7
100
AcDbPolyline
 90
        4
 70
     0
 43
0.0
 10
131.179957
 20
7.837675
 10
131.179957
 20
7.371472
 10
130.562957
 20
7.371472
 10
130.562957
 20
7.838331
  0
LWPOLYLINE
  5
AAB
100
AcDbEntity
  8
OBJASSY
  6
DASHDOT
 62
     7
100
AcDbPolyline
 90
        4
 70
     0
 43
0.0
 10
130.593957
 20
7.371472
 10
130.593957
 20
7.316472
 10
131.148957
 20
7.316472
 10
131.148957
 20
7.371472
  0
LWPOLYLINE
  5
AB1
100
AcDbEntity
  8
OBJASSY
  6
DASHDOT
 62
     7
100
AcDbPolyline
 90
        2
 70
     0
 43
0.0
 10
131.114962
 20
7.880777
 42
0.458716
 10
131.332962
 20
7.880777
 42
0.458716
  0
LWPOLYLINE
  5
AB5
100
AcDbEntity
  8
OBJASSY
  6
DASHDOT
 62
     7
100
AcDbPolyline
 90
        2
 70
     0
 43
0.0
 10
130.407962
 20
7.880777
 42
0.458716
 10
130.625962
 20
7.880777
 42
0.458716
  0
LINE
  5
AB9
100
AcDbEntity
  8
0
  6
DASHDOT
 62
     7
100
AcDbLine
 10
122.586302
 20
27.097705
 30
0.0
 11
122.586302
 21
28.382705
 31
0.0
  0
LINE
  5
ABA
100
AcDbEntity
  8
0
  6
DASHDOT
 62
     7
100
AcDbLine
 10
120.224302
 20
27.097705
 30
0.0
 11
120.224302
 21
28.382705
 31
0.0
  0
LINE
  5
ABB
100
AcDbEntity
  8
OBJASSY
  6
DASHDOT
 62
     7
100
AcDbLine
 10
130.224325
 20
27.097705
 30
0.0
 11
132.586325
 21
27.097705
 31
0.0
  0
LINE
  5
ABC
100
AcDbEntity
  8
OBJASSY
  6
DASHDOT
 62
     7
100
AcDbLine
 10
130.224325
 20
28.382705
 30
0.0
 11
132.586325
 21
28.382705
 31
0.0
  0
LINE
  5
ABD
100
AcDbEntity
  8
0
  6
DASHDOT
 62
     7
100
AcDbLine
 10
130.224325
 20
27.097705
 30
0.0
 11
130.224325
 21
28.382705
 31
0.0
  0
LINE
  5
ABE
100
AcDbEntity
  8
OBJASSY
  6
DASHDOT
 62
     7
100
AcDbLine
 10
132.192725
 20
28.382705
 30
0.0
 11
132.374075
 21
28.382705
 31
0.0
  0
LINE
  5
ABF
100
AcDbEntity
  8
0
  6
DASHDOT
 62
     7
100
AcDbLine
 10
132.586325
 20
27.097705
 30
0.0
 11
132.586325
 21
28.382705
 31
0.0
  0
CIRCLE
  5
AC9
100
AcDbEntity
  8
CTR
  6
CENTER
 62
     7
100
AcDbCircle
 10
131.501457
 20
18.413831
 30
0.0
 40
1.25
  0
TEXT
  5
ACA
100
AcDbEntity
  8
0
 62
     7
100
AcDbText
 10
120.402958
 20
27.82094
 30
0.0
 40
0.225
  1
SEE WHEEL
100
AcDbText
  0
TEXT
  5
ACB
100
AcDbEntity
  8
0
 62
     7
100
AcDbText
 10
120.402958
 20
27.44594
 30
0.0
 40
0.225
  1
DIMENSIONS
100
AcDbText
  0
TEXT
  5
ACC
100
AcDbEntity
  8
0
 62
     7
100
AcDbText
 10
130.402982
 20
27.44594
 30
0.0
 40
0.225
  1
DIMENSIONS
100
AcDbText
  0
TEXT
  5
ACD
100
AcDbEntity
  8
0
 62
     7
100
AcDbText
 10
130.402982
 20
27.82094
 30
0.0
 40
0.225
  1
SEE WHEEL
100
AcDbText
  0
DIMENSION
  5
AD2
100
AcDbEntity
  8
0
 62
     7
100
AcDbDimension
  2
*D0
 10
124.497303
 20
25.489705
 30
0.0
 11
124.497303
 21
26.293705
 31
0.0
 12
51.185118
 22
0.434431
 32
0.0
  1
1.61
100
AcDbAlignedDimension
 13
122.586302
 23
27.097705
 33
0.0
 14
122.305302
 24
25.489705
 34
0.0
 50
90.0
100
AcDbRotatedDimension
  0
DIMENSION
  5
AD3
100
AcDbEntity
  8
0
 62
     7
100
AcDbDimension
  2
*D1
 10
134.627956
 20
25.449705
 30
0.0
 11
134.627956
 21
26.273705
 31
0.0
 12
53.592694
 22
0.434431
 32
0.0
  1
1.61
100
AcDbAlignedDimension
 13
132.586325
 23
27.097705
 33
0.0
 14
132.305325
 24
25.449705
 34
0.0
 50
90.0
100
AcDbRotatedDimension
  0
LINE
  5
AD4
100
AcDbEntity
  8
OBJASSY
  6
DASHDOT
 62
     7
100
AcDbLine
 10
119.893434
 20
8.953432
 30
0.0
 11
120.306434
 21
8.953432
 31
0.0
  0
LINE
  5
AD5
100
AcDbEntity
  8
OBJASSY
  6
DASHDOT
 62
     7
100
AcDbLine
 10
119.893434
 20
8.919432
 30
0.0
 11
120.306434
 21
8.919432
 31
0.0
  0
LINE
  5
AD6
100
AcDbEntity
  8
OBJASSY
  6
DASHDOT
 62
     7
100
AcDbLine
 10
119.893434
 20
9.260432
 30
0.0
 11
120.306434
 21
9.260432
 31
0.0
  0
LINE
  5
AD7
100
AcDbEntity
  8
OBJASSY
  6
DASHDOT
 62
     7
100
AcDbLine
 10
119.893434
 20
9.294432
 30
0.0
 11
120.306434
 21
9.294432
 31
0.0
  0
LINE
  5
AD8
100
AcDbEntity
  8
OBJASSY
  6
DASHDOT
 62
     7
100
AcDbLine
 10
121.558802
 20
25.489705
 30
0.0
 11
121.558802
 21
25.902705
 31
0.0
  0
LINE
  5
AD9
100
AcDbEntity
  8
OBJASSY
  6
DASHDOT
 62
     7
100
AcDbLine
 10
121.592802
 20
25.489705
 30
0.0
 11
121.592802
 21
25.902705
 31
0.0
  0
LINE
  5
ADA
100
AcDbEntity
  8
OBJASSY
  6
DASHDOT
 62
     7
100
AcDbLine
 10
121.251802
 20
25.489705
 30
0.0
 11
121.251802
 21
25.902705
 31
0.0
  0
LINE
  5
ADB
100
AcDbEntity
  8
OBJASSY
  6
DASHDOT
 62
     7
100
AcDbLine
 10
121.217802
 20
25.489705
 30
0.0
 11
121.217802
 21
25.902705
 31
0.0
  0
LINE
  5
ADC
100
AcDbEntity
  8
OBJASSY
 62
     7
100
AcDbLine
 10
133.030649
 20
18.722331
 30
0.0
 11
133.236918
 21
18.722331
 31
0.0
  0
LINE
  5
ADD
100
AcDbEntity
  8
OBJASSY
 62
     7
100
AcDbLine
 10
133.030649
 20
18.105331
 30
0.0
 11
133.236918
 21
18.105331
 31
0.0
  0
LINE
  5
ADE
100
AcDbEntity
  8
OBJASSY
 62
     7
100
AcDbLine
 10
133.291918
 20
18.691331
 30
0.0
 11
133.291918
 21
18.136331
 31
0.0
  0
LINE
  5
ADF
100
AcDbEntity
  8
OBJASSY
 62
     7
100
AcDbLine
 10
133.236918
 20
18.722331
 30
0.0
 11
133.236918
 21
18.105331
 31
0.0
  0
LINE
  5
AE0
100
AcDbEntity
  8
OBJASSY
 62
     7
100
AcDbLine
 10
133.236918
 20
18.136331
 30
0.0
 11
133.291918
 21
18.136331
 31
0.0
  0
LINE
  5
AE1
100
AcDbEntity
  8
OBJASSY
 62
     7
100
AcDbLine
 10
133.236918
 20
18.691331
 30
0.0
 11
133.291918
 21
18.691331
 31
0.0
  0
ARC
  5
AE2
100
AcDbEntity
  8
OBJASSY
  6
DASHDOT
 62
     7
100
AcDbCircle
 10
132.011635
 20
18.924008
 30
0.0
 40
0.1375
100
AcDbArc
 50
76.537267
 51
73.682995
  0
LWPOLYLINE
  5
AE3
100
AcDbEntity
  8
OBJASSY
  6
DASHDOT
 62
     7
100
AcDbPolyline
 90
        2
 70
     1
 43
0.0
 10
131.489674
 20
19.279851
 42
133.088286
 10
131.494022
 20
19.28014
 42
0.007514
  0
LINE
  5
AE7
100
AcDbEntity
  8
OBJASSY
  6
DASHDOT
 62
     7
100
AcDbLine
 10
131.007844
 20
18.985828
 30
0.0
 11
130.946025
 21
18.969263
 31
0.0
  0
LINE
  5
AE8
100
AcDbEntity
  8
OBJASSY
  6
DASHDOT
 62
     7
100
AcDbLine
 10
131.053099
 20
18.940573
 30
0.0
 11
131.007844
 21
18.985828
 31
0.0
  0
ARC
  5
AE9
100
AcDbEntity
  8
OBJASSY
  6
DASHDOT
 62
     7
100
AcDbCircle
 10
130.99128
 20
18.924008
 30
0.0
 40
0.1375
100
AcDbArc
 50
95.012616
 51
98.979847
  0
LINE
  5
AEA
100
AcDbEntity
  8
OBJASSY
  6
DASHDOT
 62
     7
100
AcDbLine
 10
130.929461
 20
18.907444
 30
0.0
 11
130.974716
 21
18.862189
 31
0.0
  0
LINE
  5
AEB
100
AcDbEntity
  8
OBJASSY
  6
DASHDOT
 62
     7
100
AcDbLine
 10
130.974716
 20
18.862189
 30
0.0
 11
131.036535
 21
18.878753
 31
0.0
  0
LINE
  5
AEC
100
AcDbEntity
  8
OBJASSY
  6
DASHDOT
 62
     7
100
AcDbLine
 10
131.036535
 20
18.878753
 30
0.0
 11
131.053099
 21
18.940573
 31
0.0
  0
LINE
  5
AED
100
AcDbEntity
  8
OBJASSY
  6
DASHDOT
 62
     7
100
AcDbLine
 10
130.946025
 20
18.969263
 30
0.0
 11
130.929461
 21
18.907444
 31
0.0
  0
ARC
  5
AEE
100
AcDbEntity
  8
OBJASSY
  6
DASHDOT
 62
     7
100
AcDbCircle
 10
131.501457
 20
19.135331
 30
0.0
 40
0.1375
100
AcDbArc
 50
92.74282
 51
95.290583
  0
LINE
  5
AEF
100
AcDbEntity
  8
OBJASSY
  6
DASHDOT
 62
     7
100
AcDbLine
 10
131.501457
 20
19.199331
 30
0.0
 11
131.446032
 21
19.167331
 31
0.0
  0
LINE
  5
AF0
100
AcDbEntity
  8
OBJASSY
  6
DASHDOT
 62
     7
100
AcDbLine
 10
131.556883
 20
19.167331
 30
0.0
 11
131.501457
 21
19.199331
 31
0.0
  0
LINE
  5
AF1
100
AcDbEntity
  8
OBJASSY
  6
DASHDOT
 62
     7
100
AcDbLine
 10
131.446032
 20
19.103331
 30
0.0
 11
131.501457
 21
19.071331
 31
0.0
  0
LINE
  5
AF2
100
AcDbEntity
  8
OBJASSY
  6
DASHDOT
 62
     7
100
AcDbLine
 10
131.501457
 20
19.071331
 30
0.0
 11
131.556883
 21
19.103331
 31
0.0
  0
LINE
  5
AF3
100
AcDbEntity
  8
OBJASSY
  6
DASHDOT
 62
     7
100
AcDbLine
 10
131.446032
 20
19.167331
 30
0.0
 11
131.446032
 21
19.103331
 31
0.0
  0
LINE
  5
AF4
100
AcDbEntity
  8
OBJASSY
  6
DASHDOT
 62
     7
100
AcDbLine
 10
131.556883
 20
19.103331
 30
0.0
 11
131.556883
 21
19.167331
 31
0.0
  0
ARC
  5
AF5
100
AcDbEntity
  8
OBJASSY
  6
DASHDOT
 62
     7
100
AcDbCircle
 10
130.99128
 20
18.924008
 30
0.0
 40
0.1375
100
AcDbArc
 50
98.979847
 51
95.012616
  0
LWPOLYLINE
  5
AF6
100
AcDbEntity
  8
OBJASSY
  6
DASHDOT
 62
     7
100
AcDbPolyline
 90
        2
 70
     1
 43
0.0
 10
130.972939
 20
19.067844
 42
80.697159
 10
130.980088
 20
19.068576
 42
0.012392
  0
LINE
  5
AFA
100
AcDbEntity
  8
OBJASSY
  6
DASHDOT
 62
     7
100
AcDbLine
 10
132.05689
 20
18.969263
 30
0.0
 11
131.995071
 21
18.985828
 31
0.0
  0
LINE
  5
AFB
100
AcDbEntity
  8
OBJASSY
  6
DASHDOT
 62
     7
100
AcDbLine
 10
131.995071
 20
18.985828
 30
0.0
 11
131.949816
 21
18.940573
 31
0.0
  0
ARC
  5
AFC
100
AcDbEntity
  8
OBJASSY
  6
DASHDOT
 62
     7
100
AcDbCircle
 10
132.011635
 20
18.924008
 30
0.0
 40
0.1375
100
AcDbArc
 50
73.682995
 51
76.537267
  0
LINE
  5
AFD
100
AcDbEntity
  8
OBJASSY
  6
DASHDOT
 62
     7
100
AcDbLine
 10
132.028199
 20
18.862189
 30
0.0
 11
132.073454
 21
18.907444
 31
0.0
  0
LINE
  5
AFE
100
AcDbEntity
  8
OBJASSY
  6
DASHDOT
 62
     7
100
AcDbLine
 10
131.96638
 20
18.878753
 30
0.0
 11
132.028199
 21
18.862189
 31
0.0
  0
LINE
  5
AFF
100
AcDbEntity
  8
OBJASSY
  6
DASHDOT
 62
     7
100
AcDbLine
 10
131.949816
 20
18.940573
 30
0.0
 11
131.96638
 21
18.878753
 31
0.0
  0
LINE
  5
B00
100
AcDbEntity
  8
OBJASSY
  6
DASHDOT
 62
     7
100
AcDbLine
 10
132.073454
 20
18.907444
 30
0.0
 11
132.05689
 21
18.969263
 31
0.0
  0
LWPOLYLINE
  5
B01
100
AcDbEntity
  8
OBJASSY
  6
DASHDOT
 62
     7
100
AcDbPolyline
 90
        2
 70
     1
 43
0.0
 10
132.049857
 20
19.06388
 42
122.737228
 10
132.054394
 20
19.06256
 42
0.008147
  0
LINE
  5
B05
100
AcDbEntity
  8
OBJASSY
  6
DASHDOT
 62
     7
100
AcDbLine
 10
130.747957
 20
18.469256
 30
0.0
 11
130.715957
 21
18.413831
 31
0.0
  0
ARC
  5
B06
100
AcDbEntity
  8
OBJASSY
  6
DASHDOT
 62
     7
100
AcDbCircle
 10
130.779957
 20
18.413831
 30
0.0
 40
0.1375
100
AcDbArc
 50
70.411162
 51
66.91977
  0
LINE
  5
B07
100
AcDbEntity
  8
OBJASSY
  6
DASHDOT
 62
     7
100
AcDbLine
 10
130.843957
 20
18.413831
 30
0.0
 11
130.811957
 21
18.469256
 31
0.0
  0
LWPOLYLINE
  5
B08
100
AcDbEntity
  8
OBJASSY
  6
DASHDOT
 62
     7
100
AcDbPolyline
 90
        2
 70
     1
 43
0.0
 10
130.83191
 20
18.549204
 42
102.81071
 10
130.837136
 20
18.547081
 42
0.009727
  0
LINE
  5
B0C
100
AcDbEntity
  8
OBJASSY
  6
DASHDOT
 62
     7
100
AcDbLine
 10
130.715957
 20
18.413831
 30
0.0
 11
130.747957
 21
18.358405
 31
0.0
  0
LINE
  5
B0D
100
AcDbEntity
  8
OBJASSY
  6
DASHDOT
 62
     7
100
AcDbLine
 10
130.747957
 20
18.358405
 30
0.0
 11
130.811957
 21
18.358405
 31
0.0
  0
LINE
  5
B0E
100
AcDbEntity
  8
OBJASSY
  6
DASHDOT
 62
     7
100
AcDbLine
 10
130.811957
 20
18.358405
 30
0.0
 11
130.843957
 21
18.413831
 31
0.0
  0
ARC
  5
B0F
100
AcDbEntity
  8
OBJASSY
  6
DASHDOT
 62
     7
100
AcDbCircle
 10
130.779957
 20
18.413831
 30
0.0
 40
0.1375
100
AcDbArc
 50
66.91977
 51
70.411162
  0
LINE
  5
B10
100
AcDbEntity
  8
OBJASSY
  6
DASHDOT
 62
     7
100
AcDbLine
 10
130.811957
 20
18.469256
 30
0.0
 11
130.747957
 21
18.469256
 31
0.0
  0
ARC
  5
B11
100
AcDbEntity
  8
OBJASSY
  6
DASHDOT
 62
     7
100
AcDbCircle
 10
130.779957
 20
18.413831
 30
0.0
 40
0.1375
100
AcDbArc
 50
66.91977
 51
70.411162
  0
LWPOLYLINE
  5
B12
100
AcDbEntity
  8
OBJASSY
  6
DASHDOT
 62
     7
100
AcDbPolyline
 90
        2
 70
     1
 43
0.0
 10
131.495931
 20
18.567231
 42
94.996152
 10
131.502393
 20
18.567328
 42
0.010527
  0
LWPOLYLINE
  5
B16
100
AcDbEntity
  8
OBJASSY
  6
DASHDOT
 62
     7
100
AcDbPolyline
 90
        2
 70
     1
 43
0.0
 10
131.652251
 20
18.525265
 42
28.426595
 10
131.666384
 20
18.503025
 42
0.035178
  0
LINE
  5
B1A
100
AcDbEntity
  8
OBJASSY
  6
DASHDOT
 62
     7
100
AcDbLine
 10
132.286957
 20
18.413831
 30
0.0
 11
132.254957
 21
18.469256
 31
0.0
  0
LINE
  5
B1B
100
AcDbEntity
  8
OBJASSY
  6
DASHDOT
 62
     7
100
AcDbLine
 10
132.190957
 20
18.469256
 30
0.0
 11
132.158957
 21
18.413831
 31
0.0
  0
LWPOLYLINE
  5
B1C
100
AcDbEntity
  8
OBJASSY
  6
DASHDOT
 62
     7
100
AcDbPolyline
 90
        2
 70
     1
 43
0.0
 10
132.179986
 20
18.552317
 42
90.890548
 10
132.18612
 20
18.554073
 42
0.011002
  0
LINE
  5
B20
100
AcDbEntity
  8
OBJASSY
  6
DASHDOT
 62
     7
100
AcDbLine
 10
132.158957
 20
18.413831
 30
0.0
 11
132.190957
 21
18.358405
 31
0.0
  0
LINE
  5
B21
100
AcDbEntity
  8
OBJASSY
  6
DASHDOT
 62
     7
100
AcDbLine
 10
132.254957
 20
18.358405
 30
0.0
 11
132.286957
 21
18.413831
 31
0.0
  0
LINE
  5
B22
100
AcDbEntity
  8
OBJASSY
  6
DASHDOT
 62
     7
100
AcDbLine
 10
132.190957
 20
18.358405
 30
0.0
 11
132.254957
 21
18.358405
 31
0.0
  0
ARC
  5
B23
100
AcDbEntity
  8
OBJASSY
  6
DASHDOT
 62
     7
100
AcDbCircle
 10
132.222957
 20
18.413831
 30
0.0
 40
0.1375
100
AcDbArc
 50
104.078916
 51
107.313695
  0
LINE
  5
B24
100
AcDbEntity
  8
OBJASSY
  6
DASHDOT
 62
     7
100
AcDbLine
 10
132.254957
 20
18.469256
 30
0.0
 11
132.190957
 21
18.469256
 31
0.0
  0
ARC
  5
B25
100
AcDbEntity
  8
OBJASSY
  6
DASHDOT
 62
     7
100
AcDbCircle
 10
131.501457
 20
17.692331
 30
0.0
 40
0.1375
100
AcDbArc
 50
97.655319
 51
91.874715
  0
LWPOLYLINE
  5
B26
100
AcDbEntity
  8
OBJASSY
  6
DASHDOT
 62
     7
100
AcDbPolyline
 90
        2
 70
     1
 43
0.0
 10
131.490232
 20
17.836896
 42
48.469535
 10
131.502185
 20
17.837329
 42
0.020632
  0
LINE
  5
B2A
100
AcDbEntity
  8
OBJASSY
  6
DASHDOT
 62
     7
100
AcDbLine
 10
131.036535
 20
17.948908
 30
0.0
 11
130.974716
 21
17.965472
 31
0.0
  0
ARC
  5
B2B
100
AcDbEntity
  8
OBJASSY
  6
DASHDOT
 62
     7
100
AcDbCircle
 10
130.99128
 20
17.903653
 30
0.0
 40
0.1375
100
AcDbArc
 50
77.767971
 51
80.874929
  0
LINE
  5
B2C
100
AcDbEntity
  8
OBJASSY
  6
DASHDOT
 62
     7
100
AcDbLine
 10
131.007844
 20
17.841834
 30
0.0
 11
131.053099
 21
17.887089
 31
0.0
  0
LINE
  5
B2D
100
AcDbEntity
  8
OBJASSY
  6
DASHDOT
 62
     7
100
AcDbLine
 10
130.929461
 20
17.920218
 30
0.0
 11
130.946025
 21
17.858398
 31
0.0
  0
LINE
  5
B2E
100
AcDbEntity
  8
OBJASSY
  6
DASHDOT
 62
     7
100
AcDbLine
 10
130.946025
 20
17.858398
 30
0.0
 11
131.007844
 21
17.841834
 31
0.0
  0
LINE
  5
B2F
100
AcDbEntity
  8
OBJASSY
  6
DASHDOT
 62
     7
100
AcDbLine
 10
131.501457
 20
17.756331
 30
0.0
 11
131.446032
 21
17.724331
 31
0.0
  0
LINE
  5
B30
100
AcDbEntity
  8
OBJASSY
  6
DASHDOT
 62
     7
100
AcDbLine
 10
131.446032
 20
17.660331
 30
0.0
 11
131.501457
 21
17.628331
 31
0.0
  0
LINE
  5
B31
100
AcDbEntity
  8
OBJASSY
  6
DASHDOT
 62
     7
100
AcDbLine
 10
131.446032
 20
17.724331
 30
0.0
 11
131.446032
 21
17.660331
 31
0.0
  0
LINE
  5
B32
100
AcDbEntity
  8
OBJASSY
  6
DASHDOT
 62
     7
100
AcDbLine
 10
131.501457
 20
17.628331
 30
0.0
 11
131.556883
 21
17.660331
 31
0.0
  0
LINE
  5
B33
100
AcDbEntity
  8
OBJASSY
  6
DASHDOT
 62
     7
100
AcDbLine
 10
131.556883
 20
17.660331
 30
0.0
 11
131.556883
 21
17.724331
 31
0.0
  0
LINE
  5
B34
100
AcDbEntity
  8
OBJASSY
  6
DASHDOT
 62
     7
100
AcDbLine
 10
131.556883
 20
17.724331
 30
0.0
 11
131.501457
 21
17.756331
 31
0.0
  0
ARC
  5
B35
100
AcDbEntity
  8
OBJASSY
  6
DASHDOT
 62
     7
100
AcDbCircle
 10
130.99128
 20
17.903653
 30
0.0
 40
0.1375
100
AcDbArc
 50
80.874929
 51
77.767971
  0
LWPOLYLINE
  5
B36
100
AcDbEntity
  8
OBJASSY
  6
DASHDOT
 62
     7
100
AcDbPolyline
 90
        2
 70
     1
 43
0.0
 10
131.021252
 20
18.045522
 42
111.716957
 10
131.026311
 20
18.044358
 42
0.008951
  0
LINE
  5
B3A
100
AcDbEntity
  8
OBJASSY
  6
DASHDOT
 62
     7
100
AcDbLine
 10
130.974716
 20
17.965472
 30
0.0
 11
130.929461
 21
17.920218
 31
0.0
  0
LINE
  5
B3B
100
AcDbEntity
  8
OBJASSY
  6
DASHDOT
 62
     7
100
AcDbLine
 10
131.053099
 20
17.887089
 30
0.0
 11
131.036535
 21
17.948908
 31
0.0
  0
LINE
  5
B3C
100
AcDbEntity
  8
OBJASSY
  6
DASHDOT
 62
     7
100
AcDbLine
 10
132.028199
 20
17.965472
 30
0.0
 11
131.96638
 21
17.948908
 31
0.0
  0
ARC
  5
B3D
100
AcDbEntity
  8
OBJASSY
  6
DASHDOT
 62
     7
100
AcDbCircle
 10
132.011635
 20
17.903653
 30
0.0
 40
0.1375
100
AcDbArc
 50
125.322122
 51
130.157531
  0
LINE
  5
B3E
100
AcDbEntity
  8
OBJASSY
  6
DASHDOT
 62
     7
100
AcDbLine
 10
131.949816
 20
17.887089
 30
0.0
 11
131.995071
 21
17.841834
 31
0.0
  0
LINE
  5
B3F
100
AcDbEntity
  8
OBJASSY
  6
DASHDOT
 62
     7
100
AcDbLine
 10
132.05689
 20
17.858398
 30
0.0
 11
132.073454
 21
17.920218
 31
0.0
  0
LINE
  5
B40
100
AcDbEntity
  8
OBJASSY
  6
DASHDOT
 62
     7
100
AcDbLine
 10
131.995071
 20
17.841834
 30
0.0
 11
132.05689
 21
17.858398
 31
0.0
  0
ARC
  5
B41
100
AcDbEntity
  8
OBJASSY
  6
DASHDOT
 62
     7
100
AcDbCircle
 10
132.011635
 20
17.903653
 30
0.0
 40
0.1375
100
AcDbArc
 50
130.157531
 51
125.322122
  0
LINE
  5
B42
100
AcDbEntity
  8
OBJASSY
  6
DASHDOT
 62
     7
100
AcDbLine
 10
132.073454
 20
17.920218
 30
0.0
 11
132.028199
 21
17.965472
 31
0.0
  0
LINE
  5
B43
100
AcDbEntity
  8
OBJASSY
  6
DASHDOT
 62
     7
100
AcDbLine
 10
131.96638
 20
17.948908
 30
0.0
 11
131.949816
 21
17.887089
 31
0.0
  0
LWPOLYLINE
  5
B44
100
AcDbEntity
  8
OBJASSY
  6
DASHDOT
 62
     7
100
AcDbPolyline
 90
        2
 70
     1
 43
0.0
 10
131.912625
 20
18.009587
 42
58.723532
 10
131.920064
 20
18.01608
 42
0.017029
  0
LWPOLYLINE
  5
B48
100
AcDbEntity
  8
OBJASSY
  6
DASHDOT
 62
     7
100
AcDbPolyline
 90
        2
 70
     0
 43
0.0
 10
131.488779
 20
19.272245
 42
89.95093
 10
131.494878
 20
19.272673
 42
89.95093
  0
LWPOLYLINE
  5
B4C
100
AcDbEntity
  8
OBJASSY
  6
DASHDOT
 62
     7
100
AcDbPolyline
 90
        2
 70
     0
 43
0.0
 10
132.182037
 20
18.545101
 42
70.844992
 10
132.189509
 20
18.5472
 42
70.844992
  0
LWPOLYLINE
  5
B50
100
AcDbEntity
  8
OBJASSY
  6
DASHDOT
 62
     7
100
AcDbPolyline
 90
        2
 70
     0
 43
0.0
 10
131.496959
 20
17.829757
 42
0.025228
 10
131.483141
 20
17.828605
 42
0.025228
  0
LINE
  5
BC7
100
AcDbEntity
  8
0
 62
     7
100
AcDbLine
 10
123.195762
 20
26.439705
 30
0.0
 11
120.998535
 21
26.439705
 31
0.0
  0
LINE
  5
BC8
100
AcDbEntity
  8
0
 62
     7
100
AcDbLine
 10
121.405302
 20
25.489705
 30
0.0
 11
121.405302
 21
26.714495
 31
0.0
  0
LWPOLYLINE
  5
BC9
100
AcDbEntity
  8
OBJ
 62
     7
100
AcDbPolyline
 90
        4
 70
     0
 43
0.025
 10
122.249895
 20
17.913831
 10
122.624895
 20
17.913831
 10
122.624895
 20
18.913831
 10
122.249895
 20
18.913831
  0
LINE
  5
BCF
100
AcDbEntity
  8
OBJ
 62
     7
100
AcDbLine
 10
122.249895
 20
17.913831
 30
0.0
 11
122.249895
 21
17.914024
 31
0.0
  0
LINE
  5
BD0
100
AcDbEntity
  8
OBJ
 62
     7
100
AcDbLine
 10
123.196895
 20
18.691331
 30
0.0
 11
123.196895
 21
18.136331
 31
0.0
  0
LINE
  5
BD1
100
AcDbEntity
  8
OBJ
 62
     7
100
AcDbLine
 10
123.156895
 20
18.722331
 30
0.0
 11
123.156895
 21
18.105331
 31
0.0
  0
LINE
  5
BD2
100
AcDbEntity
  8
OBJ
 62
     7
100
AcDbLine
 10
123.116895
 20
18.691331
 30
0.0
 11
123.116895
 21
18.136331
 31
0.0
  0
LINE
  5
BD3
100
AcDbEntity
  8
OBJ
 62
     7
100
AcDbLine
 10
123.076895
 20
18.722331
 30
0.0
 11
123.076895
 21
18.105331
 31
0.0
  0
LINE
  5
BD4
100
AcDbEntity
  8
OBJ
 62
     7
100
AcDbLine
 10
123.036895
 20
18.691331
 30
0.0
 11
123.036895
 21
18.136331
 31
0.0
  0
LINE
  5
BD5
100
AcDbEntity
  8
OBJ
 62
     7
100
AcDbLine
 10
122.996895
 20
18.722331
 30
0.0
 11
122.996895
 21
18.105331
 31
0.0
  0
LWPOLYLINE
  5
BD6
100
AcDbEntity
  8
OBJ
 62
     7
100
AcDbPolyline
 90
        4
 70
     0
 43
0.025
 10
123.236895
 20
18.136331
 10
123.291895
 20
18.136331
 10
123.291895
 20
18.691331
 10
123.236895
 20
18.691331
  0
LINE
  5
BDC
100
AcDbEntity
  8
OBJ
 62
     7
100
AcDbLine
 10
122.956895
 20
18.691331
 30
0.0
 11
122.956895
 21
18.136331
 31
0.0
  0
LINE
  5
BDD
100
AcDbEntity
  8
OBJ
 62
     7
100
AcDbLine
 10
122.916895
 20
18.722331
 30
0.0
 11
122.916895
 21
18.105331
 31
0.0
  0
LINE
  5
BDE
100
AcDbEntity
  8
OBJ
 62
     7
100
AcDbLine
 10
122.876895
 20
18.691331
 30
0.0
 11
122.876895
 21
18.136331
 31
0.0
  0
LINE
  5
BDF
100
AcDbEntity
  8
OBJ
 62
     7
100
AcDbLine
 10
122.836895
 20
18.722331
 30
0.0
 11
122.836895
 21
18.105331
 31
0.0
  0
LINE
  5
BE0
100
AcDbEntity
  8
OBJ
 62
     7
100
AcDbLine
 10
122.796895
 20
18.691331
 30
0.0
 11
122.796895
 21
18.136331
 31
0.0
  0
LWPOLYLINE
  5
BE1
100
AcDbEntity
  8
OBJ
 62
     7
100
AcDbPolyline
 90
        6
 70
     0
 43
0.025
 10
122.624895
 20
18.913831
 10
122.726895
 20
18.913831
 10
122.726895
 20
18.757331
 10
122.726895
 20
18.070331
 10
122.726895
 20
17.913831
 10
122.624895
 20
17.913831
  0
LINE
  5
BE9
100
AcDbEntity
  8
OBJ
 62
     7
100
AcDbLine
 10
122.624895
 20
17.913831
 30
0.0
 11
122.624895
 21
18.913831
 31
0.0
  0
LWPOLYLINE
  5
BEA
100
AcDbEntity
  8
OBJ
 62
     7
100
AcDbPolyline
 90
        4
 70
     0
 43
0.025
 10
122.770691
 20
18.722331
 10
123.236895
 20
18.722331
 10
123.236895
 20
18.105331
 10
122.770035
 20
18.105331
  0
LWPOLYLINE
  5
BF0
100
AcDbEntity
  8
OBJ
 62
     7
100
AcDbPolyline
 90
        2
 70
     0
 43
0.025
 10
122.727589
 20
17.950335
 42
0.458716
 10
122.727589
 20
18.168335
 42
0.458716
  0
LWPOLYLINE
  5
BF4
100
AcDbEntity
  8
OBJ
 62
     7
100
AcDbPolyline
 90
        2
 70
     0
 43
0.025
 10
122.727589
 20
18.657335
 42
0.458716
 10
122.727589
 20
18.875335
 42
0.458716
  0
LINE
  5
BF8
100
AcDbEntity
  8
OBJ
 62
     7
100
AcDbLine
 10
122.249895
 20
18.913637
 30
0.0
 11
122.249895
 21
18.913831
 31
0.0
  0
ARC
  5
BF9
100
AcDbEntity
  8
OBJASSY
  6
DASHDOT
 62
     7
100
AcDbCircle
 10
121.501434
 20
18.413831
 30
0.0
 40
1.181
100
AcDbArc
 50
25.047535
 51
334.952465
  0
DIMENSION
  5
BFA
100
AcDbEntity
  8
0
 62
     7
100
AcDbDimension
  2
*D22
 10
121.853519
 20
17.585557
 30
0.0
 11
120.147111
 21
20.011929
 31
0.0
 12
51.281251
 22
-2.109165
 32
0.0
 70
     3
100
AcDbDiametricDimension
 15
121.14935
 25
19.242104
 35
0.0
 40
0.83649
  0
DIMENSION
  5
BFB
100
AcDbEntity
  8
0
 62
     7
100
AcDbDimension
  2
*D4
 10
121.638552
 20
18.482831
 30
0.0
 11
118.553585
 21
17.677693
 31
0.0
 12
51.281251
 22
-2.109165
 32
0.0
 70
     3
  1
0.375-16UNC-2B
100
AcDbDiametricDimension
 15
121.364317
 25
18.34483
 35
0.0
 40
1.484128
  0
DIMENSION
  5
BFE
100
AcDbEntity
  8
0
 62
     7
100
AcDbDimension
  2
*D6
 10
123.475786
 20
10.013182
 30
0.0
 11
123.475786
 21
9.106932
 31
0.0
 12
54.102868
 22
-4.279984
 32
0.0
  1
%%C<>
100
AcDbAlignedDimension
 13
122.706434
 23
8.200682
 33
0.0
 14
122.706434
 24
10.013182
 34
0.0
 50
90.0
100
AcDbRotatedDimension
  0
DIMENSION
  5
BFF
100
AcDbEntity
  8
0
 62
     7
100
AcDbDimension
  2
*D5
 10
124.73186
 20
8.138182
 30
0.0
 11
124.73186
 21
9.106932
 31
0.0
 12
54.102868
 22
-4.279984
 32
0.0
  1
%%C<>
100
AcDbAlignedDimension
 13
122.786434
 23
10.075682
 33
0.0
 14
122.786434
 24
8.138182
 34
0.0
 50
90.0
100
AcDbRotatedDimension
  0
DIMENSION
  5
C00
100
AcDbEntity
  8
0
 62
     7
100
AcDbDimension
  2
*D7
 10
125.970296
 20
9.739916
 30
0.0
 11
126.438792
 21
9.106932
 31
0.0
 12
54.102868
 22
-4.279984
 32
0.0
 70
     3
100
AcDbDiametricDimension
 15
126.907287
 25
8.473949
 35
0.0
 40
0.0
  0
DIMENSION
  5
C01
100
AcDbEntity
  8
0
 62
     7
100
AcDbDimension
  2
*D8
 10
131.721457
 20
6.905816
 30
0.0
 11
130.941457
 21
6.905816
 31
0.0
 12
52.403172
 22
-4.279984
 32
0.0
100
AcDbAlignedDimension
 13
131.921457
 23
8.157032
 33
0.0
 14
131.721457
 24
8.157032
 34
0.0
100
AcDbRotatedDimension
  0
DIMENSION
  5
C02
100
AcDbEntity
  8
0
 62
     7
100
AcDbDimension
  2
*D9
 10
132.786457
 20
6.153407
 30
0.0
 11
132.143957
 21
6.153407
 31
0.0
 12
52.403172
 22
-4.279984
 32
0.0
100
AcDbAlignedDimension
 13
131.501457
 23
8.152557
 33
0.0
 14
132.786457
 24
8.152557
 34
0.0
100
AcDbRotatedDimension
  0
DIMENSION
  5
C03
100
AcDbEntity
  8
0
 62
     7
100
AcDbDimension
  2
*D10
 10
131.821457
 20
10.509456
 30
0.0
 11
132.616457
 21
10.509456
 31
0.0
 12
52.403172
 22
-4.279984
 32
0.0
100
AcDbAlignedDimension
 13
131.501457
 23
10.061307
 33
0.0
 14
131.821457
 24
10.056832
 34
0.0
100
AcDbRotatedDimension
  0
DIMENSION
  5
C04
100
AcDbEntity
  8
0
 62
     7
100
AcDbDimension
  2
*D11
 10
133.594066
 20
8.257032
 30
0.0
 11
133.594066
 21
9.106932
 31
0.0
 12
52.403172
 22
-4.279984
 32
0.0
  1
%%C<>
100
AcDbAlignedDimension
 13
131.821457
 23
9.956832
 33
0.0
 14
131.821457
 24
8.257032
 34
0.0
 50
90.0
100
AcDbRotatedDimension
  0
DIMENSION
  5
C05
100
AcDbEntity
  8
0
 62
     7
100
AcDbDimension
  2
*D12
 10
134.723441
 20
8.122557
 30
0.0
 11
134.723441
 21
9.106932
 31
0.0
 12
52.403172
 22
-4.279984
 32
0.0
  1
%%C<>
100
AcDbAlignedDimension
 13
132.756457
 23
10.091307
 33
0.0
 14
132.756457
 24
8.122557
 34
0.0
 50
90.0
100
AcDbRotatedDimension
  0
DIMENSION
  5
C06
100
AcDbEntity
  8
0
 62
     7
100
AcDbDimension
  2
*D18
 10
136.160773
 20
9.682195
 30
0.0
 11
136.698573
 21
9.106932
 31
0.0
 12
52.403172
 22
-4.279984
 32
0.0
 70
     3
100
AcDbDiametricDimension
 15
137.236373
 25
8.53167
 35
0.0
 40
0.0
  0
DIMENSION
  5
C07
100
AcDbEntity
  8
0
 62
     7
100
AcDbDimension
  2
*D13
 10
142.704922
 20
7.088936
 30
0.0
 11
142.103178
 21
7.088936
 31
0.0
 12
51.332082
 22
-4.279984
 32
0.0
100
AcDbAlignedDimension
 13
141.501434
 23
7.955832
 33
0.0
 14
142.704922
 24
7.955832
 34
0.0
100
AcDbRotatedDimension
  0
DIMENSION
  5
C08
100
AcDbEntity
  8
0
 62
     7
100
AcDbDimension
  2
*D14
 10
141.501434
 20
6.418881
 30
0.0
 11
142.143934
 21
6.418881
 31
0.0
 12
51.332082
 22
-4.279984
 32
0.0
100
AcDbAlignedDimension
 13
142.786434
 23
8.257032
 33
0.0
 14
141.501434
 24
7.955832
 34
0.0
100
AcDbRotatedDimension
  0
DIMENSION
  5
C09
100
AcDbEntity
  8
0
 62
     7
100
AcDbDimension
  2
*D17
 10
143.528729
 20
9.956832
 30
0.0
 11
143.528729
 21
9.106932
 31
0.0
 12
51.332082
 22
-4.279984
 32
0.0
  1
%%C<>
100
AcDbAlignedDimension
 13
142.786434
 23
8.257032
 33
0.0
 14
142.786434
 24
9.956832
 34
0.0
 50
90.0
100
AcDbRotatedDimension
  0
DIMENSION
  5
C0A
100
AcDbEntity
  8
0
 62
     7
100
AcDbDimension
  2
*D16
 10
144.666559
 20
7.925832
 30
0.0
 11
144.666559
 21
9.106932
 31
0.0
 12
51.332082
 22
-4.279984
 32
0.0
  1
%%C<>
100
AcDbAlignedDimension
 13
142.674922
 23
10.288032
 33
0.0
 14
142.674922
 24
7.925832
 34
0.0
 50
90.0
100
AcDbRotatedDimension
  0
DIMENSION
  5
C0B
100
AcDbEntity
  8
0
 62
     7
100
AcDbDimension
  2
*D15
 10
146.655502
 20
9.705618
 30
0.0
 11
147.167098
 21
9.106932
 31
0.0
 12
51.332082
 22
-4.279984
 32
0.0
 70
     3
100
AcDbDiametricDimension
 15
147.678695
 25
8.508246
 35
0.0
 40
0.0
  0
SOLID
  5
C0C
100
AcDbEntity
  8
0
 62
     7
100
AcDbTrace
 10
148.174232
 20
8.828578
 30
0.0
 11
148.231075
 21
8.847785
 31
0.0
 12
148.145034
 22
9.00871
 32
0.0
 13
148.145034
 23
9.00871
 33
0.0
  0
LINE
  5
C0D
100
AcDbEntity
  8
0
 62
     7
100
AcDbLine
 10
148.202653
 20
8.838181
 30
0.0
 11
148.791949
 21
7.094107
 31
0.0
  0
LINE
  5
C0E
100
AcDbEntity
  8
0
 62
     7
100
AcDbLine
 10
148.791949
 20
7.094107
 30
0.0
 11
148.604541
 21
7.094107
 31
0.0
  0
TEXT
  5
C0F
100
AcDbEntity
  8
0
 62
     7
100
AcDbText
 10
145.004541
 20
7.004107
 30
0.0
 40
0.18
  1
4X M5-0.8 X 0.47 DEEP
 72
     2
 11
148.424541
 21
7.094107
 31
0.0
100
AcDbText
 73
     2
  0
TEXT
  5
C10
100
AcDbEntity
  8
0
 62
     7
100
AcDbText
 10
145.244541
 20
6.748722
 30
0.0
 40
0.18
  1
EQL SP ON 1.969 DBC
 72
     2
 11
148.424541
 21
6.838722
 31
0.0
100
AcDbText
 73
     2
  0
TEXT
  5
C1F
100
AcDbEntity
  8
TEXT
 62
     7
100
AcDbText
 10
106.300586
 20
-0.706529
 30
0.0
 40
0.18
  1
                    STYLE "S", "FB" & "FL"-6 O'CLOCK (SAME AS LOAD DIRECTION)
  7
ROMANS
100
AcDbText
  0
TEXT
  5
C20
100
AcDbEntity
  8
TEXT
 62
     7
100
AcDbText
 10
109.899839
 20
-0.997958
 30
0.0
 40
0.18
  1
STYLE "PB"-CENTER REAR
  7
ROMANS
100
AcDbText
  0
TEXT
  5
C21
100
AcDbEntity
  8
TEXT
 62
     7
100
AcDbText
 10
121.228382
 20
0.179316
 30
0.0
 40
0.18
  1
WEIGHT OF WHEEL ASSEMBLIES:
  7
ROMANS
100
AcDbText
  0
TEXT
  5
C22
100
AcDbEntity
  8
TEXT
 62
     7
100
AcDbText
 10
121.222704
 20
0.470745
 30
0.0
 40
0.18
  1
TYPICAL BREAKAWAY TORQUE: 0.25 IN-OZ
  7
ROMANS
100
AcDbText
  0
TEXT
  5
C23
100
AcDbEntity
  8
TEXT
 62
     7
100
AcDbText
 10
122.292006
 20
-0.106867
 30
0.0
 40
0.18
  1
          RIBBON - 0.45 LBS (204 GRAMS)
  7
ROMANS
100
AcDbText
  0
TEXT
  5
C24
100
AcDbEntity
  8
TEXT
 62
     7
100
AcDbText
 10
124.089489
 20
-0.398295
 30
0.0
 40
0.18
  1
FILAMENT - 0.49 LBS (222 GRAMS)
  7
ROMANS
100
AcDbText
  0
TEXT
  5
C25
100
AcDbEntity
  8
TEXT
 62
     7
100
AcDbText
 10
124.083811
 20
-0.684478
 30
0.0
 40
0.18
  1
ADAPTER - 0.65 LBS (295 GRAMS)
  7
ROMANS
100
AcDbText
  0
ARC
  5
CF6
100
AcDbEntity
  8
OBJ
 62
     7
100
AcDbCircle
 10
140.3924
 20
19.66226
 30
0.0
 40
0.141086
100
AcDbArc
 50
111.163032
 51
182.363739
  0
LINE
  5
CF7
100
AcDbEntity
  8
OBJ
 62
     7
100
AcDbLine
 10
141.480658
 20
19.793831
 30
0.0
 11
141.480658
 21
19.314591
 31
0.0
  0
LINE
  5
CF8
100
AcDbEntity
  8
OBJ
 62
     7
100
AcDbLine
 10
141.52221
 20
19.793831
 30
0.0
 11
141.52221
 21
19.314591
 31
0.0
  0
ARC
  5
CF9
100
AcDbEntity
  8
OBJ
 62
     7
100
AcDbCircle
 10
142.610468
 20
19.66226
 30
0.0
 40
0.141086
100
AcDbArc
 50
357.636261
 51
68.836968
  0
LINE
  5
CFB
100
AcDbEntity
  8
CTR
  6
CENTER
 62
     7
100
AcDbLine
 10
141.501434
 20
20.235881
 30
0.0
 11
141.501434
 21
17.512831
 31
0.0
  0
LINE
  5
CFC
100
AcDbEntity
  8
HID
 62
     7
100
AcDbLine
 10
142.751434
 20
17.418831
 30
0.0
 11
140.251434
 21
17.418831
 31
0.0
  0
LINE
  5
CFD
100
AcDbEntity
  8
WELD
  6
HIDDEN
 62
     7
100
AcDbLine
 10
142.751434
 20
17.208831
 30
0.0
 11
140.251434
 21
17.208831
 31
0.0
  0
LINE
  5
CFE
100
AcDbEntity
  8
WELD
  6
HIDDEN
 62
     7
 48
0.5
100
AcDbLine
 10
142.751434
 20
17.543831
 30
0.0
 11
142.001434
 21
17.543831
 31
0.0
  0
LINE
  5
CFF
100
AcDbEntity
  8
OBJ
 62
     7
100
AcDbLine
 10
140.376434
 20
17.083831
 30
0.0
 11
142.626434
 21
17.083831
 31
0.0
  0
LINE
  5
D00
100
AcDbEntity
  8
HID
 62
     7
100
AcDbLine
 10
142.751434
 20
19.645705
 30
0.0
 11
142.042734
 21
19.645705
 31
0.0
  0
LINE
  5
D01
100
AcDbEntity
  8
HID
 62
     7
100
AcDbLine
 10
142.751434
 20
19.320905
 30
0.0
 11
142.042734
 21
19.320905
 31
0.0
  0
LINE
  5
D02
100
AcDbEntity
  8
CTR
  6
CENTER
 62
     7
100
AcDbLine
 10
142.402434
 20
18.413831
 30
0.0
 11
140.600434
 21
18.413831
 31
0.0
  0
LINE
  5
D03
100
AcDbEntity
  8
CTR
  6
CENTER
 62
     7
100
AcDbLine
 10
142.863242
 20
19.483305
 30
0.0
 11
140.60753
 21
19.483305
 31
0.0
  0
ARC
  5
D04
100
AcDbEntity
  8
OBJ
 62
     7
100
AcDbCircle
 10
141.501434
 20
18.413831
 30
0.0
 40
0.901
100
AcDbArc
 50
91.321311
 51
88.678689
  0
HATCH
  5
D05
100
AcDbEntity
  8
WELD
 62
     7
100
AcDbHatch
 10
0.0
 20
0.0
 30
0.0
210
0.0
220
0.0
230
1.0
  2
ANSI31
 70
     0
 71
     0
 91
        3
 92
        7
 72
     0
 73
     1
 93
        4
 10
140.0782980416443
 20
17.08383072453016
 10
140.2514340908943
 20
17.08383072453016
 10
140.2514340908943
 20
17.41883072453016
 10
140.0782980416443
 20
17.41883072453016
 97
        0
 92
        7
 72
     0
 73
     1
 93
        3
 10
140.1264340908944
 20
17.41883072453016
 10
140.2514340908943
 20
17.41883072453016
 10
140.2514340908943
 20
17.54383072453015
 97
        0
 92
        7
 72
     0
 73
     1
 93
        4
 10
140.0782980416444
 20
17.41883072453016
 10
140.1264340908944
 20
17.41883072453016
 10
140.2514340908943
 20
17.54383072453015
 10
140.2514340908943
 20
17.59196677378015
 97
        0
 75
     0
 76
     1
 52
60.0
 41
0.5
 77
     0
 78
     1
 53
105.0
 43
135.73266
 44
12.802373
 45
-0.0603703641430668
 46
-0.0161761903189076
 79
     0
 47
0.004573
 98
        3
 10
140.112508
 20
17.197119
 10
140.204023
 20
17.453203
 10
140.176569
 20
17.498933
  0
LINE
  5
D06
100
AcDbEntity
  8
WELD
 62
     7
100
AcDbLine
 10
140.078298
 20
17.418831
 30
0.0
 11
140.078298
 21
17.083831
 31
0.0
  0
LINE
  5
D07
100
AcDbEntity
  8
OBJ
 62
     7
100
AcDbLine
 10
140.251434
 20
19.656441
 30
0.0
 11
140.251434
 21
17.083831
 31
0.0
  0
LINE
  5
D08
100
AcDbEntity
  8
OBJ
 62
     7
100
AcDbLine
 10
139.376434
 20
17.418831
 30
0.0
 11
139.376434
 21
17.043831
 31
0.0
  0
LINE
  5
D09
100
AcDbEntity
  8
HID
 62
     7
100
AcDbLine
 10
139.661434
 20
17.418831
 30
0.0
 11
139.661434
 21
17.043193
 31
0.0
  0
LINE
  5
D0A
100
AcDbEntity
  8
HID
 62
     7
100
AcDbLine
 10
140.091434
 20
17.418831
 30
0.0
 11
140.091434
 21
17.043831
 31
0.0
  0
LINE
  5
D0B
100
AcDbEntity
  8
CTR
  6
CENTER
 62
     7
100
AcDbLine
 10
139.876434
 20
17.755095
 30
0.0
 11
139.876434
 21
16.725057
 31
0.0
  0
LINE
  5
D0C
100
AcDbEntity
  8
OBJ
 62
     7
100
AcDbLine
 10
140.376434
 20
17.043831
 30
0.0
 11
139.376434
 21
17.043831
 31
0.0
  0
LINE
  5
D0D
100
AcDbEntity
  8
WELD
 62
     7
100
AcDbLine
 10
140.078298
 20
17.083831
 30
0.0
 11
140.251434
 21
17.083831
 31
0.0
  0
LINE
  5
D0E
100
AcDbEntity
  8
OBJ
 62
     7
100
AcDbLine
 10
140.376434
 20
17.083831
 30
0.0
 11
140.251434
 21
17.083831
 31
0.0
  0
LINE
  5
D0F
100
AcDbEntity
  8
OBJ
 62
     7
100
AcDbLine
 10
140.376434
 20
17.043831
 30
0.0
 11
140.376434
 21
17.083831
 31
0.0
  0
LINE
  5
D10
100
AcDbEntity
  8
HID
 62
     7
100
AcDbLine
 10
141.480658
 20
19.419486
 30
0.0
 11
140.774263
 21
19.419486
 31
0.0
  0
LINE
  5
D11
100
AcDbEntity
  8
HID
 62
     7
100
AcDbLine
 10
141.480658
 20
19.547124
 30
0.0
 11
140.774263
 21
19.547124
 31
0.0
  0
LINE
  5
D12
100
AcDbEntity
  8
WELD
  6
HIDDEN
 62
     7
 48
0.5
100
AcDbLine
 10
141.001434
 20
17.543831
 30
0.0
 11
140.251434
 21
17.543831
 31
0.0
  0
LINE
  5
D13
100
AcDbEntity
  8
OBJ
 62
     7
100
AcDbLine
 10
140.251434
 20
17.418831
 30
0.0
 11
139.376434
 21
17.418831
 31
0.0
  0
LINE
  5
D14
100
AcDbEntity
  8
WELD
  6
HIDDEN
 62
     7
 48
0.5
100
AcDbLine
 10
140.126434
 20
17.418831
 30
0.0
 11
140.251434
 21
17.543831
 31
0.0
  0
LINE
  5
D15
100
AcDbEntity
  8
WELD
 62
     7
100
AcDbLine
 10
140.078298
 20
17.418831
 30
0.0
 11
140.251434
 21
17.591967
 31
0.0
  0
LINE
  5
D16
100
AcDbEntity
  8
HID
 62
     7
100
AcDbLine
 10
140.737417
 20
19.483305
 30
0.0
 11
140.774263
 21
19.419486
 31
0.0
  0
LINE
  5
D17
100
AcDbEntity
  8
HID
 62
     7
100
AcDbLine
 10
140.774263
 20
19.547124
 30
0.0
 11
140.774263
 21
19.419486
 31
0.0
  0
LINE
  5
D18
100
AcDbEntity
  8
HID
 62
     7
100
AcDbLine
 10
140.774263
 20
19.547124
 30
0.0
 11
140.737417
 21
19.483305
 31
0.0
  0
LINE
  5
D19
100
AcDbEntity
  8
WELD
  6
HIDDEN
 62
     7
 48
0.5
100
AcDbLine
 10
141.001434
 20
17.543831
 30
0.0
 11
141.001434
 21
17.418831
 31
0.0
  0
LINE
  5
D1A
100
AcDbEntity
  8
WELD
  6
HIDDEN
 62
     7
 48
0.5
100
AcDbLine
 10
142.001434
 20
17.543831
 30
0.0
 11
142.001434
 21
17.418831
 31
0.0
  0
LINE
  5
D1B
100
AcDbEntity
  8
HID
 62
     7
100
AcDbLine
 10
142.042734
 20
19.388805
 30
0.0
 11
141.52221
 21
19.388805
 31
0.0
  0
LINE
  5
D1C
100
AcDbEntity
  8
HID
 62
     7
100
AcDbLine
 10
142.042734
 20
19.577805
 30
0.0
 11
141.52221
 21
19.577805
 31
0.0
  0
LINE
  5
D1D
100
AcDbEntity
  8
HID2
 62
     7
100
AcDbLine
 10
141.480658
 20
19.400254
 30
0.0
 11
140.890058
 21
19.400254
 31
0.0
  0
LINE
  5
D1E
100
AcDbEntity
  8
HID2
 62
     7
100
AcDbLine
 10
141.480658
 20
19.566356
 30
0.0
 11
140.890058
 21
19.566356
 31
0.0
  0
LINE
  5
D1F
100
AcDbEntity
  8
HID2
 62
     7
100
AcDbLine
 10
140.890058
 20
19.566356
 30
0.0
 11
140.890058
 21
19.400254
 31
0.0
  0
LINE
  5
D20
100
AcDbEntity
  8
HID
 62
     7
100
AcDbLine
 10
142.042734
 20
19.645705
 30
0.0
 11
142.042734
 21
19.320905
 31
0.0
  0
HATCH
  5
D21
100
AcDbEntity
  8
WELD
 62
     7
100
AcDbHatch
 10
0.0
 20
0.0
 30
0.0
210
0.0
220
0.0
230
1.0
  2
ANSI31
 70
     0
 71
     1
 91
        3
 92
        7
 72
     0
 73
     1
 93
        4
 10
142.7514340908941
 20
17.08383072453018
 10
142.9245701401441
 20
17.08383072453018
 10
142.9245701401441
 20
17.41883072453018
 10
142.7514340908942
 20
17.41883072453018
 97
        4
330
D2C
330
D24
330
D2B
330
D22
 92
       23
 72
     0
 73
     1
 93
        3
 10
142.7514340908942
 20
17.54383072453014
 10
142.7514340908941
 20
17.41883072453018
 10
142.8764340908941
 20
17.41883072453018
 97
        3
330
D24
330
D2C
330
D2D
 92
        7
 72
     0
 73
     1
 93
        4
 10
142.8764340908941
 20
17.41883072453018
 10
142.9245701401441
 20
17.41883072453018
 10
142.7514340908942
 20
17.59196677378018
 10
142.7514340908942
 20
17.54383072453014
 97
        4
330
D24
330
D2D
330
D2C
330
D2E
 75
     0
 76
     1
 52
60.0
 41
0.5
 77
     0
 78
     1
 53
105.0
 43
135.23266
 44
12.802373
 45
-0.0603703641430668
 46
-0.0161761903189076
 79
     0
 47
0.004573
 98
        3
 10
142.829283
 20
17.224557
 10
142.788101
 20
17.457776
 10
142.806404
 20
17.512651
  0
LINE
  5
D22
102
{ACAD_REACTORS
330
D21
102
}
100
AcDbEntity
  8
WELD
 62
     7
100
AcDbLine
 10
142.92457
 20
17.418831
 30
0.0
 11
142.92457
 21
17.083831
 31
0.0
  0
LINE
  5
D23
100
AcDbEntity
  8
HID
 62
     7
100
AcDbLine
 10
142.911434
 20
17.418831
 30
0.0
 11
142.911434
 21
17.043193
 31
0.0
  0
LINE
  5
D24
102
{ACAD_REACTORS
330
D21
102
}
100
AcDbEntity
  8
OBJ
 62
     7
100
AcDbLine
 10
142.751434
 20
19.656441
 30
0.0
 11
142.751434
 21
17.083831
 31
0.0
  0
LINE
  5
D25
100
AcDbEntity
  8
OBJ
 62
     7
100
AcDbLine
 10
143.626434
 20
17.418831
 30
0.0
 11
143.626434
 21
17.043831
 31
0.0
  0
LINE
  5
D26
100
AcDbEntity
  8
HID
 62
     7
100
AcDbLine
 10
143.341434
 20
17.418831
 30
0.0
 11
143.341434
 21
17.043193
 31
0.0
  0
LINE
  5
D27
100
AcDbEntity
  8
CTR
  6
CENTER
 62
     7
100
AcDbLine
 10
143.126434
 20
17.755095
 30
0.0
 11
143.126434
 21
16.725057
 31
0.0
  0
LINE
  5
D28
100
AcDbEntity
  8
OBJ
 62
     7
100
AcDbLine
 10
143.626434
 20
17.043831
 30
0.0
 11
142.626434
 21
17.043831
 31
0.0
  0
LINE
  5
D29
100
AcDbEntity
  8
OBJ
 62
     7
100
AcDbLine
 10
142.626434
 20
17.083831
 30
0.0
 11
142.751434
 21
17.083831
 31
0.0
  0
LINE
  5
D2A
100
AcDbEntity
  8
OBJ
 62
     7
100
AcDbLine
 10
142.626434
 20
17.043831
 30
0.0
 11
142.626434
 21
17.083831
 31
0.0
  0
LINE
  5
D2B
102
{ACAD_REACTORS
330
D21
102
}
100
AcDbEntity
  8
WELD
 62
     7
100
AcDbLine
 10
142.92457
 20
17.083831
 30
0.0
 11
142.751434
 21
17.083831
 31
0.0
  0
LINE
  5
D2C
102
{ACAD_REACTORS
330
D21
102
}
100
AcDbEntity
  8
OBJ
 62
     7
100
AcDbLine
 10
143.626434
 20
17.418831
 30
0.0
 11
142.751434
 21
17.418831
 31
0.0
  0
LINE
  5
D2D
102
{ACAD_REACTORS
330
D21
102
}
100
AcDbEntity
  8
WELD
  6
HIDDEN
 62
     7
 48
0.5
100
AcDbLine
 10
142.876434
 20
17.418831
 30
0.0
 11
142.751434
 21
17.543831
 31
0.0
  0
LINE
  5
D2E
102
{ACAD_REACTORS
330
D21
102
}
100
AcDbEntity
  8
WELD
 62
     7
100
AcDbLine
 10
142.92457
 20
17.418831
 30
0.0
 11
142.751434
 21
17.591967
 31
0.0
  0
LINE
  5
D31
100
AcDbEntity
  8
OBJ
 62
     7
100
AcDbLine
 10
143.530302
 20
27.030577
 30
0.0
 11
143.530302
 21
26.300577
 31
0.0
  0
LINE
  5
D32
100
AcDbEntity
  8
OBJ
 62
     7
100
AcDbLine
 10
139.280302
 20
27.030577
 30
0.0
 11
139.280302
 21
26.300577
 31
0.0
  0
LINE
  5
D33
100
AcDbEntity
  8
HID
 62
     7
100
AcDbLine
 10
142.655302
 20
26.145477
 30
0.0
 11
141.946602
 21
26.145477
 31
0.0
  0
LINE
  5
D34
100
AcDbEntity
  8
HID
 62
     7
100
AcDbLine
 10
142.655302
 20
25.820677
 30
0.0
 11
141.946602
 21
25.820677
 31
0.0
  0
LINE
  5
D35
100
AcDbEntity
  8
CTR
  6
CENTER
 62
     7
100
AcDbLine
 10
142.767109
 20
25.983077
 30
0.0
 11
140.511398
 21
25.983077
 31
0.0
  0
LINE
  5
D37
100
AcDbEntity
  8
OBJ
 62
     7
100
AcDbLine
 10
142.661403
 20
19.793831
 30
0.0
 11
141.52221
 21
19.793831
 31
0.0
  0
LINE
  5
D39
100
AcDbEntity
  8
OBJ
 62
     7
100
AcDbLine
 10
142.655302
 20
25.795577
 30
0.0
 11
140.155302
 21
25.795577
 31
0.0
  0
LINE
  5
D3A
100
AcDbEntity
  8
OBJ
 62
     7
100
AcDbLine
 10
142.655302
 20
26.170577
 30
0.0
 11
141.905302
 21
26.170577
 31
0.0
  0
LINE
  5
D3C
100
AcDbEntity
  8
OBJ
 62
     7
100
AcDbLine
 10
143.400302
 20
26.170577
 30
0.0
 11
139.410302
 21
26.170577
 31
0.0
  0
LINE
  5
D3F
100
AcDbEntity
  8
OBJ
 62
     7
100
AcDbLine
 10
141.480658
 20
19.793831
 30
0.0
 11
140.341465
 21
19.793831
 31
0.0
  0
LINE
  5
D40
100
AcDbEntity
  8
HID
 62
     7
100
AcDbLine
 10
141.384525
 20
26.046896
 30
0.0
 11
140.67813
 21
26.046896
 31
0.0
  0
LINE
  5
D41
100
AcDbEntity
  8
HID
 62
     7
100
AcDbLine
 10
141.384525
 20
25.919258
 30
0.0
 11
140.67813
 21
25.919258
 31
0.0
  0
LINE
  5
D44
100
AcDbEntity
  8
OBJ
 62
     7
100
AcDbLine
 10
140.905302
 20
26.170577
 30
0.0
 11
140.155302
 21
26.170577
 31
0.0
  0
CIRCLE
  5
D45
100
AcDbEntity
  8
OBJ
 62
     7
100
AcDbCircle
 10
139.780302
 20
26.605577
 30
0.0
 40
0.203
  0
ARC
  5
D46
100
AcDbEntity
  8
OBJ
 62
     7
100
AcDbCircle
 10
139.410302
 20
26.300577
 30
0.0
 40
0.13
100
AcDbArc
 50
180.0
 51
270.0
  0
LINE
  5
D47
100
AcDbEntity
  8
0
 62
     7
100
AcDbLine
 10
139.780302
 20
26.515577
 30
0.0
 11
139.780302
 21
26.695577
 31
0.0
  0
LINE
  5
D48
100
AcDbEntity
  8
0
 62
     7
100
AcDbLine
 10
139.690302
 20
26.605577
 30
0.0
 11
139.870302
 21
26.605577
 31
0.0
  0
LINE
  5
D4A
100
AcDbEntity
  8
OBJ
 62
     7
100
AcDbLine
 10
140.155302
 20
25.795577
 30
0.0
 11
140.155302
 21
26.170577
 31
0.0
  0
LINE
  5
D4B
100
AcDbEntity
  8
OBJ
 62
     7
100
AcDbLine
 10
140.155302
 20
25.795577
 30
0.0
 11
140.155302
 21
26.170577
 31
0.0
  0
LINE
  5
D50
100
AcDbEntity
  8
HID
 62
     7
100
AcDbLine
 10
140.67813
 20
26.046896
 30
0.0
 11
140.641284
 21
25.983077
 31
0.0
  0
LINE
  5
D51
100
AcDbEntity
  8
HID
 62
     7
100
AcDbLine
 10
140.67813
 20
26.046896
 30
0.0
 11
140.67813
 21
25.919258
 31
0.0
  0
LINE
  5
D52
100
AcDbEntity
  8
HID
 62
     7
100
AcDbLine
 10
140.641284
 20
25.983077
 30
0.0
 11
140.67813
 21
25.919258
 31
0.0
  0
LINE
  5
D54
100
AcDbEntity
  8
HID
 62
     7
100
AcDbLine
 10
141.946602
 20
26.077577
 30
0.0
 11
141.426078
 21
26.077577
 31
0.0
  0
LINE
  5
D55
100
AcDbEntity
  8
HID
 62
     7
100
AcDbLine
 10
141.946602
 20
25.888577
 30
0.0
 11
141.426078
 21
25.888577
 31
0.0
  0
LINE
  5
D56
100
AcDbEntity
  8
HID2
 62
     7
100
AcDbLine
 10
141.384525
 20
26.066128
 30
0.0
 11
140.793925
 21
26.066128
 31
0.0
  0
LINE
  5
D57
100
AcDbEntity
  8
HID2
 62
     7
100
AcDbLine
 10
141.384525
 20
25.900026
 30
0.0
 11
140.793925
 21
25.900026
 31
0.0
  0
LINE
  5
D58
100
AcDbEntity
  8
HID2
 62
     7
100
AcDbLine
 10
140.793925
 20
26.066128
 30
0.0
 11
140.793925
 21
25.900026
 31
0.0
  0
LINE
  5
D5A
100
AcDbEntity
  8
OBJ
 62
     7
100
AcDbLine
 10
141.426078
 20
25.795577
 30
0.0
 11
141.426078
 21
26.170577
 31
0.0
  0
LINE
  5
D5B
100
AcDbEntity
  8
OBJ
 62
     7
100
AcDbLine
 10
141.384525
 20
25.795577
 30
0.0
 11
141.384525
 21
26.170577
 31
0.0
  0
LINE
  5
D5C
100
AcDbEntity
  8
HID
 62
     7
100
AcDbLine
 10
141.946602
 20
26.145477
 30
0.0
 11
141.946602
 21
25.820677
 31
0.0
  0
LINE
  5
D5F
100
AcDbEntity
  8
0
 62
     7
100
AcDbLine
 10
142.940302
 20
26.605577
 30
0.0
 11
143.120302
 21
26.605577
 31
0.0
  0
CIRCLE
  5
D60
100
AcDbEntity
  8
OBJ
 62
     7
100
AcDbCircle
 10
143.030302
 20
26.605577
 30
0.0
 40
0.203
  0
LINE
  5
D63
100
AcDbEntity
  8
OBJ
 62
     7
100
AcDbLine
 10
142.655302
 20
25.795577
 30
0.0
 11
142.655302
 21
26.170577
 31
0.0
  0
LINE
  5
D64
100
AcDbEntity
  8
OBJ
 62
     7
100
AcDbLine
 10
142.655302
 20
25.795577
 30
0.0
 11
142.655302
 21
26.170577
 31
0.0
  0
LINE
  5
D68
100
AcDbEntity
  8
OBJ
 62
     7
100
AcDbLine
 10
142.780302
 20
26.170577
 30
0.0
 11
142.780302
 21
26.170577
 31
0.0
  0
LINE
  5
D69
100
AcDbEntity
  8
0
 62
     7
100
AcDbLine
 10
143.030302
 20
26.515577
 30
0.0
 11
143.030302
 21
26.695577
 31
0.0
  0
ARC
  5
D6A
100
AcDbEntity
  8
OBJ
 62
     7
100
AcDbCircle
 10
143.400302
 20
26.300577
 30
0.0
 40
0.13
100
AcDbArc
 50
270.0
 51
0.0
  0
LINE
  5
D6B
100
AcDbEntity
  8
OBJ
 62
     7
100
AcDbLine
 10
143.400302
 20
27.160577
 30
0.0
 11
141.905302
 21
27.160577
 31
0.0
  0
ARC
  5
D6C
100
AcDbEntity
  8
OBJ
 62
     7
100
AcDbCircle
 10
139.410302
 20
27.030577
 30
0.0
 40
0.13
100
AcDbArc
 50
90.0
 51
180.0
  0
ARC
  5
D6D
100
AcDbEntity
  8
OBJ
 62
     7
100
AcDbCircle
 10
143.400302
 20
27.030577
 30
0.0
 40
0.13
100
AcDbArc
 50
0.0
 51
90.0
  0
LINE
  5
E8B
100
AcDbEntity
  8
0
  6
DASHDOT
 62
     7
100
AcDbLine
 10
142.585627
 20
27.392895
 30
0.0
 11
142.585627
 21
28.677895
 31
0.0
  0
LINE
  5
E8C
100
AcDbEntity
  8
0
  6
DASHDOT
 62
     7
100
AcDbLine
 10
140.223627
 20
27.392895
 30
0.0
 11
140.223627
 21
28.677895
 31
0.0
  0
LINE
  5
E8E
100
AcDbEntity
  8
OBJASSY
  6
DASHDOT
 62
     7
100
AcDbLine
 10
142.585627
 20
27.392895
 30
0.0
 11
140.223627
 21
27.392895
 31
0.0
  0
LWPOLYLINE
  5
E94
100
AcDbEntity
  8
OBJ
  6
CONTINUOUS
 62
     7
100
AcDbPolyline
 90
        2
 70
     0
 43
0.025
 10
141.904627
 20
27.309895
 10
141.904627
 20
27.392895
  0
LWPOLYLINE
  5
EAC
100
AcDbEntity
  8
OBJ
  6
CONTINUOUS
 62
     7
100
AcDbPolyline
 90
        2
 70
     0
 43
0.025
 10
140.904627
 20
27.309895
 10
140.904627
 20
27.392895
  0
LINE
  5
EB0
100
AcDbEntity
  8
OBJASSY
  6
DASHDOT
 62
     7
100
AcDbLine
 10
142.585627
 20
28.677895
 30
0.0
 11
140.223627
 21
28.677895
 31
0.0
  0
LINE
  5
EB1
100
AcDbEntity
  8
OBJASSY
  6
DASHDOT
 62
     7
100
AcDbLine
 10
140.617227
 20
28.677895
 30
0.0
 11
140.435877
 21
28.677895
 31
0.0
  0
LINE
  5
EE2
100
AcDbEntity
  8
OBJ
  6
HIDDEN
 62
     7
100
AcDbLine
 39
0.01
 10
142.304627
 20
27.309895
 30
0.0
 11
142.304627
 21
26.194895
 31
0.0
  0
LINE
  5
EE3
100
AcDbEntity
  8
OBJ
  6
HIDDEN
 62
     7
100
AcDbLine
 39
0.01
 10
142.304627
 20
26.194895
 30
0.0
 11
140.494286
 21
26.194895
 31
0.0
  0
LINE
  5
EE4
100
AcDbEntity
  8
OBJ
  6
HIDDEN
 62
     7
100
AcDbLine
 39
0.01
 10
140.504627
 20
26.194895
 30
0.0
 11
140.504627
 21
27.309895
 31
0.0
  0
LINE
  5
EE9
100
AcDbEntity
  8
OBJ
  6
HIDDEN
 62
     7
100
AcDbLine
 39
0.01
 10
140.504627
 20
27.309895
 30
0.0
 11
142.304627
 21
27.309895
 31
0.0
  0
LINE
  5
EEA
100
AcDbEntity
  8
PILLOWBLOCK
 62
     7
100
AcDbLine
 10
141.905302
 20
26.234895
 30
0.0
 11
140.905302
 21
26.234895
 31
0.0
  0
LINE
  5
EEC
100
AcDbEntity
  8
PILLOWBLOCK
 62
     7
100
AcDbLine
 10
140.905302
 20
27.234895
 30
0.0
 11
141.905302
 21
27.234895
 31
0.0
  0
LINE
  5
102D
100
AcDbEntity
  8
OBJASSY
  6
DASHDOT
 62
     7
100
AcDbLine
 10
141.036511
 20
18.878753
 30
0.0
 11
141.053076
 21
18.940573
 31
0.0
  0
LINE
  5
102E
100
AcDbEntity
  8
OBJASSY
  6
DASHDOT
 62
     7
100
AcDbLine
 10
140.929437
 20
18.907444
 30
0.0
 11
140.974692
 21
18.862189
 31
0.0
  0
LWPOLYLINE
  5
102F
100
AcDbEntity
  8
OBJASSY
  6
DASHDOT
 62
     7
100
AcDbPolyline
 90
        2
 70
     1
 43
0.0
 10
141.090267
 20
18.818074
 42
58.723532
 10
141.082828
 20
18.811582
 42
0.017029
  0
ARC
  5
1030
100
AcDbEntity
  8
OBJASSY
  6
DASHDOT
 62
     7
100
AcDbCircle
 10
140.991257
 20
18.924008
 30
0.0
 40
0.1375
100
AcDbArc
 50
310.157531
 51
305.322122
  0
LINE
  5
1031
100
AcDbEntity
  8
OBJASSY
  6
DASHDOT
 62
     7
100
AcDbLine
 10
141.949792
 20
18.940573
 30
0.0
 11
141.966357
 21
18.878753
 31
0.0
  0
LINE
  5
1032
100
AcDbEntity
  8
OBJASSY
  6
DASHDOT
 62
     7
100
AcDbLine
 10
142.028176
 20
18.862189
 30
0.0
 11
142.073431
 21
18.907444
 31
0.0
  0
LWPOLYLINE
  5
1033
100
AcDbEntity
  8
OBJASSY
  6
DASHDOT
 62
     7
100
AcDbPolyline
 90
        2
 70
     1
 43
0.0
 10
141.98164
 20
18.78214
 42
111.716957
 10
141.976581
 20
18.783303
 42
0.008951
  0
ARC
  5
1034
100
AcDbEntity
  8
OBJASSY
  6
DASHDOT
 62
     7
100
AcDbCircle
 10
142.011612
 20
18.924008
 30
0.0
 40
0.1375
100
AcDbArc
 50
260.874929
 51
257.767971
  0
LWPOLYLINE
  5
1036
100
AcDbEntity
  8
OBJ
 62
     7
100
AcDbPolyline
 90
        2
 70
     1
 43
0.03
 10
141.781879
 20
19.269021
 42
237.834114
 10
141.796221
 20
19.264184
 42
0.004205
  0
LWPOLYLINE
  5
103E
100
AcDbEntity
  8
OBJASSY
  6
DASHDOT
 62
     7
100
AcDbPolyline
 90
        2
 70
     0
 43
0.0
 10
141.505932
 20
18.997904
 42
0.025228
 10
141.519751
 20
18.999056
 42
0.025228
  0
LINE
  5
103F
100
AcDbEntity
  8
OBJASSY
  6
DASHDOT
 62
     7
100
AcDbLine
 10
142.056866
 20
18.969263
 30
0.0
 11
141.995047
 21
18.985828
 31
0.0
  0
LINE
  5
1040
100
AcDbEntity
  8
OBJASSY
  6
DASHDOT
 62
     7
100
AcDbLine
 10
142.073431
 20
18.907444
 30
0.0
 11
142.056866
 21
18.969263
 31
0.0
  0
LINE
  5
1041
100
AcDbEntity
  8
OBJASSY
  6
DASHDOT
 62
     7
100
AcDbLine
 10
141.995047
 20
18.985828
 30
0.0
 11
141.949792
 21
18.940573
 31
0.0
  0
LINE
  5
1042
100
AcDbEntity
  8
OBJASSY
  6
DASHDOT
 62
     7
100
AcDbLine
 10
141.446008
 20
19.103331
 30
0.0
 11
141.501434
 21
19.071331
 31
0.0
  0
LINE
  5
1043
100
AcDbEntity
  8
OBJASSY
  6
DASHDOT
 62
     7
100
AcDbLine
 10
141.446008
 20
19.167331
 30
0.0
 11
141.446008
 21
19.103331
 31
0.0
  0
LINE
  5
1044
100
AcDbEntity
  8
OBJASSY
  6
DASHDOT
 62
     7
100
AcDbLine
 10
141.501434
 20
19.199331
 30
0.0
 11
141.446008
 21
19.167331
 31
0.0
  0
LINE
  5
1045
100
AcDbEntity
  8
OBJASSY
  6
DASHDOT
 62
     7
100
AcDbLine
 10
141.55686
 20
19.103331
 30
0.0
 11
141.55686
 21
19.167331
 31
0.0
  0
LINE
  5
1046
100
AcDbEntity
  8
OBJASSY
  6
DASHDOT
 62
     7
100
AcDbLine
 10
141.55686
 20
19.167331
 30
0.0
 11
141.501434
 21
19.199331
 31
0.0
  0
LINE
  5
1047
100
AcDbEntity
  8
OBJASSY
  6
DASHDOT
 62
     7
100
AcDbLine
 10
141.501434
 20
19.071331
 30
0.0
 11
141.55686
 21
19.103331
 31
0.0
  0
LWPOLYLINE
  5
1048
100
AcDbEntity
  8
OBJASSY
  6
DASHDOT
 62
     7
100
AcDbPolyline
 90
        2
 70
     1
 43
0.0
 10
141.51266
 20
18.990766
 42
48.469535
 10
141.500707
 20
18.990333
 42
0.020632
  0
ARC
  5
1049
100
AcDbEntity
  8
OBJASSY
  6
DASHDOT
 62
     7
100
AcDbCircle
 10
141.501434
 20
19.135331
 30
0.0
 40
0.1375
100
AcDbArc
 50
277.655319
 51
271.874715
  0
LINE
  5
104A
100
AcDbEntity
  8
OBJASSY
  6
DASHDOT
 62
     7
100
AcDbLine
 10
141.007821
 20
18.985828
 30
0.0
 11
140.946002
 21
18.969263
 31
0.0
  0
LINE
  5
104B
100
AcDbEntity
  8
OBJASSY
  6
DASHDOT
 62
     7
100
AcDbLine
 10
140.946002
 20
18.969263
 30
0.0
 11
140.929437
 21
18.907444
 31
0.0
  0
LINE
  5
104C
100
AcDbEntity
  8
OBJASSY
  6
DASHDOT
 62
     7
100
AcDbLine
 10
141.053076
 20
18.940573
 30
0.0
 11
141.007821
 21
18.985828
 31
0.0
  0
LWPOLYLINE
  5
1051
100
AcDbEntity
  8
OBJASSY
  6
DASHDOT
 62
     7
100
AcDbPolyline
 90
        2
 70
     0
 43
0.0
 10
141.514113
 20
17.555416
 42
89.95093
 10
141.508014
 20
17.554988
 42
89.95093
  0
LINE
  5
1052
100
AcDbEntity
  8
OBJASSY
  6
DASHDOT
 62
     7
100
AcDbLine
 10
141.446008
 20
17.724331
 30
0.0
 11
141.446008
 21
17.660331
 31
0.0
  0
LINE
  5
1053
100
AcDbEntity
  8
OBJASSY
  6
DASHDOT
 62
     7
100
AcDbLine
 10
141.55686
 20
17.660331
 30
0.0
 11
141.55686
 21
17.724331
 31
0.0
  0
LWPOLYLINE
  5
1054
100
AcDbEntity
  8
OBJASSY
  6
DASHDOT
 62
     7
100
AcDbPolyline
 90
        2
 70
     1
 43
0.0
 10
141.513217
 20
17.54781
 42
133.088286
 10
141.508869
 20
17.547521
 42
0.007514
  0
LWPOLYLINE
  5
1056
100
AcDbEntity
  8
OBJASSY
  6
DASHDOT
 62
     7
100
AcDbPolyline
 90
        2
 70
     1
 43
0.0
 10
141.350641
 20
18.302396
 42
28.426595
 10
141.336508
 20
18.324636
 42
0.035178
  0
LWPOLYLINE
  5
1057
100
AcDbEntity
  8
OBJASSY
  6
DASHDOT
 62
     7
100
AcDbPolyline
 90
        2
 70
     1
 43
0.0
 10
141.506961
 20
18.26043
 42
94.996152
 10
141.500499
 20
18.260334
 42
0.010527
  0
LWPOLYLINE
  5
1058
100
AcDbEntity
  8
OBJASSY
  6
DASHDOT
 62
     7
100
AcDbPolyline
 90
        2
 70
     1
 43
0.0
 10
142.170981
 20
18.278458
 42
102.81071
 10
142.165755
 20
18.280581
 42
0.009727
  0
ARC
  5
1059
100
AcDbEntity
  8
OBJASSY
  6
DASHDOT
 62
     7
100
AcDbCircle
 10
142.222934
 20
18.413831
 30
0.0
 40
0.1375
100
AcDbArc
 50
250.411162
 51
246.91977
  0
LINE
  5
105A
100
AcDbEntity
  8
OBJASSY
  6
DASHDOT
 62
     7
100
AcDbLine
 10
142.190934
 20
18.358405
 30
0.0
 11
142.254934
 21
18.358405
 31
0.0
  0
LINE
  5
105B
100
AcDbEntity
  8
OBJASSY
  6
DASHDOT
 62
     7
100
AcDbLine
 10
142.254934
 20
18.469256
 30
0.0
 11
142.190934
 21
18.469256
 31
0.0
  0
LINE
  5
105C
100
AcDbEntity
  8
OBJASSY
  6
DASHDOT
 62
     7
100
AcDbLine
 10
142.286934
 20
18.413831
 30
0.0
 11
142.254934
 21
18.469256
 31
0.0
  0
LINE
  5
105D
100
AcDbEntity
  8
OBJASSY
  6
DASHDOT
 62
     7
100
AcDbLine
 10
142.254934
 20
18.358405
 30
0.0
 11
142.286934
 21
18.413831
 31
0.0
  0
ARC
  5
105E
100
AcDbEntity
  8
OBJASSY
  6
DASHDOT
 62
     7
100
AcDbCircle
 10
142.011612
 20
18.924008
 30
0.0
 40
0.1375
100
AcDbArc
 50
257.767971
 51
260.874929
  0
LINE
  5
105F
100
AcDbEntity
  8
OBJASSY
  6
DASHDOT
 62
     7
100
AcDbLine
 10
141.966357
 20
18.878753
 30
0.0
 11
142.028176
 21
18.862189
 31
0.0
  0
LINE
  5
1060
100
AcDbEntity
  8
OBJASSY
  6
DASHDOT
 62
     7
100
AcDbLine
 10
142.190934
 20
18.469256
 30
0.0
 11
142.158934
 21
18.413831
 31
0.0
  0
LINE
  5
1061
100
AcDbEntity
  8
OBJASSY
  6
DASHDOT
 62
     7
100
AcDbLine
 10
142.158934
 20
18.413831
 30
0.0
 11
142.190934
 21
18.358405
 31
0.0
  0
ARC
  5
1062
100
AcDbEntity
  8
OBJASSY
  6
DASHDOT
 62
     7
100
AcDbCircle
 10
142.222934
 20
18.413831
 30
0.0
 40
0.1375
100
AcDbArc
 50
246.91977
 51
250.411162
  0
ARC
  5
1063
100
AcDbEntity
  8
OBJASSY
  6
DASHDOT
 62
     7
100
AcDbCircle
 10
142.222934
 20
18.413831
 30
0.0
 40
0.1375
100
AcDbArc
 50
246.91977
 51
250.411162
  0
LWPOLYLINE
  5
1064
100
AcDbEntity
  8
OBJASSY
  6
DASHDOT
 62
     7
100
AcDbPolyline
 90
        2
 70
     1
 43
0.0
 10
142.029953
 20
17.759818
 42
80.697159
 10
142.022804
 20
17.759086
 42
0.012392
  0
ARC
  5
1065
100
AcDbEntity
  8
OBJASSY
  6
DASHDOT
 62
     7
100
AcDbCircle
 10
142.011612
 20
17.903653
 30
0.0
 40
0.1375
100
AcDbArc
 50
278.979847
 51
275.012616
  0
LINE
  5
1066
100
AcDbEntity
  8
OBJASSY
  6
DASHDOT
 62
     7
100
AcDbLine
 10
141.501434
 20
17.756331
 30
0.0
 11
141.446008
 21
17.724331
 31
0.0
  0
LINE
  5
1067
100
AcDbEntity
  8
OBJASSY
  6
DASHDOT
 62
     7
100
AcDbLine
 10
141.55686
 20
17.724331
 30
0.0
 11
141.501434
 21
17.756331
 31
0.0
  0
LINE
  5
1068
100
AcDbEntity
  8
OBJASSY
  6
DASHDOT
 62
     7
100
AcDbLine
 10
142.056866
 20
17.858398
 30
0.0
 11
142.073431
 21
17.920218
 31
0.0
  0
LINE
  5
1069
100
AcDbEntity
  8
OBJASSY
  6
DASHDOT
 62
     7
100
AcDbLine
 10
141.966357
 20
17.948908
 30
0.0
 11
141.949792
 21
17.887089
 31
0.0
  0
LINE
  5
106A
100
AcDbEntity
  8
OBJASSY
  6
DASHDOT
 62
     7
100
AcDbLine
 10
142.028176
 20
17.965472
 30
0.0
 11
141.966357
 21
17.948908
 31
0.0
  0
LINE
  5
106B
100
AcDbEntity
  8
OBJASSY
  6
DASHDOT
 62
     7
100
AcDbLine
 10
142.073431
 20
17.920218
 30
0.0
 11
142.028176
 21
17.965472
 31
0.0
  0
ARC
  5
106C
100
AcDbEntity
  8
OBJASSY
  6
DASHDOT
 62
     7
100
AcDbCircle
 10
142.011612
 20
17.903653
 30
0.0
 40
0.1375
100
AcDbArc
 50
275.012616
 51
278.979847
  0
LINE
  5
106D
100
AcDbEntity
  8
OBJASSY
  6
DASHDOT
 62
     7
100
AcDbLine
 10
141.949792
 20
17.887089
 30
0.0
 11
141.995047
 21
17.841834
 31
0.0
  0
LINE
  5
106E
100
AcDbEntity
  8
OBJASSY
  6
DASHDOT
 62
     7
100
AcDbLine
 10
141.995047
 20
17.841834
 30
0.0
 11
142.056866
 21
17.858398
 31
0.0
  0
LINE
  5
1070
100
AcDbEntity
  8
OBJASSY
  6
DASHDOT
 62
     7
100
AcDbLine
 10
141.446008
 20
17.660331
 30
0.0
 11
141.501434
 21
17.628331
 31
0.0
  0
LINE
  5
1071
100
AcDbEntity
  8
OBJASSY
  6
DASHDOT
 62
     7
100
AcDbLine
 10
141.501434
 20
17.628331
 30
0.0
 11
141.55686
 21
17.660331
 31
0.0
  0
ARC
  5
1072
100
AcDbEntity
  8
OBJASSY
  6
DASHDOT
 62
     7
100
AcDbCircle
 10
141.501434
 20
17.692331
 30
0.0
 40
0.1375
100
AcDbArc
 50
272.74282
 51
275.290583
  0
LWPOLYLINE
  5
1075
100
AcDbEntity
  8
OBJASSY
  6
DASHDOT
 62
     7
100
AcDbPolyline
 90
        2
 70
     0
 43
0.0
 10
140.820855
 20
18.282561
 42
70.844992
 10
140.813382
 20
18.280461
 42
70.844992
  0
LWPOLYLINE
  5
1076
100
AcDbEntity
  8
OBJASSY
  6
DASHDOT
 62
     7
100
AcDbPolyline
 90
        2
 70
     1
 43
0.0
 10
140.822905
 20
18.275344
 42
90.890548
 10
140.816771
 20
18.273588
 42
0.011002
  0
LINE
  5
1077
100
AcDbEntity
  8
OBJASSY
 62
     7
100
AcDbLine
 10
141.192934
 20
20.149292
 30
0.0
 11
141.809934
 21
20.149292
 31
0.0
  0
LINE
  5
1078
100
AcDbEntity
  8
OBJASSY
 62
     7
100
AcDbLine
 10
141.223934
 20
20.204292
 30
0.0
 11
141.778934
 21
20.204292
 31
0.0
  0
LINE
  5
1079
100
AcDbEntity
  8
OBJASSY
  6
DASHDOT
 62
     7
100
AcDbLine
 10
140.747934
 20
18.358405
 30
0.0
 11
140.811934
 21
18.358405
 31
0.0
  0
ARC
  5
107A
100
AcDbEntity
  8
OBJASSY
  6
DASHDOT
 62
     7
100
AcDbCircle
 10
140.991257
 20
18.924008
 30
0.0
 40
0.1375
100
AcDbArc
 50
305.322122
 51
310.157531
  0
LINE
  5
107B
100
AcDbEntity
  8
OBJASSY
  6
DASHDOT
 62
     7
100
AcDbLine
 10
140.974692
 20
18.862189
 30
0.0
 11
141.036511
 21
18.878753
 31
0.0
  0
LINE
  5
107C
100
AcDbEntity
  8
OBJASSY
  6
DASHDOT
 62
     7
100
AcDbLine
 10
140.811934
 20
18.469256
 30
0.0
 11
140.747934
 21
18.469256
 31
0.0
  0
LINE
  5
107D
100
AcDbEntity
  8
OBJASSY
  6
DASHDOT
 62
     7
100
AcDbLine
 10
140.747934
 20
18.469256
 30
0.0
 11
140.715934
 21
18.413831
 31
0.0
  0
LINE
  5
107E
100
AcDbEntity
  8
OBJASSY
  6
DASHDOT
 62
     7
100
AcDbLine
 10
140.843934
 20
18.413831
 30
0.0
 11
140.811934
 21
18.469256
 31
0.0
  0
LINE
  5
107F
100
AcDbEntity
  8
OBJASSY
  6
DASHDOT
 62
     7
100
AcDbLine
 10
140.811934
 20
18.358405
 30
0.0
 11
140.843934
 21
18.413831
 31
0.0
  0
LINE
  5
1080
100
AcDbEntity
  8
OBJASSY
  6
DASHDOT
 62
     7
100
AcDbLine
 10
140.715934
 20
18.413831
 30
0.0
 11
140.747934
 21
18.358405
 31
0.0
  0
LINE
  5
1081
100
AcDbEntity
  8
OBJASSY
 62
     7
100
AcDbLine
 10
141.778934
 20
20.149292
 30
0.0
 11
141.778934
 21
20.204292
 31
0.0
  0
LINE
  5
1082
100
AcDbEntity
  8
OBJASSY
 62
     7
100
AcDbLine
 10
141.809934
 20
19.793831
 30
0.0
 11
141.809934
 21
20.149292
 31
0.0
  0
ARC
  5
1083
100
AcDbEntity
  8
OBJASSY
  6
DASHDOT
 62
     7
100
AcDbCircle
 10
140.779934
 20
18.413831
 30
0.0
 40
0.1375
100
AcDbArc
 50
284.078916
 51
287.313695
  0
LWPOLYLINE
  5
1084
100
AcDbEntity
  8
OBJASSY
  6
DASHDOT
 62
     7
100
AcDbPolyline
 90
        2
 70
     1
 43
0.0
 10
140.953035
 20
17.763781
 42
122.737228
 10
140.948498
 20
17.765101
 42
0.008147
  0
LINE
  5
1085
100
AcDbEntity
  8
OBJASSY
  6
DASHDOT
 62
     7
100
AcDbLine
 10
140.929437
 20
17.920218
 30
0.0
 11
140.946002
 21
17.858398
 31
0.0
  0
LINE
  5
1086
100
AcDbEntity
  8
OBJASSY
  6
DASHDOT
 62
     7
100
AcDbLine
 10
141.053076
 20
17.887089
 30
0.0
 11
141.036511
 21
17.948908
 31
0.0
  0
LINE
  5
1087
100
AcDbEntity
  8
OBJASSY
  6
DASHDOT
 62
     7
100
AcDbLine
 10
141.036511
 20
17.948908
 30
0.0
 11
140.974692
 21
17.965472
 31
0.0
  0
LINE
  5
1088
100
AcDbEntity
  8
OBJASSY
  6
DASHDOT
 62
     7
100
AcDbLine
 10
140.974692
 20
17.965472
 30
0.0
 11
140.929437
 21
17.920218
 31
0.0
  0
ARC
  5
1089
100
AcDbEntity
  8
OBJASSY
  6
DASHDOT
 62
     7
100
AcDbCircle
 10
140.991257
 20
17.903653
 30
0.0
 40
0.1375
100
AcDbArc
 50
253.682995
 51
256.537267
  0
LINE
  5
108A
100
AcDbEntity
  8
OBJASSY
  6
DASHDOT
 62
     7
100
AcDbLine
 10
141.007821
 20
17.841834
 30
0.0
 11
141.053076
 21
17.887089
 31
0.0
  0
LINE
  5
108B
100
AcDbEntity
  8
OBJASSY
  6
DASHDOT
 62
     7
100
AcDbLine
 10
140.946002
 20
17.858398
 30
0.0
 11
141.007821
 21
17.841834
 31
0.0
  0
ARC
  5
108C
100
AcDbEntity
  8
OBJASSY
  6
DASHDOT
 62
     7
100
AcDbCircle
 10
140.991257
 20
17.903653
 30
0.0
 40
0.1375
100
AcDbArc
 50
256.537267
 51
253.682995
  0
LINE
  5
108D
100
AcDbEntity
  8
OBJASSY
 62
     7
100
AcDbLine
 10
141.223934
 20
20.149292
 30
0.0
 11
141.223934
 21
20.204292
 31
0.0
  0
LINE
  5
108E
100
AcDbEntity
  8
OBJASSY
 62
     7
100
AcDbLine
 10
141.192934
 20
19.793831
 30
0.0
 11
141.192934
 21
20.149292
 31
0.0
  0
DIMENSION
  5
11DC
100
AcDbEntity
  8
PILLOWBLOCK
 62
     7
100
AcDbDimension
  2
*D23
 10
138.300446
 20
25.795577
 30
0.0
 11
138.300446
 21
26.276081
 31
0.0
 12
3.968113
 22
2.867633
 32
0.0
 70
   160
  3
BODYT
100
AcDbAlignedDimension
 13
141.226978
 23
26.734895
 33
0.0
 14
139.976978
 24
25.795577
 34
0.0
 50
90.0
100
AcDbRotatedDimension
1001
ACAD
1000
DSTYLE
1002
{
1070
    47
1040
0.003
1070
   147
1040
0.18
1070
   287
1070
     3
1070
    42
1040
0.125
1070
    44
1040
0.36
1070
    43
1040
0.18
1070
   141
1040
0.18
1002
}
  0
DIMENSION
  5
11EB
100
AcDbEntity
  8
PILLOWBLOCK
 62
     7
100
AcDbDimension
  2
*D24
 10
145.649448
 20
27.160577
 30
0.0
 11
146.264448
 21
27.340577
 31
0.0
 12
51.748894
 22
0.434431
 32
0.0
 70
    32
  3
BODYT
100
AcDbAlignedDimension
 13
143.400302
 23
26.170577
 33
0.0
 14
143.400302
 24
27.160577
 34
0.0
 50
90.0
100
AcDbRotatedDimension
1001
ACAD
1000
DSTYLE
1002
{
1070
    47
1040
0.003
1070
   147
1040
0.18
1070
   287
1070
     3
1070
    42
1040
0.125
1070
    44
1040
0.36
1070
    43
1040
0.18
1070
   141
1040
0.18
1002
}
  0
DIMENSION
  5
11FA
100
AcDbEntity
  8
PILLOWBLOCK
 62
     7
100
AcDbDimension
  2
*D25
 10
144.571449
 20
26.170577
 30
0.0
 11
143.956449
 21
25.810577
 31
0.0
 12
3.968113
 22
2.867633
 32
0.0
 70
   160
  3
BODYT
100
AcDbAlignedDimension
 13
143.030302
 23
26.605577
 33
0.0
 14
143.400302
 24
26.170577
 34
0.0
 50
90.0
100
AcDbRotatedDimension
1001
ACAD
1000
DSTYLE
1002
{
1070
    47
1040
0.003
1070
   147
1040
0.18
1070
   287
1070
     3
1070
    42
1040
0.125
1070
    44
1040
0.36
1070
    43
1040
0.18
1070
   141
1040
0.18
1002
}
  0
DIMENSION
  5
1217
100
AcDbEntity
  8
PILLOWBLOCK
 62
     7
100
AcDbDimension
  2
*D26
 10
143.897674
 20
27.392895
 30
0.0
 11
144.512674
 21
27.572895
 31
0.0
 12
3.968113
 22
2.867633
 32
0.0
 70
    32
  3
BODYT
100
AcDbAlignedDimension
 13
143.210302
 23
26.605577
 33
0.0
 14
142.585627
 24
27.392895
 34
0.0
 50
90.0
100
AcDbRotatedDimension
1001
ACAD
1000
DSTYLE
1002
{
1070
    47
1040
0.003
1070
   147
1040
0.18
1070
   287
1070
     3
1070
    42
1040
0.125
1070
    44
1040
0.36
1070
    43
1040
0.18
1070
   141
1040
0.18
1002
}
  0
DIMENSION
  5
124C
100
AcDbEntity
  8
PILLOWBLOCK
 62
     7
100
AcDbDimension
  2
*D27
 10
138.801214
 20
18.413831
 30
0.0
 11
138.801214
 21
17.737449
 31
0.0
 12
51.824415
 22
-1.643062
 32
0.0
 70
   160
  3
BODYT
100
AcDbAlignedDimension
 13
139.376434
 23
17.043831
 33
0.0
 14
140.600434
 24
18.413831
 34
0.0
 50
90.0
100
AcDbRotatedDimension
1001
ACAD
1000
DSTYLE
1002
{
1070
    47
1040
0.003
1070
   147
1040
0.18
1070
   287
1070
     3
1070
    42
1040
0.125
1070
    44
1040
0.36
1070
    43
1040
0.18
1070
   141
1040
0.18
1002
}
  0
DIMENSION
  5
125B
100
AcDbEntity
  8
PILLOWBLOCK
 62
     7
100
AcDbDimension
  2
*D28
 10
144.939955
 20
17.043831
 30
0.0
 11
144.324955
 21
16.683831
 31
0.0
 12
46.90087
 22
-2.069174
 32
0.0
 70
    32
  3
BODYT
100
AcDbAlignedDimension
 13
143.626434
 23
17.418831
 33
0.0
 14
143.626434
 24
17.043831
 34
0.0
 50
90.0
100
AcDbRotatedDimension
1001
ACAD
1000
DSTYLE
1002
{
1070
    47
1040
0.003
1070
   147
1040
0.18
1070
   287
1070
     3
1070
    42
1040
0.125
1070
    44
1040
0.36
1070
    43
1040
0.18
1070
   141
1040
0.18
1002
}
  0
DIMENSION
  5
1269
100
AcDbEntity
  8
PILLOWBLOCK
 62
     7
100
AcDbDimension
  2
*D29
 10
145.871345
 20
17.043831
 30
0.0
 11
145.871345
 21
18.418831
 31
0.0
 12
46.90087
 22
-2.069174
 32
0.0
 70
    32
  3
BODYT
100
AcDbAlignedDimension
 13
142.661403
 23
19.793831
 33
0.0
 14
143.626434
 24
17.043831
 34
0.0
 50
90.0
100
AcDbRotatedDimension
1001
ACAD
1000
DSTYLE
1002
{
1070
    47
1040
0.003
1070
   147
1040
0.18
1070
   287
1070
     3
1070
    42
1040
0.125
1070
    44
1040
0.36
1070
    43
1040
0.18
1070
   141
1040
0.18
1002
}
  0
DIMENSION
  5
1277
100
AcDbEntity
  8
PILLOWBLOCK
 62
     7
100
AcDbDimension
  2
*D30
 10
140.251434
 20
20.584796
 30
0.0
 11
141.511354
 21
20.584796
 31
0.0
 12
51.824415
 22
-1.643062
 32
0.0
 70
   160
  3
BODYT
100
AcDbAlignedDimension
 13
142.786403
 23
19.793831
 33
0.0
 14
140.251434
 24
19.656441
 34
0.0
100
AcDbRotatedDimension
1001
ACAD
1000
DSTYLE
1002
{
1070
    47
1040
0.003
1070
   147
1040
0.18
1070
   287
1070
     3
1070
    42
1040
0.125
1070
    44
1040
0.36
1070
    43
1040
0.18
1070
   141
1040
0.18
1002
}
  0
DIMENSION
  5
12A6
100
AcDbEntity
  8
PILLOWBLOCK
 62
     7
100
AcDbDimension
  2
*D31
 10
137.76841
 20
17.043831
 30
0.0
 11
137.76841
 21
18.624061
 31
0.0
 12
51.824415
 22
-1.643062
 32
0.0
 70
    32
  3
BODYT
100
AcDbAlignedDimension
 13
141.223934
 23
20.204292
 33
0.0
 14
139.376434
 24
17.043831
 34
0.0
 50
90.0
100
AcDbRotatedDimension
1001
ACAD
1000
DSTYLE
1002
{
1070
    47
1040
0.003
1070
   147
1040
0.18
1070
   287
1070
     3
1070
    42
1040
0.125
1070
    44
1040
0.36
1070
    43
1040
0.18
1070
   141
1040
0.18
1002
}
  0
DIMENSION
  5
12CC
100
AcDbEntity
  8
PILLOWBLOCK
 62
     7
100
AcDbDimension
  2
*D32
 10
137.355293
 20
27.392895
 30
0.0
 11
137.355293
 21
26.594236
 31
0.0
 12
51.748894
 22
0.434431
 32
0.0
 70
    32
  3
BODYT
100
AcDbAlignedDimension
 13
140.155302
 23
25.795577
 33
0.0
 14
140.223627
 24
27.392895
 34
0.0
 50
90.0
100
AcDbRotatedDimension
1001
ACAD
1000
DSTYLE
1002
{
1070
    47
1040
0.003
1070
   147
1040
0.18
1070
   287
1070
     3
1070
    42
1040
0.125
1070
    44
1040
0.36
1070
    43
1040
0.18
1070
   141
1040
0.18
1002
}
  0
LINE
  5
12D9
100
AcDbEntity
  8
PILLOWBLOCK
 62
     7
100
AcDbLine
 10
140.905302
 20
26.234895
 30
0.0
 11
140.905302
 21
27.234895
 31
0.0
  0
LINE
  5
12DA
100
AcDbEntity
  8
PILLOWBLOCK
 62
     7
100
AcDbLine
 10
141.905302
 20
26.234895
 30
0.0
 11
141.905302
 21
27.234895
 31
0.0
  0
CIRCLE
  5
12DC
100
AcDbEntity
  8
PILLOWBLOCK
 62
     7
100
AcDbCircle
 10
141.405302
 20
26.734895
 30
0.0
 40
0.3125
  0
DIMENSION
  5
1302
100
AcDbEntity
  8
PILLOWBLOCK
 62
     7
100
AcDbDimension
  2
*D33
 10
123.195762
 20
24.774959
 30
0.0
 11
123.952328
 21
24.774959
 31
0.0
 70
   160
  3
BODYT
100
AcDbAlignedDimension
 13
121.405302
 23
25.489705
 33
0.0
 14
123.195762
 24
26.162205
 34
0.0
100
AcDbRotatedDimension
1001
ACAD
1000
DSTYLE
1002
{
1070
    47
1040
0.003
1070
   147
1040
0.18
1070
   287
1070
     3
1070
    42
1040
0.125
1070
    44
1040
0.36
1070
    43
1040
0.18
1070
   141
1040
0.18
1002
}
  0
INSERT
  5
135E
100
AcDbEntity
  8
PILLOWBLOCK
 62
     7
100
AcDbBlockReference
  2
A$C63965B9F
 10
140.379272
 20
27.739297
 30
0.0
  0
TEXT
  5
18F2
100
AcDbEntity
  8
BORDER
  6
CONTINUOUS
 62
     7
100
AcDbText
 10
153.726081
 20
-2.085451
 30
0.0
 40
0.468
  1
A
  7
TXT
 72
     1
 11
153.882081
 21
-2.085451
 31
0.0
100
AcDbText
  0
TEXT
  5
18F3
100
AcDbEntity
  8
BORDER
  6
CONTINUOUS
 62
     7
100
AcDbText
 10
153.726081
 20
7.452015
 30
0.0
 40
0.468
  1
B
  7
TXT
 72
     1
 11
153.882081
 21
7.452015
 31
0.0
100
AcDbText
  0
TEXT
  5
18F4
100
AcDbEntity
  8
BORDER
  6
CONTINUOUS
 62
     7
100
AcDbText
 10
153.726081
 20
17.543984
 30
0.0
 40
0.468
  1
C
  7
TXT
 72
     1
 11
153.882081
 21
17.543984
 31
0.0
100
AcDbText
  0
TEXT
  5
18F5
100
AcDbEntity
  8
BORDER
  6
CONTINUOUS
 62
     7
100
AcDbText
 10
153.726081
 20
27.525052
 30
0.0
 40
0.468
  1
D
  7
TXT
 72
     1
 11
153.882081
 21
27.525052
 31
0.0
100
AcDbText
  0
TEXT
  5
18F6
100
AcDbEntity
  8
BORDER
  6
CONTINUOUS
 62
     7
100
AcDbText
 10
148.477251
 20
-5.886135
 30
0.0
 40
0.468
  1
1
  7
TXT
 72
     1
 11
148.555251
 21
-5.886135
 31
0.0
100
AcDbText
  0
TEXT
  5
18F7
100
AcDbEntity
  8
BORDER
  6
CONTINUOUS
 62
     7
100
AcDbText
 10
135.193154
 20
-5.886135
 30
0.0
 40
0.468
  1
2
  7
TXT
 72
     1
 11
135.349154
 21
-5.886135
 31
0.0
100
AcDbText
  0
TEXT
  5
18F8
100
AcDbEntity
  8
BORDER
  6
CONTINUOUS
 62
     7
100
AcDbText
 10
121.987056
 20
-5.886135
 30
0.0
 40
0.468
  1
3
  7
TXT
 72
     1
 11
122.143056
 21
-5.886135
 31
0.0
100
AcDbText
  0
TEXT
  5
18F9
100
AcDbEntity
  8
BORDER
  6
CONTINUOUS
 62
     7
100
AcDbText
 10
109.00291
 20
-5.886135
 30
0.0
 40
0.468
  1
4
  7
TXT
 72
     1
 11
109.15891
 21
-5.886135
 31
0.0
100
AcDbText
  0
TEXT
  5
18FA
100
AcDbEntity
  8
BORDER
  6
CONTINUOUS
 62
     7
100
AcDbText
 10
102.899251
 20
27.525052
 30
0.0
 40
0.468
  1
D
  7
TXT
 72
     1
 11
103.055251
 21
27.525052
 31
0.0
100
AcDbText
  0
TEXT
  5
18FB
100
AcDbEntity
  8
BORDER
  6
CONTINUOUS
 62
     7
100
AcDbText
 10
102.899251
 20
17.543984
 30
0.0
 40
0.468
  1
C
  7
TXT
 72
     1
 11
103.055251
 21
17.543984
 31
0.0
100
AcDbText
  0
TEXT
  5
18FC
100
AcDbEntity
  8
BORDER
  6
CONTINUOUS
 62
     7
100
AcDbText
 10
102.899251
 20
7.452015
 30
0.0
 40
0.468
  1
B
  7
TXT
 72
     1
 11
103.055251
 21
7.452015
 31
0.0
100
AcDbText
  0
TEXT
  5
18FD
100
AcDbEntity
  8
BORDER
  6
CONTINUOUS
 62
     7
100
AcDbText
 10
102.899251
 20
-2.085451
 30
0.0
 40
0.468
  1
A
  7
TXT
 72
     1
 11
103.055251
 21
-2.085451
 31
0.0
100
AcDbText
  0
TEXT
  5
18FE
100
AcDbEntity
  8
BORDER
  6
CONTINUOUS
 62
     7
100
AcDbText
 10
109.00291
 20
31.184777
 30
0.0
 40
0.468
  1
4
  7
TXT
 72
     1
 11
109.15891
 21
31.184777
 31
0.0
100
AcDbText
  0
TEXT
  5
18FF
100
AcDbEntity
  8
BORDER
  6
CONTINUOUS
 62
     7
100
AcDbText
 10
121.987056
 20
31.184777
 30
0.0
 40
0.468
  1
3
  7
TXT
 72
     1
 11
122.143056
 21
31.184777
 31
0.0
100
AcDbText
  0
TEXT
  5
1900
100
AcDbEntity
  8
BORDER
  6
CONTINUOUS
 62
     7
100
AcDbText
 10
135.193154
 20
31.184777
 30
0.0
 40
0.468
  1
2
  7
TXT
 72
     1
 11
135.349154
 21
31.184777
 31
0.0
100
AcDbText
  0
TEXT
  5
1901
100
AcDbEntity
  8
BORDER
  6
CONTINUOUS
 62
     7
100
AcDbText
 10
148.555251
 20
31.184777
 30
0.0
 40
0.468
  1
1
  7
TXT
100
AcDbText
  0
LWPOLYLINE
  5
1902
100
AcDbEntity
  8
BORDER
  6
CONTINUOUS
 62
     7
100
AcDbPolyline
 90
        4
 70
     1
 43
0.026
 10
153.153716
 20
-4.637337
 10
103.783677
 20
-4.637337
 10
103.783677
 20
30.423294
 10
153.153716
 20
30.423294
  0
LWPOLYLINE
  5
1903
100
AcDbEntity
  8
BORDER
  6
CONTINUOUS
 62
     7
100
AcDbPolyline
 90
        4
 70
     1
 43
0.026
 10
154.453716
 20
-6.587337
 10
102.483677
 20
-6.587337
 10
102.483677
 20
32.373294
 10
154.453716
 20
32.373294
  0
LWPOLYLINE
  5
1904
100
AcDbEntity
  8
BORDER
 62
     7
100
AcDbPolyline
 90
        2
 70
     0
 43
0.026
 10
153.153716
 20
-4.637337
 10
131.872319
 20
-4.637337
  0
LWPOLYLINE
  5
1905
100
AcDbEntity
  8
BORDER
 62
     7
100
AcDbPolyline
 90
        2
 70
     0
 43
0.026
 10
153.153716
 20
-4.637337
 10
153.153716
 20
0.886006
  0
LWPOLYLINE
  5
1906
100
AcDbEntity
  8
BORDER
 62
     7
100
AcDbPolyline
 90
        2
 70
     0
 43
0.052
 10
128.474484
 20
31.0833
 10
128.474484
 20
30.8233
  0
SOLID
  5
1907
100
AcDbEntity
  8
BORDER
 62
     7
100
AcDbTrace
 10
128.084484
 20
30.8233
 30
0.0
 11
128.864484
 21
30.8233
 31
0.0
 12
128.474484
 22
30.4333
 32
0.0
 13
128.474484
 23
30.4333
 33
0.0
  0
LWPOLYLINE
  5
1908
100
AcDbEntity
  8
BORDER
 62
     7
100
AcDbPolyline
 90
        2
 70
     0
 43
0.052
 10
128.473216
 20
-5.291838
 10
128.473216
 20
-5.031838
  0
SOLID
  5
1909
100
AcDbEntity
  8
BORDER
 62
     7
100
AcDbTrace
 10
128.083216
 20
-5.031838
 30
0.0
 11
128.863216
 21
-5.031838
 31
0.0
 12
128.473216
 22
-4.641838
 32
0.0
 13
128.473216
 23
-4.641838
 33
0.0
  0
SOLID
  5
190A
100
AcDbEntity
  8
BORDER
 62
     7
100
AcDbTrace
 10
103.382143
 20
12.494089
 30
0.0
 11
103.382143
 21
13.274089
 31
0.0
 12
103.772143
 22
12.884089
 32
0.0
 13
103.772143
 23
12.884089
 33
0.0
  0
LWPOLYLINE
  5
190B
100
AcDbEntity
  8
BORDER
 62
     7
100
AcDbPolyline
 90
        2
 70
     0
 43
0.052
 10
103.122143
 20
12.884089
 10
103.382143
 20
12.884089
  0
SOLID
  5
190C
100
AcDbEntity
  8
BORDER
 62
     7
100
AcDbTrace
 10
153.54408
 20
12.49729
 30
0.0
 11
153.54408
 21
13.27729
 31
0.0
 12
153.15408
 22
12.88729
 32
0.0
 13
153.15408
 23
12.88729
 33
0.0
  0
LWPOLYLINE
  5
190D
100
AcDbEntity
  8
BORDER
 62
     7
100
AcDbPolyline
 90
        2
 70
     0
 43
0.052
 10
153.80408
 20
12.88729
 10
153.54408
 20
12.88729
  0
TEXT
  5
190E
100
AcDbEntity
  8
0
  6
CONTINUOUS
 62
     7
100
AcDbText
 10
186.49715
 20
2.963303
 30
0.0
 40
0.2
  1

  7
ROMANT
100
AcDbText
  0
TEXT
  5
190F
100
AcDbEntity
  8
0
  6
CONTINUOUS
 62
     7
100
AcDbText
 10
185.821476
 20
2.472235
 30
0.0
 40
0.2
  1

  7
ROMANT
100
AcDbText
  0
TEXT
  5
1910
100
AcDbEntity
  8
0
  6
CONTINUOUS
 62
     7
100
AcDbText
 10
187.500424
 20
1.428715
 30
0.0
 40
0.2
  1

  7
ROMANT
100
AcDbText
  0
TEXT
  5
1933
100
AcDbEntity
  8
3
 62
     7
100
AcDbText
 10
93.956259
 20
-1.92947
 30
0.0
 40
0.177782
  1

  7
ITALICC
100
AcDbText
  0
TEXT
  5
1934
100
AcDbEntity
  8
3
 62
     7
100
AcDbText
 10
93.734031
 20
-1.485015
 30
0.0
 40
0.177782
  1

  7
ITALICC
100
AcDbText
  0
TEXT
  5
1935
100
AcDbEntity
  8
3
 62
     7
100
AcDbText
 10
93.867368
 20
-1.707242
 30
0.0
 40
0.177782
  1

  7
ITALICC
100
AcDbText
  0
LWPOLYLINE
  5
1936
100
AcDbEntity
  8
BORDER
 62
     7
100
AcDbPolyline
 90
        2
 70
     0
 43
0.026
 10
153.153716
 20
-4.637337
 10
135.546167
 20
-4.637337
  0
TEXT
  5
1937
100
AcDbEntity
  8
BORDER
 62
     7
100
AcDbText
 10
147.702347
 20
-4.443325
 30
0.0
 40
0.39
  1
823-0697
 41
1.253536
  7
ROMANS
 72
     5
 11
151.496979
 21
-4.443325
 31
0.0
100
AcDbText
  0
LWPOLYLINE
  5
1938
100
AcDbEntity
  8
BORDER
 62
     7
100
AcDbPolyline
 90
        2
 70
     0
 43
0.026
 10
153.153716
 20
-4.637337
 10
153.153716
 20
-0.114285
  0
LWPOLYLINE
  5
1939
100
AcDbEntity
  8
BORDER
  6
CONTINUOUS
 62
     7
100
AcDbPolyline
 90
        2
 70
     0
 43
0.026
 10
141.468666
 20
-4.663848
 10
141.468666
 20
-6.587337
  0
LWPOLYLINE
  5
193A
100
AcDbEntity
  8
BORDER
  6
CONTINUOUS
 62
     7
100
AcDbPolyline
 90
        2
 70
     0
 43
0.026
 10
115.468666
 20
-4.663848
 10
115.468666
 20
-6.587337
  0
LWPOLYLINE
  5
193B
100
AcDbEntity
  8
BORDER
  6
CONTINUOUS
 62
     7
100
AcDbPolyline
 90
        2
 70
     0
 43
0.026
 10
102.468666
 20
3.136152
 10
103.768666
 20
3.136152
  0
LWPOLYLINE
  5
193C
100
AcDbEntity
  8
BORDER
  6
CONTINUOUS
 62
     7
100
AcDbPolyline
 90
        2
 70
     0
 43
0.026
 10
102.468666
 20
22.636152
 10
103.768666
 20
22.636152
  0
LWPOLYLINE
  5
193E
100
AcDbEntity
  8
BORDER
  6
CONTINUOUS
 62
     7
100
AcDbPolyline
 90
        2
 70
     0
 43
0.026
 10
141.468666
 20
32.373294
 10
141.468666
 20
30.436152
  0
LWPOLYLINE
  5
193F
100
AcDbEntity
  8
BORDER
  6
CONTINUOUS
 62
     7
100
AcDbPolyline
 90
        2
 70
     0
 43
0.026
 10
153.168666
 20
22.636152
 10
154.468666
 20
22.636152
  0
LWPOLYLINE
  5
1940
100
AcDbEntity
  8
BORDER
  6
CONTINUOUS
 62
     7
100
AcDbPolyline
 90
        2
 70
     0
 43
0.026
 10
153.168666
 20
3.136152
 10
154.468666
 20
3.136152
  0
LINE
  5
1942
100
AcDbEntity
  8
BORDER
 62
     7
100
AcDbLine
 10
139.25491
 20
-1.910113
 30
0.0
 11
139.624387
 21
-1.263541
 31
0.0
  0
TEXT
  5
1943
100
AcDbEntity
  8
BORDER
 62
     7
100
AcDbText
 10
137.278949
 20
-0.179767
 30
0.0
 40
0.15716
  1
INCHES AND / OR (MM).
100
AcDbText
  0
TEXT
  5
1944
100
AcDbEntity
  8
BORDER
 62
     7
100
AcDbText
 10
137.452849
 20
0.089341
 30
0.0
 40
0.15716
  1
DIMENSIONS ARE IN:
100
AcDbText
  0
TEXT
  5
1945
100
AcDbEntity
  8
BORDER
 62
     7
100
AcDbText
 10
137.341876
 20
-0.447778
 30
0.0
 40
0.15716
  1
DO NOT SCALE PRINT.
100
AcDbText
  0
TEXT
  5
1946
100
AcDbEntity
  8
BORDER
 62
     7
100
AcDbText
 10
137.612891
 20
-0.883574
 30
0.0
 40
0.15716
  1
UNLESS OTHERWISE
 41
0.95
100
AcDbText
  0
TEXT
  5
1947
100
AcDbEntity
  8
BORDER
 62
     7
100
AcDbText
 10
137.072871
 20
-1.156509
 30
0.0
 40
0.15716
  1
SPECIFIED SURFACE FINISH
 41
0.95
100
AcDbText
  0
TEXT
  5
1948
100
AcDbEntity
  8
BORDER
 62
     7
100
AcDbText
 10
137.607035
 20
-2.315275
 30
0.0
 40
0.15716
  1
UNLESS OTHERWISE
 41
0.95
100
AcDbText
  0
TEXT
  5
1949
100
AcDbEntity
  8
BORDER
 62
     7
100
AcDbText
 10
139.135522
 20
-4.544175
 30
0.0
 40
0.1638
  1
1.0%%D
  7
TXT
100
AcDbText
  0
TEXT
  5
194A
100
AcDbEntity
  8
BORDER
 62
     7
100
AcDbText
 10
139.272779
 20
-4.099203
 30
0.0
 40
0.1638
  1
ON DRW.
  7
TXT
100
AcDbText
  0
TEXT
  5
194B
100
AcDbEntity
  8
BORDER
 62
     7
100
AcDbText
 10
137.030372
 20
-2.577208
 30
0.0
 40
0.15716
  1
SPECIFIED TOLERANCES ARE
 41
0.95
100
AcDbText
  0
LWPOLYLINE
  5
194C
100
AcDbEntity
  8
BORDER
 62
     7
100
AcDbPolyline
 90
        2
 70
     0
 43
0.026
 10
143.250553
 20
-2.064285
 10
136.896598
 20
-2.064285
  0
LWPOLYLINE
  5
194D
100
AcDbEntity
  8
BORDER
 62
     7
100
AcDbPolyline
 90
        2
 70
     0
 43
0.026
 10
153.153716
 20
-4.637337
 10
135.546167
 20
-4.637337
  0
LWPOLYLINE
  5
194E
100
AcDbEntity
  8
BORDER
 62
     7
100
AcDbPolyline
 90
        2
 70
     0
 43
0.026
 10
153.153716
 20
0.36908
 10
134.195735
 20
0.36908
  0
LWPOLYLINE
  5
194F
100
AcDbEntity
  8
BORDER
 62
     7
100
AcDbPolyline
 90
        2
 70
     0
 43
0.026
 10
153.153716
 20
-0.601785
 10
136.896598
 20
-0.601785
  0
LWPOLYLINE
  5
1950
100
AcDbEntity
  8
BORDER
 62
     7
100
AcDbPolyline
 90
        2
 70
     0
 43
0.026
 10
136.896598
 20
-4.637337
 10
136.896598
 20
0.36908
  0
LWPOLYLINE
  5
1951
100
AcDbEntity
  8
BORDER
 62
     7
100
AcDbPolyline
 90
        2
 70
     0
 43
0.026
 10
136.221383
 20
0.36908
 10
136.221383
 20
-4.637337
  0
LWPOLYLINE
  5
1952
100
AcDbEntity
  8
BORDER
 62
     7
100
AcDbPolyline
 90
        2
 70
     0
 43
0.026
 10
135.546167
 20
0.36908
 10
135.546167
 20
-4.637337
  0
TEXT
  5
1953
100
AcDbEntity
  8
BORDER
 62
     7
100
AcDbText
 10
135.992219
 20
-3.016067
 30
0.0
 40
0.231117
  1
07/10/97
 50
90.0
 41
1.25
 72
     1
 11
135.992219
 21
-2.00493
 31
0.0
100
AcDbText
  0
TEXT
  5
1954
100
AcDbEntity
  8
BORDER
 62
     7
100
AcDbText
 10
137.091603
 20
-3.455037
 30
0.0
 40
0.1738
  1
X.X
100
AcDbText
  0
TEXT
  5
1955
100
AcDbEntity
  8
BORDER
 62
     7
100
AcDbText
 10
137.091603
 20
-3.782065
 30
0.0
 40
0.1738
  1
X.XX
100
AcDbText
  0
TEXT
  5
1956
100
AcDbEntity
  8
BORDER
 62
     7
100
AcDbText
 10
137.091603
 20
-4.094929
 30
0.0
 40
0.1738
  1
X.XXX
100
AcDbText
  0
LWPOLYLINE
  5
1957
100
AcDbEntity
  8
BORDER
 62
     7
100
AcDbPolyline
 90
        2
 70
     0
 43
0.026
 10
136.896598
 20
-3.376537
 10
135.546167
 20
-3.376537
  0
TEXT
  5
1958
100
AcDbEntity
  8
BORDER
 62
     7
100
AcDbText
 10
135.992219
 20
-4.331755
 30
0.0
 40
0.231117
  1
612
 50
90.0
 41
1.25
 72
     1
 11
135.992219
 21
-3.99471
 31
0.0
100
AcDbText
  0
TEXT
  5
1959
100
AcDbEntity
  8
BORDER
 62
     7
100
AcDbText
 10
136.667434
 20
-4.342103
 30
0.0
 40
0.231117
  1
ECO
 50
90.0
 41
1.25
 72
     1
 11
136.667434
 21
-3.956908
 31
0.0
100
AcDbText
  0
TEXT
  5
195A
100
AcDbEntity
  8
BORDER
 62
     7
100
AcDbText
 10
137.091603
 20
-3.15864
 30
0.0
 40
0.1738
  1
X
100
AcDbText
  0
TEXT
  5
195B
100
AcDbEntity
  8
BORDER
 62
     7
100
AcDbText
 10
136.667434
 20
-2.571415
 30
0.0
 40
0.231117
  1
DATE
 50
90.0
 41
1.25
 72
     1
 11
136.667434
 21
-2.041772
 31
0.0
100
AcDbText
  0
LINE
  5
195C
100
AcDbEntity
  8
BORDER
 62
     7
100
AcDbLine
 10
139.041154
 20
-2.640738
 30
0.0
 11
139.041154
 21
-4.268349
 31
0.0
  0
LINE
  5
195D
100
AcDbEntity
  8
BORDER
 62
     7
100
AcDbLine
 10
137.830115
 20
-2.631906
 30
0.0
 11
137.830115
 21
-4.268349
 31
0.0
  0
LINE
  5
195E
100
AcDbEntity
  8
BORDER
 62
     7
100
AcDbLine
 10
138.232786
 20
-4.552666
 30
0.0
 11
138.579461
 21
-4.552666
 31
0.0
  0
LINE
  5
195F
100
AcDbEntity
  8
BORDER
 62
     7
100
AcDbLine
 10
138.232786
 20
-4.552666
 30
0.0
 11
138.530002
 21
-4.354524
 31
0.0
  0
TEXT
  5
1960
100
AcDbEntity
  8
BORDER
 62
     7
100
AcDbText
 10
137.942223
 20
-3.167197
 30
0.0
 40
0.1638
  1
ON DRW
  7
TXT
100
AcDbText
  0
TEXT
  5
1961
100
AcDbEntity
  8
BORDER
 62
     7
100
AcDbText
 10
138.332537
 20
-3.463594
 30
0.0
 40
0.1638
  1
0.04
  7
TXT
100
AcDbText
  0
TEXT
  5
1962
100
AcDbEntity
  8
BORDER
 62
     7
100
AcDbText
 10
138.332537
 20
-4.099203
 30
0.0
 40
0.1638
  1
0.005
  7
TXT
100
AcDbText
  0
TEXT
  5
1963
100
AcDbEntity
  8
BORDER
 62
     7
100
AcDbText
 10
138.332537
 20
-3.790622
 30
0.0
 40
0.1638
  1
0.02
  7
TXT
100
AcDbText
  0
LINE
  5
1964
100
AcDbEntity
  8
BORDER
 62
     7
100
AcDbLine
 10
137.965687
 20
-3.753175
 30
0.0
 11
138.139024
 21
-3.753175
 31
0.0
  0
LINE
  5
1965
100
AcDbEntity
  8
BORDER
 62
     7
100
AcDbLine
 10
137.965687
 20
-4.066039
 30
0.0
 11
138.139024
 21
-4.066039
 31
0.0
  0
LINE
  5
1966
100
AcDbEntity
  8
BORDER
 62
     7
100
AcDbLine
 10
137.965687
 20
-3.97937
 30
0.0
 11
138.139024
 21
-3.97937
 31
0.0
  0
LINE
  5
1967
100
AcDbEntity
  8
BORDER
 62
     7
100
AcDbLine
 10
138.052365
 20
-4.03715
 30
0.0
 11
138.052365
 21
-3.921591
 31
0.0
  0
LINE
  5
1968
100
AcDbEntity
  8
BORDER
 62
     7
100
AcDbLine
 10
138.052365
 20
-3.397258
 30
0.0
 11
138.052365
 21
-3.281699
 31
0.0
  0
LINE
  5
1969
100
AcDbEntity
  8
BORDER
 62
     7
100
AcDbLine
 10
137.965687
 20
-3.666506
 30
0.0
 11
138.139024
 21
-3.666506
 31
0.0
  0
LINE
  5
196A
100
AcDbEntity
  8
BORDER
 62
     7
100
AcDbLine
 10
137.965687
 20
-3.426147
 30
0.0
 11
138.139024
 21
-3.426147
 31
0.0
  0
LINE
  5
196B
100
AcDbEntity
  8
BORDER
 62
     7
100
AcDbLine
 10
137.965687
 20
-3.339479
 30
0.0
 11
138.139024
 21
-3.339479
 31
0.0
  0
LINE
  5
196C
100
AcDbEntity
  8
BORDER
 62
     7
100
AcDbLine
 10
138.052365
 20
-3.724286
 30
0.0
 11
138.052365
 21
-3.608727
 31
0.0
  0
LINE
  5
196D
100
AcDbEntity
  8
BORDER
 62
     7
100
AcDbLine
 10
138.76485
 20
-4.436624
 30
0.0
 11
138.938188
 21
-4.436624
 31
0.0
  0
LINE
  5
196E
100
AcDbEntity
  8
BORDER
 62
     7
100
AcDbLine
 10
138.76485
 20
-4.523292
 30
0.0
 11
138.938188
 21
-4.523292
 31
0.0
  0
ARC
  5
196F
100
AcDbEntity
  8
BORDER
 62
     7
100
AcDbCircle
 10
138.298257
 20
-4.528104
 30
0.0
 40
0.192545
100
AcDbArc
 50
345.5425
 51
56.88544
  0
LINE
  5
1970
100
AcDbEntity
  8
BORDER
 62
     7
100
AcDbLine
 10
138.851528
 20
-4.494403
 30
0.0
 11
138.851528
 21
-4.378844
 31
0.0
  0
LINE
  5
1971
100
AcDbEntity
  8
BORDER
 62
     7
100
AcDbLine
 10
139.272831
 20
-3.753175
 30
0.0
 11
139.446169
 21
-3.753175
 31
0.0
  0
LINE
  5
1972
100
AcDbEntity
  8
BORDER
 62
     7
100
AcDbLine
 10
139.359509
 20
-3.397258
 30
0.0
 11
139.359509
 21
-3.281699
 31
0.0
  0
LINE
  5
1973
100
AcDbEntity
  8
BORDER
 62
     7
100
AcDbLine
 10
139.272831
 20
-3.339479
 30
0.0
 11
139.446169
 21
-3.339479
 31
0.0
  0
LINE
  5
1974
100
AcDbEntity
  8
BORDER
 62
     7
100
AcDbLine
 10
139.272831
 20
-3.426147
 30
0.0
 11
139.446169
 21
-3.426147
 31
0.0
  0
LINE
  5
1975
100
AcDbEntity
  8
BORDER
 62
     7
100
AcDbLine
 10
139.359509
 20
-3.724286
 30
0.0
 11
139.359509
 21
-3.608727
 31
0.0
  0
LINE
  5
1976
100
AcDbEntity
  8
BORDER
 62
     7
100
AcDbLine
 10
139.272831
 20
-3.666506
 30
0.0
 11
139.446169
 21
-3.666506
 31
0.0
  0
LINE
  5
1977
100
AcDbEntity
  8
BORDER
 62
     7
100
AcDbLine
 10
139.272831
 20
-3.043082
 30
0.0
 11
139.446169
 21
-3.043082
 31
0.0
  0
LINE
  5
1978
100
AcDbEntity
  8
BORDER
 62
     7
100
AcDbLine
 10
139.272831
 20
-3.12975
 30
0.0
 11
139.446169
 21
-3.12975
 31
0.0
  0
LINE
  5
1979
100
AcDbEntity
  8
BORDER
 62
     7
100
AcDbLine
 10
139.359509
 20
-3.100861
 30
0.0
 11
139.359509
 21
-2.985302
 31
0.0
  0
TEXT
  5
197A
100
AcDbEntity
  8
BORDER
 62
     7
100
AcDbText
 10
137.622083
 20
-1.422188
 30
0.0
 40
0.15716
  1
SHALL BE:
 41
0.95
100
AcDbText
  0
TEXT
  5
197B
100
AcDbEntity
  8
BORDER
 62
     7
100
AcDbText
 10
138.020428
 20
-2.839758
 30
0.0
 40
0.15716
  1
INCH
100
AcDbText
  0
LINE
  5
197C
100
AcDbEntity
  8
BORDER
 62
     7
100
AcDbLine
 10
139.25491
 20
-1.910113
 30
0.0
 11
139.056815
 21
-1.563437
 31
0.0
  0
TEXT
  5
197D
100
AcDbEntity
  8
BORDER
 62
     7
100
AcDbText
 10
139.120457
 20
-1.635752
 30
0.0
 40
0.1638
  1
32
  7
TXT
 72
     1
 11
139.256957
 21
-1.635752
 31
0.0
100
AcDbText
  0
LWPOLYLINE
  5
197E
100
AcDbEntity
  8
BORDER
 62
     7
100
AcDbPolyline
 90
        2
 70
     0
 43
0.026
 10
135.546167
 20
-0.802039
 10
136.896598
 20
-0.802039
  0
TEXT
  5
197F
100
AcDbEntity
  8
BORDER
 62
     7
100
AcDbText
 10
135.992219
 20
-0.363707
 30
0.0
 40
0.231117
  1
A
 50
90.0
 41
1.25
 72
     1
 11
135.992219
 21
-0.267408
 31
0.0
100
AcDbText
  0
TEXT
  5
1980
100
AcDbEntity
  8
BORDER
 62
     7
100
AcDbText
 10
136.667434
 20
-0.700752
 30
0.0
 40
0.231117
  1
REV
 50
90.0
 41
1.25
 72
     1
 11
136.667434
 21
-0.267408
 31
0.0
100
AcDbText
  0
TEXT
  5
1981
100
AcDbEntity
  8
BORDER
 62
     7
100
AcDbText
 10
147.915775
 20
-3.344387
 30
0.0
 40
0.181498
  1
SCALE:
  7
ROMANS
100
AcDbText
  0
TEXT
  5
1982
100
AcDbEntity
  8
BORDER
 62
     7
100
AcDbText
 10
146.87225
 20
-0.467881
 30
0.0
 40
0.156
  1
217 PICKERING RD.
 41
0.9
100
AcDbText
  0
LWPOLYLINE
  5
1983
100
AcDbEntity
  8
BORDER
 62
     7
100
AcDbPolyline
 90
        2
 70
     0
 43
0.026
 10
153.153716
 20
-3.857337
 10
146.775693
 20
-3.857337
  0
LWPOLYLINE
  5
1984
100
AcDbEntity
  8
BORDER
 62
     7
100
AcDbPolyline
 90
        2
 70
     0
 43
0.026
 10
153.153716
 20
-3.077337
 10
146.775693
 20
-3.077337
  0
TEXT
  5
1985
100
AcDbEntity
  8
BORDER
 62
     7
100
AcDbText
 10
146.8276
 20
-0.118818
 30
0.0
 40
0.312
  1
DOVER FLEXO ELECTRONICS
 41
0.9
  7
ROMANC
100
AcDbText
  0
LWPOLYLINE
  5
1986
100
AcDbEntity
  8
BORDER
 62
     7
100
AcDbPolyline
 90
        2
 70
     0
 43
0.026
 10
146.775693
 20
0.36908
 10
146.775693
 20
-4.637337
  0
LWPOLYLINE
  5
1987
100
AcDbEntity
  8
BORDER
 62
     7
100
AcDbPolyline
 90
        2
 70
     0
 43
0.026
 10
144.900246
 20
-2.551785
 10
144.900246
 20
0.36908
  0
LWPOLYLINE
  5
1988
100
AcDbEntity
  8
BORDER
 62
     7
100
AcDbPolyline
 90
        2
 70
     0
 43
0.026
 10
143.250553
 20
-4.637337
 10
143.250553
 20
0.36908
  0
LWPOLYLINE
  5
1989
100
AcDbEntity
  8
BORDER
 62
     7
100
AcDbPolyline
 90
        2
 70
     0
 43
0.026
 10
143.668095
 20
-2.551785
 10
143.668095
 20
-1.089285
  0
LWPOLYLINE
  5
198A
100
AcDbEntity
  8
BORDER
 62
     7
100
AcDbPolyline
 90
        2
 70
     0
 43
0.026
 10
140.595819
 20
0.36908
 10
140.595819
 20
-4.637337
  0
TEXT
  5
198B
100
AcDbEntity
  8
BORDER
 62
     7
100
AcDbText
 10
143.721079
 20
-1.375019
 30
0.0
 40
0.15716
  1
ENG
100
AcDbText
  0
TEXT
  5
198C
100
AcDbEntity
  8
BORDER
 62
     7
100
AcDbText
 10
143.316624
 20
-3.76782
 30
0.0
 40
0.15716
  1
FINISH
100
AcDbText
  0
TEXT
  5
198D
100
AcDbEntity
  8
BORDER
 62
     7
100
AcDbText
 10
143.316624
 20
-2.783225
 30
0.0
 40
0.15716
  1
MAT'L
100
AcDbText
  0
LWPOLYLINE
  5
198E
100
AcDbEntity
  8
BORDER
 62
     7
100
AcDbPolyline
 90
        2
 70
     0
 43
0.026
 10
146.775693
 20
-3.526785
 10
140.595819
 20
-3.526785
  0
LWPOLYLINE
  5
198F
100
AcDbEntity
  8
BORDER
 62
     7
100
AcDbPolyline
 90
        2
 70
     0
 43
0.026
 10
146.775693
 20
-1.576785
 10
143.668095
 20
-1.576785
  0
LWPOLYLINE
  5
1990
100
AcDbEntity
  8
BORDER
 62
     7
100
AcDbPolyline
 90
        2
 70
     0
 43
0.026
 10
146.775693
 20
-2.062217
 10
143.668095
 20
-2.062217
  0
LWPOLYLINE
  5
1991
100
AcDbEntity
  8
BORDER
 62
     7
100
AcDbPolyline
 90
        2
 70
     0
 43
0.026
 10
146.775693
 20
-2.551785
 10
140.595819
 20
-2.551785
  0
TEXT
  5
1992
100
AcDbEntity
  8
BORDER
 62
     7
100
AcDbText
 10
141.437657
 20
-1.397308
 30
0.0
 40
0.15716
  1
USED ON
100
AcDbText
  0
TEXT
  5
1993
100
AcDbEntity
  8
BORDER
 62
     7
100
AcDbText
 10
141.538147
 20
-2.925585
 30
0.0
 40
0.26
  1
RFA0
 41
0.77
  7
ROMANS
 72
     1
 11
141.909947
 21
-2.925585
 31
0.0
100
AcDbText
  0
TEXT
  5
1994
100
AcDbEntity
  8
BORDER
 62
     4
100
AcDbText
 10
139.03135
 20
1.703447
 30
0.0
 40
0.2
  1

 41
0.77
  7
ROMANS
 72
     1
 11
139.03135
 21
1.703447
 31
0.0
100
AcDbText
  0
LWPOLYLINE
  5
1995
100
AcDbEntity
  8
BORDER
 62
     7
100
AcDbPolyline
 90
        2
 70
     0
 43
0.026
 10
143.250553
 20
-4.014285
 10
140.595819
 20
-4.014285
  0
LWPOLYLINE
  5
1996
100
AcDbEntity
  8
BORDER
 62
     7
100
AcDbPolyline
 90
        2
 70
     0
 43
0.026
 10
143.250553
 20
-3.039285
 10
140.595819
 20
-3.039285
  0
TEXT
  5
1997
100
AcDbEntity
  8
BORDER
 62
     7
100
AcDbText
 10
139.873862
 20
-3.790622
 30
0.0
 40
0.1638
  1
0.05
  7
TXT
100
AcDbText
  0
TEXT
  5
1998
100
AcDbEntity
  8
BORDER
 62
     7
100
AcDbText
 10
139.897817
 20
-3.463594
 30
0.0
 40
0.1638
  1
0.1
  7
TXT
100
AcDbText
  0
TEXT
  5
1999
100
AcDbEntity
  8
BORDER
 62
     7
100
AcDbText
 10
139.897817
 20
-3.167197
 30
0.0
 40
0.1638
  1
1.0
  7
TXT
100
AcDbText
  0
TEXT
  5
199A
100
AcDbEntity
  8
BORDER
 62
     7
100
AcDbText
 10
140.670276
 20
-4.267068
 30
0.0
 40
0.15716
  1
REF.
100
AcDbText
  0
TEXT
  5
199B
100
AcDbEntity
  8
BORDER
 62
     7
100
AcDbText
 10
139.51112
 20
-2.839758
 30
0.0
 40
0.15716
  1
(mm)
100
AcDbText
  0
LINE
  5
199C
100
AcDbEntity
  8
BORDER
 62
     7
100
AcDbLine
 10
139.971063
 20
-1.263541
 30
0.0
 11
139.624387
 21
-1.263541
 31
0.0
  0
TEXT
  5
199D
100
AcDbEntity
  8
BORDER
 62
     7
100
AcDbText
 10
143.547741
 20
-2.234846
 30
0.0
 40
0.157144
  1
APP'D
 50
90.0
 41
1.25
100
AcDbText
  0
TEXT
  5
199E
100
AcDbEntity
  8
BORDER
 62
     7
100
AcDbText
 10
144.676223
 20
-3.164268
 30
0.0
 40
0.39
  1
N/A
 41
0.77
  7
ROMANS
 72
     1
 11
145.140973
 21
-3.164268
 31
0.0
100
AcDbText
  0
TEXT
  5
199F
100
AcDbEntity
  8
BORDER
 62
     7
100
AcDbText
 10
144.676223
 20
-4.27482
 30
0.0
 40
0.39
  1
N/A
 41
0.77
  7
ROMANS
 72
     1
 11
145.140973
 21
-4.27482
 31
0.0
100
AcDbText
  0
TEXT
  5
19A0
100
AcDbEntity
  8
BORDER
 62
     7
100
AcDbText
 10
147.172926
 20
-3.706174
 30
0.0
 40
0.26
  1
C
  7
ROMANT
100
AcDbText
  0
TEXT
  5
19A1
100
AcDbEntity
  8
BORDER
 62
     7
100
AcDbText
 10
147.011821
 20
-3.312869
 30
0.0
 40
0.13867
  1
SIZE
 41
1.25
100
AcDbText
  0
TEXT
  5
19A2
100
AcDbEntity
  8
BORDER
 62
     7
100
AcDbText
 10
146.934437
 20
-4.17615
 30
0.0
 40
0.15716
  1
DWG
100
AcDbText
  0
TEXT
  5
19A3
100
AcDbEntity
  8
BORDER
 62
     7
100
AcDbText
 10
147.016752
 20
-4.438083
 30
0.0
 40
0.15716
  1
NO
100
AcDbText
  0
LWPOLYLINE
  5
19A4
100
AcDbEntity
  8
BORDER
 62
     7
100
AcDbPolyline
 90
        2
 70
     0
 43
0.026
 10
147.820178
 20
-3.077337
 10
147.820178
 20
-3.857337
  0
TEXT
  5
19A5
100
AcDbEntity
  8
BORDER
 62
     7
100
AcDbText
 10
144.016087
 20
0.030065
 30
0.0
 40
0.26
  1
M.N.
 41
0.77
  7
ROMANS
 72
     1
 11
144.330687
 21
0.030065
 31
0.0
100
AcDbText
  0
LWPOLYLINE
  5
19A6
100
AcDbEntity
  8
BORDER
 62
     7
100
AcDbPolyline
 90
        2
 70
     0
 43
0.026
 10
146.775693
 20
-1.089285
 10
140.595819
 20
-1.089285
  0
LWPOLYLINE
  5
19A7
100
AcDbEntity
  8
BORDER
 62
     7
100
AcDbPolyline
 90
        2
 70
     0
 43
0.026
 10
146.782688
 20
-0.114285
 10
143.250553
 20
-0.114285
  0
TEXT
  5
19A8
100
AcDbEntity
  8
BORDER
 62
     7
100
AcDbText
 10
140.757359
 20
-0.449296
 30
0.0
 40
0.15716
  1
ANSI Y14.5, 1982
 41
1.1
100
AcDbText
  0
TEXT
  5
19A9
100
AcDbEntity
  8
BORDER
 62
     7
100
AcDbText
 10
140.896899
 20
0.090479
 30
0.0
 40
0.15716
  1
SYMBOLS ARE IN
 41
0.95
100
AcDbText
  0
TEXT
  5
19AA
100
AcDbEntity
  8
BORDER
 62
     7
100
AcDbText
 10
140.660552
 20
-0.181951
 30
0.0
 40
0.15716
  1
ACCORDANCE WITH
 41
1.1
100
AcDbText
  0
TEXT
  5
19AB
100
AcDbEntity
  8
BORDER
 62
     7
100
AcDbText
 10
143.316624
 20
-0.411273
 30
0.0
 40
0.15716
  1
RV
100
AcDbText
  0
TEXT
  5
19AC
100
AcDbEntity
  8
BORDER
 62
     7
100
AcDbText
 10
143.316624
 20
-0.889673
 30
0.0
 40
0.15716
  1
CHK
100
AcDbText
  0
TEXT
  5
19AD
100
AcDbEntity
  8
BORDER
 62
     7
100
AcDbText
 10
143.316624
 20
0.079734
 30
0.0
 40
0.15716
  1
DR
100
AcDbText
  0
TEXT
  5
19AE
100
AcDbEntity
  8
BORDER
 62
     7
100
AcDbText
 10
144.977342
 20
0.030065
 30
0.0
 40
0.26
  1
02/18/97
 41
0.856009
  7
ROMANS
 72
     5
 11
146.683654
 21
0.030065
 31
0.0
100
AcDbText
  0
TEXT
  5
19AF
100
AcDbEntity
  8
BORDER
 62
     7
100
AcDbText
 10
146.898938
 20
-1.008608
 30
0.0
 40
0.15716
  1
TITLE
100
AcDbText
  0
LWPOLYLINE
  5
19B0
100
AcDbEntity
  8
BORDER
 62
     7
100
AcDbPolyline
 90
        2
 70
     0
 43
0.026
 10
153.153716
 20
-4.637337
 10
153.153716
 20
-0.114285
  0
TEXT
  5
19B1
100
AcDbEntity
  8
BORDER
 62
     7
100
AcDbText
 10
148.811823
 20
-1.433515
 30
0.0
 40
0.39
  1
OUTLINE 
 41
0.77
  7
ROMANS
 72
     1
 11
149.862873
 21
-1.433515
 31
0.0
100
AcDbText
  0
LWPOLYLINE
  5
19B2
100
AcDbEntity
  8
BORDER
 62
     7
100
AcDbPolyline
 90
        2
 70
     0
 43
0.026
 10
151.689709
 20
-4.637337
 10
151.689709
 20
-3.857337
  0
TEXT
  5
19B3
100
AcDbEntity
  8
BORDER
 62
     7
100
AcDbText
 10
149.322029
 20
-3.654425
 30
0.0
 40
0.39
  1
NTS
 41
0.77
  7
ROMANS
 72
     1
 11
149.743879
 21
-3.654425
 31
0.0
100
AcDbText
  0
LWPOLYLINE
  5
19B4
100
AcDbEntity
  8
BORDER
 62
     7
100
AcDbPolyline
 90
        2
 70
     0
 43
0.026
 10
150.594964
 20
-3.077337
 10
150.594964
 20
-3.857337
  0
TEXT
  5
19B5
100
AcDbEntity
  8
BORDER
 62
     7
100
AcDbText
 10
148.795083
 20
-2.126434
 30
0.0
 40
0.39
  1
DRAWING
 41
0.77
  7
ROMANS
 72
     1
 11
149.767483
 21
-2.126434
 31
0.0
100
AcDbText
  0
TEXT
  5
19B6
100
AcDbEntity
  8
BORDER
 62
     7
100
AcDbText
 10
149.232473
 20
-2.766036
 30
0.0
 40
0.39
  1
RFA0
 41
0.77
  7
ROMANS
 72
     1
 11
149.790173
 21
-2.766036
 31
0.0
100
AcDbText
  0
TEXT
  5
19B7
100
AcDbEntity
  8
BORDER
 62
     7
100
AcDbText
 10
150.746488
 20
-3.342934
 30
0.0
 40
0.15716
  1
SH
100
AcDbText
  0
TEXT
  5
19B8
100
AcDbEntity
  8
BORDER
 62
     7
100
AcDbText
 10
151.338074
 20
-3.654425
 30
0.0
 40
0.39
  1
1
 41
0.77
  7
ROMANS
 72
     1
 11
151.459624
 21
-3.654425
 31
0.0
100
AcDbText
  0
TEXT
  5
19B9
100
AcDbEntity
  8
BORDER
 62
     7
100
AcDbText
 10
151.851913
 20
-4.084617
 30
0.0
 40
0.13867
  1
REV
 41
1.5
100
AcDbText
  0
TEXT
  5
19BA
100
AcDbEntity
  8
REV
 62
     7
100
AcDbText
 10
152.584185
 20
-4.512016
 30
0.0
 40
0.39
  1
C
 41
0.77
  7
ROMANS
 72
     1
 11
152.734335
 21
-4.512016
 31
0.0
100
AcDbText
  0
TEXT
  5
19BB
100
AcDbEntity
  8
BORDER
 62
     7
100
AcDbText
 10
151.923483
 20
-3.342934
 30
0.0
 40
0.15716
  1
OF
100
AcDbText
  0
TEXT
  5
19BC
100
AcDbEntity
  8
BORDER
 62
     7
100
AcDbText
 10
152.513559
 20
-3.654425
 30
0.0
 40
0.39
  1
1
 41
0.77
  7
ROMANS
 72
     1
 11
152.635109
 21
-3.654425
 31
0.0
100
AcDbText
  0
TEXT
  5
19BD
100
AcDbEntity
  8
BORDER
 62
     7
100
AcDbText
 10
149.157506
 20
-0.468631
 30
0.0
 40
0.156
  1
ROCHESTER N.H. 03867-4630 U.S.A.
 41
0.9
100
AcDbText
  0
LWPOLYLINE
  5
19BE
100
AcDbEntity
  8
BORDER
 62
     7
100
AcDbPolyline
 90
        2
 70
     0
 43
0.026
 10
153.153716
 20
-0.114285
 10
153.136676
 20
-0.114285
  0
TEXT
  5
19D0
100
AcDbEntity
  8
BORDER
 62
     7
100
AcDbText
 10
143.93982
 20
-0.457435
 30
0.0
 40
0.26
  1
G.J.T.
 41
0.77
  7
ROMANS
 72
     1
 11
144.330687
 21
-0.457435
 31
0.0
100
AcDbText
  0
TEXT
  5
19D1
100
AcDbEntity
  8
BORDER
 62
     7
100
AcDbText
 10
144.977342
 20
-0.457435
 30
0.0
 40
0.26
  1
01/20/03
 41
0.856009
  7
ROMANS
 72
     5
 11
146.683654
 21
-0.457435
 31
0.0
100
AcDbText
  0
TEXT
  5
19D2
100
AcDbEntity
  8
BORDER
 62
     7
100
AcDbText
 10
135.317003
 20
-2.980685
 30
0.0
 40
0.231117
  1
11/27/01
 50
90.0
 41
1.25
 72
     1
 11
135.317003
 21
-2.041772
 31
0.0
100
AcDbText
  0
TEXT
  5
19D3
100
AcDbEntity
  8
BORDER
 62
     7
100
AcDbText
 10
134.641787
 20
-2.967917
 30
0.0
 40
0.231117
  1
12/10/03
 50
90.0
 41
1.25
 72
     1
 11
134.641787
 21
-2.00493
 31
0.0
100
AcDbText
  0
LWPOLYLINE
  5
19D4
100
AcDbEntity
  8
BORDER
 62
     7
100
AcDbPolyline
 90
        2
 70
     0
 43
0.026
 10
134.195735
 20
0.36908
 10
134.195735
 20
-4.637337
  0
LWPOLYLINE
  5
19D5
100
AcDbEntity
  8
BORDER
 62
     7
100
AcDbPolyline
 90
        2
 70
     0
 43
0.026
 10
134.870951
 20
0.36908
 10
134.870951
 20
-4.637337
  0
LWPOLYLINE
  5
19D6
100
AcDbEntity
  8
BORDER
 62
     7
100
AcDbPolyline
 90
        2
 70
     0
 43
0.026
 10
135.546167
 20
-4.637337
 10
135.546167
 20
0.36908
  0
TEXT
  5
19D7
100
AcDbEntity
  8
BORDER
 62
     7
100
AcDbText
 10
135.317003
 20
-4.342103
 30
0.0
 40
0.231117
  1
1181
 50
90.0
 41
1.25
 72
     1
 11
135.317003
 21
-3.956908
 31
0.0
100
AcDbText
  0
TEXT
  5
19D8
100
AcDbEntity
  8
BORDER
 62
     7
100
AcDbText
 10
134.641787
 20
-4.452129
 30
0.0
 40
0.231117
  1
1402
 50
90.0
 41
1.25
 72
     1
 11
134.641787
 21
-3.99471
 31
0.0
100
AcDbText
  0
LWPOLYLINE
  5
19D9
100
AcDbEntity
  8
BORDER
 62
     7
100
AcDbPolyline
 90
        2
 70
     0
 43
0.026
 10
135.546167
 20
-3.376537
 10
134.195735
 20
-3.376537
  0
LWPOLYLINE
  5
19DA
100
AcDbEntity
  8
BORDER
 62
     7
100
AcDbPolyline
 90
        2
 70
     0
 43
0.026
 10
134.195735
 20
-0.802039
 10
135.546167
 20
-0.802039
  0
TEXT
  5
19DB
100
AcDbEntity
  8
BORDER
 62
     7
100
AcDbText
 10
135.317003
 20
-0.363707
 30
0.0
 40
0.231117
  1
B
 50
90.0
 41
1.25
 72
     1
 11
135.317003
 21
-0.267408
 31
0.0
100
AcDbText
  0
TEXT
  5
19DC
100
AcDbEntity
  8
BORDER
 62
     7
100
AcDbText
 10
134.641787
 20
-0.363707
 30
0.0
 40
0.231117
  1
C
 50
90.0
 41
1.25
 72
     1
 11
134.641787
 21
-0.267408
 31
0.0
100
AcDbText
  0
TEXT
  5
24B9
100
AcDbEntity
  8
3
 62
     7
100
AcDbText
 10
162.647054
 20
32.871389
 30
0.0
 40
0.044446
  1

  7
ITALICC
100
AcDbText
  0
TEXT
  5
24BA
100
AcDbEntity
  8
3
 62
     7
100
AcDbText
 10
162.591497
 20
32.982503
 30
0.0
 40
0.044446
  1

  7
ITALICC
100
AcDbText
  0
TEXT
  5
24BB
100
AcDbEntity
  8
3
 62
     7
100
AcDbText
 10
162.624831
 20
32.926946
 30
0.0
 40
0.044446
  1

  7
ITALICC
100
AcDbText
  0
TEXT
  5
24BC
100
AcDbEntity
  8
3
 62
     7
100
AcDbText
 10
161.899008
 20
17.96481
 30
0.0
 40
0.044446
  1

  7
ITALICC
100
AcDbText
  0
TEXT
  5
24BD
100
AcDbEntity
  8
3
 62
     7
100
AcDbText
 10
161.843451
 20
18.075924
 30
0.0
 40
0.044446
  1

  7
ITALICC
100
AcDbText
  0
TEXT
  5
24BE
100
AcDbEntity
  8
3
 62
     7
100
AcDbText
 10
161.876785
 20
18.020367
 30
0.0
 40
0.044446
  1

  7
ITALICC
100
AcDbText
  0
TEXT
  5
24BF
100
AcDbEntity
  8
3
 62
     7
100
AcDbText
 10
195.928045
 20
41.13858
 30
0.0
 40
0.044446
  1

  7
ITALICC
100
AcDbText
  0
TEXT
  5
24C0
100
AcDbEntity
  8
3
 62
     7
100
AcDbText
 10
195.872488
 20
41.249693
 30
0.0
 40
0.044446
  1

  7
ITALICC
100
AcDbText
  0
TEXT
  5
24C1
100
AcDbEntity
  8
3
 62
     7
100
AcDbText
 10
195.905822
 20
41.194137
 30
0.0
 40
0.044446
  1

  7
ITALICC
100
AcDbText
  0
TEXT
  5
24C2
100
AcDbEntity
  8
3
 62
     7
100
AcDbText
 10
195.928045
 20
25.665553
 30
0.0
 40
0.044446
  1

  7
ITALICC
100
AcDbText
  0
TEXT
  5
24C3
100
AcDbEntity
  8
3
 62
     7
100
AcDbText
 10
195.872488
 20
25.776667
 30
0.0
 40
0.044446
  1

  7
ITALICC
100
AcDbText
  0
TEXT
  5
24C4
100
AcDbEntity
  8
3
 62
     7
100
AcDbText
 10
195.905822
 20
25.72111
 30
0.0
 40
0.044446
  1

  7
ITALICC
100
AcDbText
  0
TEXT
  5
24C5
100
AcDbEntity
  8
3
 62
     7
100
AcDbText
 10
184.743178
 20
41.233026
 30
0.0
 40
0.044446
  1

  7
ITALICC
100
AcDbText
  0
TEXT
  5
24C6
100
AcDbEntity
  8
3
 62
     7
100
AcDbText
 10
184.687622
 20
41.34414
 30
0.0
 40
0.044446
  1

  7
ITALICC
100
AcDbText
  0
TEXT
  5
24C7
100
AcDbEntity
  8
3
 62
     7
100
AcDbText
 10
184.720956
 20
41.288583
 30
0.0
 40
0.044446
  1

  7
ITALICC
100
AcDbText
  0
TEXT
  5
24C8
100
AcDbEntity
  8
0
 62
     7
100
AcDbText
 10
198.204489
 20
32.510638
 30
0.0
 40
0.09
  1

100
AcDbText
  0
TEXT
  5
24C9
100
AcDbEntity
  8
3
 62
     7
100
AcDbText
 10
159.086609
 20
64.074596
 30
0.0
 40
0.088891
  1

 50
21.457561
  7
ITALICC
100
AcDbText
  0
TEXT
  5
24CA
100
AcDbEntity
  8
3
 62
     7
100
AcDbText
 10
158.901902
 20
64.240775
 30
0.0
 40
0.088891
  1

 50
21.457561
  7
ITALICC
100
AcDbText
  0
TEXT
  5
24CB
100
AcDbEntity
  8
3
 62
     7
100
AcDbText
 10
159.004597
 20
64.16175
 30
0.0
 40
0.088891
  1

 50
21.457561
  7
ITALICC
100
AcDbText
  0
TEXT
  5
24CC
100
AcDbEntity
  8
3
 62
     7
100
AcDbText
 10
178.631073
 20
71.756648
 30
0.0
 40
0.088891
  1

 50
21.457561
  7
ITALICC
100
AcDbText
  0
TEXT
  5
24CD
100
AcDbEntity
  8
3
 62
     7
100
AcDbText
 10
178.446367
 20
71.922826
 30
0.0
 40
0.088891
  1

 50
21.457561
  7
ITALICC
100
AcDbText
  0
TEXT
  5
24CE
100
AcDbEntity
  8
3
 62
     7
100
AcDbText
 10
178.549061
 20
71.843802
 30
0.0
 40
0.088891
  1

 50
21.457561
  7
ITALICC
100
AcDbText
  0
TEXT
  5
24CF
100
AcDbEntity
  8
3
 62
     7
100
AcDbText
 10
198.175537
 20
79.438699
 30
0.0
 40
0.088891
  1

 50
21.457561
  7
ITALICC
100
AcDbText
  0
TEXT
  5
24D0
100
AcDbEntity
  8
3
 62
     7
100
AcDbText
 10
197.990831
 20
79.604877
 30
0.0
 40
0.088891
  1

 50
21.457561
  7
ITALICC
100
AcDbText
  0
TEXT
  5
24D1
100
AcDbEntity
  8
3
 62
     7
100
AcDbText
 10
198.093525
 20
79.525853
 30
0.0
 40
0.088891
  1

 50
21.457561
  7
ITALICC
100
AcDbText
  0
TEXT
  5
24D2
100
AcDbEntity
  8
3
 62
     7
100
AcDbText
 10
217.720002
 20
87.120751
 30
0.0
 40
0.088891
  1

 50
21.457561
  7
ITALICC
100
AcDbText
  0
TEXT
  5
24D3
100
AcDbEntity
  8
3
 62
     7
100
AcDbText
 10
217.535295
 20
87.286929
 30
0.0
 40
0.088891
  1

 50
21.457561
  7
ITALICC
100
AcDbText
  0
TEXT
  5
24D4
100
AcDbEntity
  8
3
 62
     7
100
AcDbText
 10
217.63799
 20
87.207904
 30
0.0
 40
0.088891
  1

 50
21.457561
  7
ITALICC
100
AcDbText
  0
TEXT
  5
24D5
100
AcDbEntity
  8
3
 62
     7
100
AcDbText
 10
164.9396
 20
49.183576
 30
0.0
 40
0.088891
  1

 50
21.457561
  7
ITALICC
100
AcDbText
  0
TEXT
  5
24D6
100
AcDbEntity
  8
3
 62
     7
100
AcDbText
 10
164.754894
 20
49.349754
 30
0.0
 40
0.088891
  1

 50
21.457561
  7
ITALICC
100
AcDbText
  0
TEXT
  5
24D7
100
AcDbEntity
  8
3
 62
     7
100
AcDbText
 10
164.857588
 20
49.27073
 30
0.0
 40
0.088891
  1

 50
21.457561
  7
ITALICC
100
AcDbText
  0
TEXT
  5
24D8
100
AcDbEntity
  8
3
 62
     7
100
AcDbText
 10
184.484065
 20
56.865627
 30
0.0
 40
0.088891
  1

 50
21.457561
  7
ITALICC
100
AcDbText
  0
TEXT
  5
24D9
100
AcDbEntity
  8
3
 62
     7
100
AcDbText
 10
184.299358
 20
57.031806
 30
0.0
 40
0.088891
  1

 50
21.457561
  7
ITALICC
100
AcDbText
  0
TEXT
  5
24DA
100
AcDbEntity
  8
3
 62
     7
100
AcDbText
 10
184.402053
 20
56.952781
 30
0.0
 40
0.088891
  1

 50
21.457561
  7
ITALICC
100
AcDbText
  0
TEXT
  5
24DB
100
AcDbEntity
  8
3
 62
     7
100
AcDbText
 10
204.028529
 20
64.547679
 30
0.0
 40
0.088891
  1

 50
21.457561
  7
ITALICC
100
AcDbText
  0
TEXT
  5
24DC
100
AcDbEntity
  8
3
 62
     7
100
AcDbText
 10
203.843823
 20
64.713857
 30
0.0
 40
0.088891
  1

 50
21.457561
  7
ITALICC
100
AcDbText
  0
TEXT
  5
24DD
100
AcDbEntity
  8
3
 62
     7
100
AcDbText
 10
203.946517
 20
64.634833
 30
0.0
 40
0.088891
  1

 50
21.457561
  7
ITALICC
100
AcDbText
  0
TEXT
  5
24DE
100
AcDbEntity
  8
3
 62
     7
100
AcDbText
 10
223.572993
 20
72.22973
 30
0.0
 40
0.088891
  1

 50
21.457561
  7
ITALICC
100
AcDbText
  0
TEXT
  5
24DF
100
AcDbEntity
  8
3
 62
     7
100
AcDbText
 10
223.388287
 20
72.395908
 30
0.0
 40
0.088891
  1

 50
21.457561
  7
ITALICC
100
AcDbText
  0
TEXT
  5
24E0
100
AcDbEntity
  8
3
 62
     7
100
AcDbText
 10
223.490981
 20
72.316884
 30
0.0
 40
0.088891
  1

 50
21.457561
  7
ITALICC
100
AcDbText
  0
TEXT
  5
24E1
100
AcDbEntity
  8
3
 62
     7
100
AcDbText
 10
170.792592
 20
34.292556
 30
0.0
 40
0.088891
  1

 50
21.457561
  7
ITALICC
100
AcDbText
  0
TEXT
  5
24E2
100
AcDbEntity
  8
3
 62
     7
100
AcDbText
 10
170.607886
 20
34.458734
 30
0.0
 40
0.088891
  1

 50
21.457561
  7
ITALICC
100
AcDbText
  0
TEXT
  5
24E3
100
AcDbEntity
  8
3
 62
     7
100
AcDbText
 10
170.71058
 20
34.379709
 30
0.0
 40
0.088891
  1

 50
21.457561
  7
ITALICC
100
AcDbText
  0
TEXT
  5
24E4
100
AcDbEntity
  8
3
 62
     7
100
AcDbText
 10
190.337056
 20
41.974607
 30
0.0
 40
0.088891
  1

 50
21.457561
  7
ITALICC
100
AcDbText
  0
TEXT
  5
24E5
100
AcDbEntity
  8
3
 62
     7
100
AcDbText
 10
190.15235
 20
42.140785
 30
0.0
 40
0.088891
  1

 50
21.457561
  7
ITALICC
100
AcDbText
  0
TEXT
  5
24E6
100
AcDbEntity
  8
3
 62
     7
100
AcDbText
 10
190.255044
 20
42.061761
 30
0.0
 40
0.088891
  1

 50
21.457561
  7
ITALICC
100
AcDbText
  0
TEXT
  5
24E7
100
AcDbEntity
  8
3
 62
     7
100
AcDbText
 10
209.88152
 20
49.656658
 30
0.0
 40
0.088891
  1

 50
21.457561
  7
ITALICC
100
AcDbText
  0
TEXT
  5
24E8
100
AcDbEntity
  8
3
 62
     7
100
AcDbText
 10
209.696814
 20
49.822837
 30
0.0
 40
0.088891
  1

 50
21.457561
  7
ITALICC
100
AcDbText
  0
TEXT
  5
24E9
100
AcDbEntity
  8
3
 62
     7
100
AcDbText
 10
209.799509
 20
49.743812
 30
0.0
 40
0.088891
  1

 50
21.457561
  7
ITALICC
100
AcDbText
  0
TEXT
  5
24EA
100
AcDbEntity
  8
3
 62
     7
100
AcDbText
 10
229.425985
 20
57.33871
 30
0.0
 40
0.088891
  1

 50
21.457561
  7
ITALICC
100
AcDbText
  0
TEXT
  5
24EB
100
AcDbEntity
  8
3
 62
     7
100
AcDbText
 10
229.241279
 20
57.504888
 30
0.0
 40
0.088891
  1

 50
21.457561
  7
ITALICC
100
AcDbText
  0
TEXT
  5
24EC
100
AcDbEntity
  8
3
 62
     7
100
AcDbText
 10
229.343973
 20
57.425864
 30
0.0
 40
0.088891
  1

 50
21.457561
  7
ITALICC
100
AcDbText
  0
TEXT
  5
24ED
100
AcDbEntity
  8
3
 62
     7
100
AcDbText
 10
205.368107
 20
29.928862
 30
0.0
 40
0.088891
  1

 50
21.457561
  7
ITALICC
100
AcDbText
  0
TEXT
  5
24EE
100
AcDbEntity
  8
3
 62
     7
100
AcDbText
 10
205.183401
 20
30.095041
 30
0.0
 40
0.088891
  1

 50
21.457561
  7
ITALICC
100
AcDbText
  0
TEXT
  5
24EF
100
AcDbEntity
  8
3
 62
     7
100
AcDbText
 10
205.286095
 20
30.016016
 30
0.0
 40
0.088891
  1

 50
21.457561
  7
ITALICC
100
AcDbText
  0
TEXT
  5
24F0
100
AcDbEntity
  8
0
100
AcDbText
 10
216.09689
 20
35.258988
 30
0.0
 40
0.086193
  1

 50
348.897994
  7
HELV
100
AcDbText
  0
TEXT
  5
24F1
100
AcDbEntity
  8
0
100
AcDbText
 10
217.892524
 20
34.213767
 30
0.0
 40
0.086193
  1

 50
169.647637
  7
HELV
100
AcDbText
  0
TEXT
  5
24F2
100
AcDbEntity
  8
0
100
AcDbText
 10
218.149659
 20
34.23166
 30
0.0
 40
0.086193
  1

 50
194.263022
  7
HELV
100
AcDbText
  0
TEXT
  5
24F3
100
AcDbEntity
  8
0
100
AcDbText
 10
218.530335
 20
34.561456
 30
0.0
 40
0.086193
  1

 50
243.493791
  7
HELV
100
AcDbText
  0
TEXT
  5
24F4
100
AcDbEntity
  8
0
100
AcDbText
 10
218.559656
 20
34.984168
 30
0.0
 40
0.086193
  1

 50
284.519432
  7
HELV
100
AcDbText
  0
TEXT
  5
24F5
100
AcDbEntity
  8
0
100
AcDbText
 10
218.22816
 20
35.363363
 30
0.0
 40
0.086193
  1

 50
333.750201
  7
HELV
100
AcDbText
  0
TEXT
  5
24F6
100
AcDbEntity
  8
0
100
AcDbText
 10
218.264721
 20
34.177571
 30
0.0
 40
0.046544
  1

 50
26.178009
  7
HELV
100
AcDbText
  0
TEXT
  5
24F7
100
AcDbEntity
  8
0
100
AcDbText
 10
218.551058
 20
34.41513
 30
0.0
 40
0.046544
  1

 50
57.212492
  7
HELV
100
AcDbText
  0
TEXT
  5
24F8
100
AcDbEntity
  8
0
100
AcDbText
 10
218.666989
 20
34.70394
 30
0.0
 40
0.046544
  1

 50
83.074561
  7
HELV
100
AcDbText
  0
TEXT
  5
24F9
100
AcDbEntity
  8
0
100
AcDbText
 10
218.624373
 20
35.073544
 30
0.0
 40
0.046544
  1

 50
114.109044
  7
HELV
100
AcDbText
  0
TEXT
  5
24FA
100
AcDbEntity
  8
0
100
AcDbText
 10
218.530918
 20
35.236376
 30
0.0
 40
0.046544
  1

 50
129.626285
  7
HELV
100
AcDbText
  0
TEXT
  5
25F2
100
AcDbEntity
  8
TEXT
100
AcDbText
 10
229.914978
 20
28.342282
 30
0.0
 40
0.18
  1

  7
ROMANS
100
AcDbText
  0
TEXT
  5
25F4
100
AcDbEntity
  8
3
 62
     7
100
AcDbText
 10
229.531677
 20
55.801079
 30
0.0
 40
0.030223
  1

100
AcDbText
  0
TEXT
  5
25F5
100
AcDbEntity
  8
3
 62
     7
100
AcDbText
 10
229.531677
 20
56.161079
 30
0.0
 40
0.030223
  1

100
AcDbText
  0
TEXT
  5
25F6
100
AcDbEntity
  8
3
 62
     7
100
AcDbText
 10
229.531677
 20
56.041079
 30
0.0
 40
0.030223
  1

100
AcDbText
  0
TEXT
  5
25F7
100
AcDbEntity
  8
3
 62
     7
100
AcDbText
 10
229.531677
 20
56.761079
 30
0.0
 40
0.030223
  1

100
AcDbText
  0
TEXT
  5
25F8
100
AcDbEntity
  8
3
 62
     7
100
AcDbText
 10
229.531677
 20
56.281079
 30
0.0
 40
0.030223
  1

100
AcDbText
  0
TEXT
  5
25F9
100
AcDbEntity
  8
3
 62
     7
100
AcDbText
 10
229.531677
 20
56.641079
 30
0.0
 40
0.030223
  1

100
AcDbText
  0
TEXT
  5
25FA
100
AcDbEntity
  8
3
 62
     7
100
AcDbText
 10
229.531677
 20
56.881079
 30
0.0
 40
0.030223
  1

100
AcDbText
  0
TEXT
  5
25FB
100
AcDbEntity
  8
3
 62
     7
100
AcDbText
 10
229.531677
 20
57.001079
 30
0.0
 40
0.030223
  1

100
AcDbText
  0
TEXT
  5
25FC
100
AcDbEntity
  8
3
 62
     7
100
AcDbText
 10
229.531677
 20
57.121079
 30
0.0
 40
0.030223
  1

100
AcDbText
  0
TEXT
  5
25FD
100
AcDbEntity
  8
3
 62
     7
100
AcDbText
 10
229.531677
 20
57.241079
 30
0.0
 40
0.030223
  1

100
AcDbText
  0
TEXT
  5
25FE
100
AcDbEntity
  8
3
 62
     7
100
AcDbText
 10
229.531677
 20
57.361079
 30
0.0
 40
0.030223
  1

100
AcDbText
  0
TEXT
  5
25FF
100
AcDbEntity
  8
3
 62
     7
100
AcDbText
 10
229.531677
 20
57.601079
 30
0.0
 40
0.030223
  1

100
AcDbText
  0
TEXT
  5
2600
100
AcDbEntity
  8
3
 62
     7
100
AcDbText
 10
229.531677
 20
57.721079
 30
0.0
 40
0.030223
  1

100
AcDbText
  0
TEXT
  5
2601
100
AcDbEntity
  8
3
 62
     7
100
AcDbText
 10
229.531677
 20
57.961079
 30
0.0
 40
0.030223
  1

100
AcDbText
  0
TEXT
  5
2602
100
AcDbEntity
  8
3
 62
     7
100
AcDbText
 10
228.650544
 20
57.296624
 30
0.0
 40
0.030223
  1

100
AcDbText
  0
TEXT
  5
2609
100
AcDbEntity
  8
3
 62
     7
100
AcDbText
 10
211.552862
 20
37.879826
 30
0.0
 40
0.044446
  1

  7
ITALICC
100
AcDbText
  0
TEXT
  5
260A
100
AcDbEntity
  8
3
 62
     7
100
AcDbText
 10
211.497305
 20
37.99094
 30
0.0
 40
0.044446
  1

  7
ITALICC
100
AcDbText
  0
TEXT
  5
260B
100
AcDbEntity
  8
3
 62
     7
100
AcDbText
 10
211.530639
 20
37.935383
 30
0.0
 40
0.044446
  1

  7
ITALICC
100
AcDbText
  0
TEXT
  5
260C
100
AcDbEntity
  8
3
 62
     7
100
AcDbText
 10
210.804816
 20
22.973247
 30
0.0
 40
0.044446
  1

  7
ITALICC
100
AcDbText
  0
TEXT
  5
260D
100
AcDbEntity
  8
3
 62
     7
100
AcDbText
 10
210.749259
 20
23.084361
 30
0.0
 40
0.044446
  1

  7
ITALICC
100
AcDbText
  0
TEXT
  5
260E
100
AcDbEntity
  8
3
 62
     7
100
AcDbText
 10
210.782593
 20
23.028804
 30
0.0
 40
0.044446
  1

  7
ITALICC
100
AcDbText
  0
TEXT
  5
260F
100
AcDbEntity
  8
3
 62
     7
100
AcDbText
 10
244.833853
 20
46.147016
 30
0.0
 40
0.044446
  1

  7
ITALICC
100
AcDbText
  0
TEXT
  5
2610
100
AcDbEntity
  8
3
 62
     7
100
AcDbText
 10
244.778296
 20
46.25813
 30
0.0
 40
0.044446
  1

  7
ITALICC
100
AcDbText
  0
TEXT
  5
2611
100
AcDbEntity
  8
3
 62
     7
100
AcDbText
 10
244.81163
 20
46.202573
 30
0.0
 40
0.044446
  1

  7
ITALICC
100
AcDbText
  0
TEXT
  5
2612
100
AcDbEntity
  8
3
 62
     7
100
AcDbText
 10
244.833853
 20
30.67399
 30
0.0
 40
0.044446
  1

  7
ITALICC
100
AcDbText
  0
TEXT
  5
2613
100
AcDbEntity
  8
3
 62
     7
100
AcDbText
 10
244.778296
 20
30.785104
 30
0.0
 40
0.044446
  1

  7
ITALICC
100
AcDbText
  0
TEXT
  5
2614
100
AcDbEntity
  8
3
 62
     7
100
AcDbText
 10
244.81163
 20
30.729547
 30
0.0
 40
0.044446
  1

  7
ITALICC
100
AcDbText
  0
TEXT
  5
2615
100
AcDbEntity
  8
3
 62
     7
100
AcDbText
 10
233.648986
 20
46.241463
 30
0.0
 40
0.044446
  1

  7
ITALICC
100
AcDbText
  0
TEXT
  5
2616
100
AcDbEntity
  8
3
 62
     7
100
AcDbText
 10
233.593429
 20
46.352577
 30
0.0
 40
0.044446
  1

  7
ITALICC
100
AcDbText
  0
TEXT
  5
2617
100
AcDbEntity
  8
3
 62
     7
100
AcDbText
 10
226.182814
 20
37.498305
 30
0.0
 40
0.044446
  1

  7
ITALICC
100
AcDbText
  0
TEXT
  5
2618
100
AcDbEntity
  8
3
 62
     7
100
AcDbText
 10
175.285706
 20
32.868551
 30
0.0
 40
0.044446
  1

  7
ITALICC
100
AcDbText
  0
TEXT
  5
2619
100
AcDbEntity
  8
3
 62
     7
100
AcDbText
 10
175.230149
 20
32.979665
 30
0.0
 40
0.044446
  1

  7
ITALICC
100
AcDbText
  0
TEXT
  5
261A
100
AcDbEntity
  8
3
 62
     7
100
AcDbText
 10
175.263483
 20
32.924108
 30
0.0
 40
0.044446
  1

  7
ITALICC
100
AcDbText
  0
TEXT
  5
261B
100
AcDbEntity
  8
3
 62
     7
100
AcDbText
 10
174.53766
 20
17.961972
 30
0.0
 40
0.044446
  1

  7
ITALICC
100
AcDbText
  0
TEXT
  5
261C
100
AcDbEntity
  8
3
 62
     7
100
AcDbText
 10
174.482103
 20
18.073086
 30
0.0
 40
0.044446
  1

  7
ITALICC
100
AcDbText
  0
TEXT
  5
261D
100
AcDbEntity
  8
3
 62
     7
100
AcDbText
 10
174.515437
 20
18.017529
 30
0.0
 40
0.044446
  1

  7
ITALICC
100
AcDbText
  0
TEXT
  5
261E
100
AcDbEntity
  8
3
 62
     7
100
AcDbText
 10
208.566697
 20
41.135741
 30
0.0
 40
0.044446
  1

  7
ITALICC
100
AcDbText
  0
TEXT
  5
261F
100
AcDbEntity
  8
3
 62
     7
100
AcDbText
 10
208.51114
 20
41.246855
 30
0.0
 40
0.044446
  1

  7
ITALICC
100
AcDbText
  0
TEXT
  5
2620
100
AcDbEntity
  8
3
 62
     7
100
AcDbText
 10
208.544474
 20
41.191298
 30
0.0
 40
0.044446
  1

  7
ITALICC
100
AcDbText
  0
TEXT
  5
2621
100
AcDbEntity
  8
3
 62
     7
100
AcDbText
 10
208.566697
 20
25.662715
 30
0.0
 40
0.044446
  1

  7
ITALICC
100
AcDbText
  0
TEXT
  5
2622
100
AcDbEntity
  8
3
 62
     7
100
AcDbText
 10
208.51114
 20
25.773829
 30
0.0
 40
0.044446
  1

  7
ITALICC
100
AcDbText
  0
TEXT
  5
2623
100
AcDbEntity
  8
3
 62
     7
100
AcDbText
 10
208.544474
 20
25.718272
 30
0.0
 40
0.044446
  1

  7
ITALICC
100
AcDbText
  0
TEXT
  5
2624
100
AcDbEntity
  8
3
 62
     7
100
AcDbText
 10
197.381831
 20
41.230187
 30
0.0
 40
0.044446
  1

  7
ITALICC
100
AcDbText
  0
TEXT
  5
2625
100
AcDbEntity
  8
3
 62
     7
100
AcDbText
 10
197.326274
 20
41.341301
 30
0.0
 40
0.044446
  1

  7
ITALICC
100
AcDbText
  0
TEXT
  5
2626
100
AcDbEntity
  8
3
 62
     7
100
AcDbText
 10
197.359608
 20
41.285744
 30
0.0
 40
0.044446
  1

  7
ITALICC
100
AcDbText
  0
TEXT
  5
2627
100
AcDbEntity
  8
0
 62
     7
100
AcDbText
 10
210.843142
 20
32.5078
 30
0.0
 40
0.09
  1

100
AcDbText
  0
TEXT
  5
2628
100
AcDbEntity
  8
3
 62
     7
100
AcDbText
 10
171.725261
 20
64.071758
 30
0.0
 40
0.088891
  1

 50
21.457561
  7
ITALICC
100
AcDbText
  0
TEXT
  5
2629
100
AcDbEntity
  8
3
 62
     7
100
AcDbText
 10
171.540555
 20
64.237936
 30
0.0
 40
0.088891
  1

 50
21.457561
  7
ITALICC
100
AcDbText
  0
TEXT
  5
262A
100
AcDbEntity
  8
3
 62
     7
100
AcDbText
 10
171.643249
 20
64.158912
 30
0.0
 40
0.088891
  1

 50
21.457561
  7
ITALICC
100
AcDbText
  0
TEXT
  5
262B
100
AcDbEntity
  8
3
 62
     7
100
AcDbText
 10
191.269725
 20
71.753809
 30
0.0
 40
0.088891
  1

 50
21.457561
  7
ITALICC
100
AcDbText
  0
TEXT
  5
262C
100
AcDbEntity
  8
3
 62
     7
100
AcDbText
 10
191.085019
 20
71.919987
 30
0.0
 40
0.088891
  1

 50
21.457561
  7
ITALICC
100
AcDbText
  0
TEXT
  5
262D
100
AcDbEntity
  8
3
 62
     7
100
AcDbText
 10
191.187713
 20
71.840963
 30
0.0
 40
0.088891
  1

 50
21.457561
  7
ITALICC
100
AcDbText
  0
TEXT
  5
262E
100
AcDbEntity
  8
3
 62
     7
100
AcDbText
 10
210.81419
 20
79.435861
 30
0.0
 40
0.088891
  1

 50
21.457561
  7
ITALICC
100
AcDbText
  0
TEXT
  5
262F
100
AcDbEntity
  8
3
 62
     7
100
AcDbText
 10
210.629483
 20
79.602039
 30
0.0
 40
0.088891
  1

 50
21.457561
  7
ITALICC
100
AcDbText
  0
TEXT
  5
2630
100
AcDbEntity
  8
3
 62
     7
100
AcDbText
 10
210.732178
 20
79.523015
 30
0.0
 40
0.088891
  1

 50
21.457561
  7
ITALICC
100
AcDbText
  0
TEXT
  5
2631
100
AcDbEntity
  8
3
 62
     7
100
AcDbText
 10
230.358654
 20
87.117912
 30
0.0
 40
0.088891
  1

 50
21.457561
  7
ITALICC
100
AcDbText
  0
TEXT
  5
2632
100
AcDbEntity
  8
3
 62
     7
100
AcDbText
 10
230.173948
 20
87.28409
 30
0.0
 40
0.088891
  1

 50
21.457561
  7
ITALICC
100
AcDbText
  0
TEXT
  5
2633
100
AcDbEntity
  8
3
 62
     7
100
AcDbText
 10
230.276642
 20
87.205066
 30
0.0
 40
0.088891
  1

 50
21.457561
  7
ITALICC
100
AcDbText
  0
TEXT
  5
2634
100
AcDbEntity
  8
3
 62
     7
100
AcDbText
 10
177.578252
 20
49.180737
 30
0.0
 40
0.088891
  1

 50
21.457561
  7
ITALICC
100
AcDbText
  0
TEXT
  5
2635
100
AcDbEntity
  8
3
 62
     7
100
AcDbText
 10
177.393546
 20
49.346916
 30
0.0
 40
0.088891
  1

 50
21.457561
  7
ITALICC
100
AcDbText
  0
TEXT
  5
2636
100
AcDbEntity
  8
3
 62
     7
100
AcDbText
 10
177.496241
 20
49.267891
 30
0.0
 40
0.088891
  1

 50
21.457561
  7
ITALICC
100
AcDbText
  0
TEXT
  5
2637
100
AcDbEntity
  8
3
 62
     7
100
AcDbText
 10
197.122717
 20
56.862789
 30
0.0
 40
0.088891
  1

 50
21.457561
  7
ITALICC
100
AcDbText
  0
TEXT
  5
2638
100
AcDbEntity
  8
3
 62
     7
100
AcDbText
 10
196.938011
 20
57.028967
 30
0.0
 40
0.088891
  1

 50
21.457561
  7
ITALICC
100
AcDbText
  0
TEXT
  5
2639
100
AcDbEntity
  8
3
 62
     7
100
AcDbText
 10
197.040705
 20
56.949943
 30
0.0
 40
0.088891
  1

 50
21.457561
  7
ITALICC
100
AcDbText
  0
TEXT
  5
263A
100
AcDbEntity
  8
3
 62
     7
100
AcDbText
 10
216.667181
 20
64.54484
 30
0.0
 40
0.088891
  1

 50
21.457561
  7
ITALICC
100
AcDbText
  0
TEXT
  5
263B
100
AcDbEntity
  8
3
 62
     7
100
AcDbText
 10
216.482475
 20
64.711018
 30
0.0
 40
0.088891
  1

 50
21.457561
  7
ITALICC
100
AcDbText
  0
TEXT
  5
263C
100
AcDbEntity
  8
3
 62
     7
100
AcDbText
 10
216.585169
 20
64.631994
 30
0.0
 40
0.088891
  1

 50
21.457561
  7
ITALICC
100
AcDbText
  0
TEXT
  5
263D
100
AcDbEntity
  8
3
 62
     7
100
AcDbText
 10
236.211645
 20
72.226892
 30
0.0
 40
0.088891
  1

 50
21.457561
  7
ITALICC
100
AcDbText
  0
TEXT
  5
263E
100
AcDbEntity
  8
3
 62
     7
100
AcDbText
 10
236.026939
 20
72.39307
 30
0.0
 40
0.088891
  1

 50
21.457561
  7
ITALICC
100
AcDbText
  0
TEXT
  5
263F
100
AcDbEntity
  8
3
 62
     7
100
AcDbText
 10
236.129634
 20
72.314045
 30
0.0
 40
0.088891
  1

 50
21.457561
  7
ITALICC
100
AcDbText
  0
TEXT
  5
2640
100
AcDbEntity
  8
3
 62
     7
100
AcDbText
 10
183.431244
 20
34.289717
 30
0.0
 40
0.088891
  1

 50
21.457561
  7
ITALICC
100
AcDbText
  0
TEXT
  5
2641
100
AcDbEntity
  8
3
 62
     7
100
AcDbText
 10
183.246538
 20
34.455895
 30
0.0
 40
0.088891
  1

 50
21.457561
  7
ITALICC
100
AcDbText
  0
TEXT
  5
2642
100
AcDbEntity
  8
3
 62
     7
100
AcDbText
 10
183.349232
 20
34.376871
 30
0.0
 40
0.088891
  1

 50
21.457561
  7
ITALICC
100
AcDbText
  0
TEXT
  5
2643
100
AcDbEntity
  8
3
 62
     7
100
AcDbText
 10
202.975708
 20
41.971768
 30
0.0
 40
0.088891
  1

 50
21.457561
  7
ITALICC
100
AcDbText
  0
TEXT
  5
2644
100
AcDbEntity
  8
3
 62
     7
100
AcDbText
 10
202.791002
 20
42.137947
 30
0.0
 40
0.088891
  1

 50
21.457561
  7
ITALICC
100
AcDbText
  0
TEXT
  5
2645
100
AcDbEntity
  8
3
 62
     7
100
AcDbText
 10
202.893697
 20
42.058922
 30
0.0
 40
0.088891
  1

 50
21.457561
  7
ITALICC
100
AcDbText
  0
TEXT
  5
2646
100
AcDbEntity
  8
3
 62
     7
100
AcDbText
 10
222.520173
 20
49.65382
 30
0.0
 40
0.088891
  1

 50
21.457561
  7
ITALICC
100
AcDbText
  0
TEXT
  5
2647
100
AcDbEntity
  8
3
 62
     7
100
AcDbText
 10
222.335467
 20
49.819998
 30
0.0
 40
0.088891
  1

 50
21.457561
  7
ITALICC
100
AcDbText
  0
TEXT
  5
2648
100
AcDbEntity
  8
3
 62
     7
100
AcDbText
 10
222.438161
 20
49.740974
 30
0.0
 40
0.088891
  1

 50
21.457561
  7
ITALICC
100
AcDbText
  0
TEXT
  5
2649
100
AcDbEntity
  8
3
 62
     7
100
AcDbText
 10
242.064637
 20
57.335871
 30
0.0
 40
0.088891
  1

 50
21.457561
  7
ITALICC
100
AcDbText
  0
TEXT
  5
264A
100
AcDbEntity
  8
3
 62
     7
100
AcDbText
 10
241.879931
 20
57.502049
 30
0.0
 40
0.088891
  1

 50
21.457561
  7
ITALICC
100
AcDbText
  0
TEXT
  5
264B
100
AcDbEntity
  8
3
 62
     7
100
AcDbText
 10
241.982625
 20
57.423025
 30
0.0
 40
0.088891
  1

 50
21.457561
  7
ITALICC
100
AcDbText
  0
TEXT
  5
264C
100
AcDbEntity
  8
3
 62
     7
100
AcDbText
 10
218.006759
 20
29.926024
 30
0.0
 40
0.088891
  1

 50
21.457561
  7
ITALICC
100
AcDbText
  0
TEXT
  5
264D
100
AcDbEntity
  8
3
 62
     7
100
AcDbText
 10
217.822053
 20
30.092202
 30
0.0
 40
0.088891
  1

 50
21.457561
  7
ITALICC
100
AcDbText
  0
TEXT
  5
264E
100
AcDbEntity
  8
3
 62
     7
100
AcDbText
 10
217.924747
 20
30.013178
 30
0.0
 40
0.088891
  1

 50
21.457561
  7
ITALICC
100
AcDbText
  0
TEXT
  5
264F
100
AcDbEntity
  8
0
100
AcDbText
 10
228.735543
 20
35.256149
 30
0.0
 40
0.086193
  1

 50
348.897994
  7
HELV
100
AcDbText
  0
TEXT
  5
2650
100
AcDbEntity
  8
0
100
AcDbText
 10
230.531176
 20
34.210928
 30
0.0
 40
0.086193
  1

 50
169.647637
  7
HELV
100
AcDbText
  0
TEXT
  5
2651
100
AcDbEntity
  8
0
100
AcDbText
 10
230.788312
 20
34.228822
 30
0.0
 40
0.086193
  1

 50
194.263022
  7
HELV
100
AcDbText
  0
TEXT
  5
2652
100
AcDbEntity
  8
0
100
AcDbText
 10
231.168987
 20
34.558617
 30
0.0
 40
0.086193
  1

 50
243.493791
  7
HELV
100
AcDbText
  0
TEXT
  5
2653
100
AcDbEntity
  8
0
100
AcDbText
 10
231.198309
 20
34.981329
 30
0.0
 40
0.086193
  1

 50
284.519432
  7
HELV
100
AcDbText
  0
TEXT
  5
2654
100
AcDbEntity
  8
0
100
AcDbText
 10
230.866813
 20
35.360525
 30
0.0
 40
0.086193
  1

 50
333.750201
  7
HELV
100
AcDbText
  0
TEXT
  5
2655
100
AcDbEntity
  8
0
100
AcDbText
 10
230.903373
 20
34.174732
 30
0.0
 40
0.046544
  1

 50
26.178009
  7
HELV
100
AcDbText
  0
TEXT
  5
2656
100
AcDbEntity
  8
0
100
AcDbText
 10
231.18971
 20
34.412291
 30
0.0
 40
0.046544
  1

 50
57.212492
  7
HELV
100
AcDbText
  0
TEXT
  5
2657
100
AcDbEntity
  8
0
100
AcDbText
 10
231.305641
 20
34.701101
 30
0.0
 40
0.046544
  1

 50
83.074561
  7
HELV
100
AcDbText
  0
TEXT
  5
2658
100
AcDbEntity
  8
0
100
AcDbText
 10
231.263025
 20
35.070705
 30
0.0
 40
0.046544
  1

 50
114.109044
  7
HELV
100
AcDbText
  0
TEXT
  5
2659
100
AcDbEntity
  8
0
100
AcDbText
 10
231.16957
 20
35.233537
 30
0.0
 40
0.046544
  1

 50
129.626285
  7
HELV
100
AcDbText
  0
TEXT
  5
265A
100
AcDbEntity
  8
TEXT
100
AcDbText
 10
242.55363
 20
28.339444
 30
0.0
 40
0.18
  1

  7
ROMANS
100
AcDbText
  0
TEXT
  5
265B
100
AcDbEntity
  8
3
 62
     7
100
AcDbText
 10
242.170329
 20
55.79824
 30
0.0
 40
0.030223
  1

100
AcDbText
  0
TEXT
  5
265C
100
AcDbEntity
  8
3
 62
     7
100
AcDbText
 10
242.170329
 20
56.15824
 30
0.0
 40
0.030223
  1

100
AcDbText
  0
TEXT
  5
265D
100
AcDbEntity
  8
3
 62
     7
100
AcDbText
 10
242.170329
 20
56.03824
 30
0.0
 40
0.030223
  1

100
AcDbText
  0
TEXT
  5
265E
100
AcDbEntity
  8
3
 62
     7
100
AcDbText
 10
242.170329
 20
56.75824
 30
0.0
 40
0.030223
  1

100
AcDbText
  0
TEXT
  5
265F
100
AcDbEntity
  8
3
 62
     7
100
AcDbText
 10
242.170329
 20
56.27824
 30
0.0
 40
0.030223
  1

100
AcDbText
  0
TEXT
  5
2660
100
AcDbEntity
  8
3
 62
     7
100
AcDbText
 10
242.170329
 20
56.63824
 30
0.0
 40
0.030223
  1

100
AcDbText
  0
TEXT
  5
2661
100
AcDbEntity
  8
3
 62
     7
100
AcDbText
 10
242.170329
 20
56.87824
 30
0.0
 40
0.030223
  1

100
AcDbText
  0
TEXT
  5
2662
100
AcDbEntity
  8
3
 62
     7
100
AcDbText
 10
242.170329
 20
56.99824
 30
0.0
 40
0.030223
  1

100
AcDbText
  0
TEXT
  5
2663
100
AcDbEntity
  8
3
 62
     7
100
AcDbText
 10
242.170329
 20
57.11824
 30
0.0
 40
0.030223
  1

100
AcDbText
  0
TEXT
  5
2664
100
AcDbEntity
  8
3
 62
     7
100
AcDbText
 10
242.170329
 20
57.23824
 30
0.0
 40
0.030223
  1

100
AcDbText
  0
TEXT
  5
2665
100
AcDbEntity
  8
3
 62
     7
100
AcDbText
 10
242.170329
 20
57.35824
 30
0.0
 40
0.030223
  1

100
AcDbText
  0
TEXT
  5
2666
100
AcDbEntity
  8
3
 62
     7
100
AcDbText
 10
242.170329
 20
57.59824
 30
0.0
 40
0.030223
  1

100
AcDbText
  0
TEXT
  5
2667
100
AcDbEntity
  8
3
 62
     7
100
AcDbText
 10
242.170329
 20
57.71824
 30
0.0
 40
0.030223
  1

100
AcDbText
  0
TEXT
  5
2668
100
AcDbEntity
  8
3
 62
     7
100
AcDbText
 10
242.170329
 20
57.95824
 30
0.0
 40
0.030223
  1

100
AcDbText
  0
TEXT
  5
2669
100
AcDbEntity
  8
3
 62
     7
100
AcDbText
 10
241.289196
 20
57.293785
 30
0.0
 40
0.030223
  1

100
AcDbText
  0
TEXT
  5
266A
100
AcDbEntity
  8
3
 62
     7
100
AcDbText
 10
229.531677
 20
56.161079
 30
0.0
 40
0.030223
  1

100
AcDbText
  0
TEXT
  5
266B
100
AcDbEntity
  8
3
 62
     7
100
AcDbText
 10
173.266419
 20
32.90342
 30
0.0
 40
0.044446
  1

  7
ITALICC
100
AcDbText
  0
TEXT
  5
266C
100
AcDbEntity
  8
3
 62
     7
100
AcDbText
 10
173.210862
 20
33.014534
 30
0.0
 40
0.044446
  1

  7
ITALICC
100
AcDbText
  0
TEXT
  5
266D
100
AcDbEntity
  8
3
 62
     7
100
AcDbText
 10
173.244196
 20
32.958977
 30
0.0
 40
0.044446
  1

  7
ITALICC
100
AcDbText
  0
TEXT
  5
266E
100
AcDbEntity
  8
3
 62
     7
100
AcDbText
 10
172.518373
 20
17.996841
 30
0.0
 40
0.044446
  1

  7
ITALICC
100
AcDbText
  0
TEXT
  5
266F
100
AcDbEntity
  8
3
 62
     7
100
AcDbText
 10
172.462816
 20
18.107955
 30
0.0
 40
0.044446
  1

  7
ITALICC
100
AcDbText
  0
TEXT
  5
2670
100
AcDbEntity
  8
3
 62
     7
100
AcDbText
 10
172.49615
 20
18.052398
 30
0.0
 40
0.044446
  1

  7
ITALICC
100
AcDbText
  0
TEXT
  5
2671
100
AcDbEntity
  8
3
 62
     7
100
AcDbText
 10
206.54741
 20
41.17061
 30
0.0
 40
0.044446
  1

  7
ITALICC
100
AcDbText
  0
TEXT
  5
2672
100
AcDbEntity
  8
3
 62
     7
100
AcDbText
 10
206.491853
 20
41.281724
 30
0.0
 40
0.044446
  1

  7
ITALICC
100
AcDbText
  0
TEXT
  5
2673
100
AcDbEntity
  8
3
 62
     7
100
AcDbText
 10
206.525187
 20
41.226167
 30
0.0
 40
0.044446
  1

  7
ITALICC
100
AcDbText
  0
TEXT
  5
2674
100
AcDbEntity
  8
3
 62
     7
100
AcDbText
 10
206.54741
 20
25.697584
 30
0.0
 40
0.044446
  1

  7
ITALICC
100
AcDbText
  0
TEXT
  5
2675
100
AcDbEntity
  8
3
 62
     7
100
AcDbText
 10
206.491853
 20
25.808698
 30
0.0
 40
0.044446
  1

  7
ITALICC
100
AcDbText
  0
TEXT
  5
2676
100
AcDbEntity
  8
3
 62
     7
100
AcDbText
 10
206.525187
 20
25.753141
 30
0.0
 40
0.044446
  1

  7
ITALICC
100
AcDbText
  0
TEXT
  5
2677
100
AcDbEntity
  8
3
 62
     7
100
AcDbText
 10
195.362544
 20
41.265056
 30
0.0
 40
0.044446
  1

  7
ITALICC
100
AcDbText
  0
TEXT
  5
2678
100
AcDbEntity
  8
3
 62
     7
100
AcDbText
 10
195.306987
 20
41.37617
 30
0.0
 40
0.044446
  1

  7
ITALICC
100
AcDbText
  0
TEXT
  5
2679
100
AcDbEntity
  8
3
 62
     7
100
AcDbText
 10
195.340321
 20
41.320613
 30
0.0
 40
0.044446
  1

  7
ITALICC
100
AcDbText
  0
TEXT
  5
267A
100
AcDbEntity
  8
0
 62
     7
100
AcDbText
 10
208.823855
 20
32.542669
 30
0.0
 40
0.09
  1

100
AcDbText
  0
TEXT
  5
267B
100
AcDbEntity
  8
3
 62
     7
100
AcDbText
 10
169.705974
 20
64.106627
 30
0.0
 40
0.088891
  1

 50
21.457561
  7
ITALICC
100
AcDbText
  0
TEXT
  5
267C
100
AcDbEntity
  8
3
 62
     7
100
AcDbText
 10
169.521268
 20
64.272805
 30
0.0
 40
0.088891
  1

 50
21.457561
  7
ITALICC
100
AcDbText
  0
TEXT
  5
267D
100
AcDbEntity
  8
3
 62
     7
100
AcDbText
 10
169.623962
 20
64.193781
 30
0.0
 40
0.088891
  1

 50
21.457561
  7
ITALICC
100
AcDbText
  0
TEXT
  5
267E
100
AcDbEntity
  8
3
 62
     7
100
AcDbText
 10
189.250438
 20
71.788678
 30
0.0
 40
0.088891
  1

 50
21.457561
  7
ITALICC
100
AcDbText
  0
TEXT
  5
267F
100
AcDbEntity
  8
3
 62
     7
100
AcDbText
 10
189.065732
 20
71.954857
 30
0.0
 40
0.088891
  1

 50
21.457561
  7
ITALICC
100
AcDbText
  0
TEXT
  5
2680
100
AcDbEntity
  8
3
 62
     7
100
AcDbText
 10
189.168427
 20
71.875832
 30
0.0
 40
0.088891
  1

 50
21.457561
  7
ITALICC
100
AcDbText
  0
TEXT
  5
2681
100
AcDbEntity
  8
3
 62
     7
100
AcDbText
 10
208.794903
 20
79.47073
 30
0.0
 40
0.088891
  1

 50
21.457561
  7
ITALICC
100
AcDbText
  0
TEXT
  5
2682
100
AcDbEntity
  8
3
 62
     7
100
AcDbText
 10
208.610197
 20
79.636908
 30
0.0
 40
0.088891
  1

 50
21.457561
  7
ITALICC
100
AcDbText
  0
TEXT
  5
2683
100
AcDbEntity
  8
3
 62
     7
100
AcDbText
 10
208.712891
 20
79.557884
 30
0.0
 40
0.088891
  1

 50
21.457561
  7
ITALICC
100
AcDbText
  0
TEXT
  5
2684
100
AcDbEntity
  8
3
 62
     7
100
AcDbText
 10
228.339367
 20
87.152781
 30
0.0
 40
0.088891
  1

 50
21.457561
  7
ITALICC
100
AcDbText
  0
TEXT
  5
2685
100
AcDbEntity
  8
3
 62
     7
100
AcDbText
 10
228.154661
 20
87.318959
 30
0.0
 40
0.088891
  1

 50
21.457561
  7
ITALICC
100
AcDbText
  0
TEXT
  5
2686
100
AcDbEntity
  8
3
 62
     7
100
AcDbText
 10
228.257355
 20
87.239935
 30
0.0
 40
0.088891
  1

 50
21.457561
  7
ITALICC
100
AcDbText
  0
TEXT
  5
2687
100
AcDbEntity
  8
3
 62
     7
100
AcDbText
 10
175.558966
 20
49.215607
 30
0.0
 40
0.088891
  1

 50
21.457561
  7
ITALICC
100
AcDbText
  0
TEXT
  5
2688
100
AcDbEntity
  8
3
 62
     7
100
AcDbText
 10
175.37426
 20
49.381785
 30
0.0
 40
0.088891
  1

 50
21.457561
  7
ITALICC
100
AcDbText
  0
TEXT
  5
2689
100
AcDbEntity
  8
3
 62
     7
100
AcDbText
 10
175.476954
 20
49.30276
 30
0.0
 40
0.088891
  1

 50
21.457561
  7
ITALICC
100
AcDbText
  0
TEXT
  5
268A
100
AcDbEntity
  8
3
 62
     7
100
AcDbText
 10
195.10343
 20
56.897658
 30
0.0
 40
0.088891
  1

 50
21.457561
  7
ITALICC
100
AcDbText
  0
TEXT
  5
268B
100
AcDbEntity
  8
3
 62
     7
100
AcDbText
 10
194.918724
 20
57.063836
 30
0.0
 40
0.088891
  1

 50
21.457561
  7
ITALICC
100
AcDbText
  0
TEXT
  5
268C
100
AcDbEntity
  8
3
 62
     7
100
AcDbText
 10
195.021418
 20
56.984812
 30
0.0
 40
0.088891
  1

 50
21.457561
  7
ITALICC
100
AcDbText
  0
TEXT
  5
268D
100
AcDbEntity
  8
3
 62
     7
100
AcDbText
 10
214.647894
 20
64.579709
 30
0.0
 40
0.088891
  1

 50
21.457561
  7
ITALICC
100
AcDbText
  0
TEXT
  5
268E
100
AcDbEntity
  8
3
 62
     7
100
AcDbText
 10
214.463188
 20
64.745888
 30
0.0
 40
0.088891
  1

 50
21.457561
  7
ITALICC
100
AcDbText
  0
TEXT
  5
268F
100
AcDbEntity
  8
3
 62
     7
100
AcDbText
 10
214.565882
 20
64.666863
 30
0.0
 40
0.088891
  1

 50
21.457561
  7
ITALICC
100
AcDbText
  0
TEXT
  5
2690
100
AcDbEntity
  8
3
 62
     7
100
AcDbText
 10
234.192359
 20
72.261761
 30
0.0
 40
0.088891
  1

 50
21.457561
  7
ITALICC
100
AcDbText
  0
TEXT
  5
2691
100
AcDbEntity
  8
3
 62
     7
100
AcDbText
 10
234.007652
 20
72.427939
 30
0.0
 40
0.088891
  1

 50
21.457561
  7
ITALICC
100
AcDbText
  0
TEXT
  5
2692
100
AcDbEntity
  8
3
 62
     7
100
AcDbText
 10
234.110347
 20
72.348915
 30
0.0
 40
0.088891
  1

 50
21.457561
  7
ITALICC
100
AcDbText
  0
TEXT
  5
2693
100
AcDbEntity
  8
3
 62
     7
100
AcDbText
 10
181.411957
 20
34.324586
 30
0.0
 40
0.088891
  1

 50
21.457561
  7
ITALICC
100
AcDbText
  0
TEXT
  5
2694
100
AcDbEntity
  8
3
 62
     7
100
AcDbText
 10
181.227251
 20
34.490764
 30
0.0
 40
0.088891
  1

 50
21.457561
  7
ITALICC
100
AcDbText
  0
TEXT
  5
2695
100
AcDbEntity
  8
3
 62
     7
100
AcDbText
 10
181.329945
 20
34.41174
 30
0.0
 40
0.088891
  1

 50
21.457561
  7
ITALICC
100
AcDbText
  0
TEXT
  5
2696
100
AcDbEntity
  8
3
 62
     7
100
AcDbText
 10
200.956422
 20
42.006638
 30
0.0
 40
0.088891
  1

 50
21.457561
  7
ITALICC
100
AcDbText
  0
TEXT
  5
2697
100
AcDbEntity
  8
3
 62
     7
100
AcDbText
 10
200.771715
 20
42.172816
 30
0.0
 40
0.088891
  1

 50
21.457561
  7
ITALICC
100
AcDbText
  0
TEXT
  5
2698
100
AcDbEntity
  8
3
 62
     7
100
AcDbText
 10
200.87441
 20
42.093791
 30
0.0
 40
0.088891
  1

 50
21.457561
  7
ITALICC
100
AcDbText
  0
TEXT
  5
2699
100
AcDbEntity
  8
3
 62
     7
100
AcDbText
 10
220.500886
 20
49.688689
 30
0.0
 40
0.088891
  1

 50
21.457561
  7
ITALICC
100
AcDbText
  0
TEXT
  5
269A
100
AcDbEntity
  8
3
 62
     7
100
AcDbText
 10
220.31618
 20
49.854867
 30
0.0
 40
0.088891
  1

 50
21.457561
  7
ITALICC
100
AcDbText
  0
TEXT
  5
269B
100
AcDbEntity
  8
3
 62
     7
100
AcDbText
 10
220.418874
 20
49.775843
 30
0.0
 40
0.088891
  1

 50
21.457561
  7
ITALICC
100
AcDbText
  0
TEXT
  5
269C
100
AcDbEntity
  8
3
 62
     7
100
AcDbText
 10
240.04535
 20
57.37074
 30
0.0
 40
0.088891
  1

 50
21.457561
  7
ITALICC
100
AcDbText
  0
TEXT
  5
269D
100
AcDbEntity
  8
3
 62
     7
100
AcDbText
 10
239.860644
 20
57.536919
 30
0.0
 40
0.088891
  1

 50
21.457561
  7
ITALICC
100
AcDbText
  0
TEXT
  5
269E
100
AcDbEntity
  8
3
 62
     7
100
AcDbText
 10
239.963338
 20
57.457894
 30
0.0
 40
0.088891
  1

 50
21.457561
  7
ITALICC
100
AcDbText
  0
TEXT
  5
269F
100
AcDbEntity
  8
3
 62
     7
100
AcDbText
 10
215.987472
 20
29.960893
 30
0.0
 40
0.088891
  1

 50
21.457561
  7
ITALICC
100
AcDbText
  0
TEXT
  5
26A0
100
AcDbEntity
  8
3
 62
     7
100
AcDbText
 10
215.802766
 20
30.127071
 30
0.0
 40
0.088891
  1

 50
21.457561
  7
ITALICC
100
AcDbText
  0
TEXT
  5
26A1
100
AcDbEntity
  8
3
 62
     7
100
AcDbText
 10
215.90546
 20
30.048047
 30
0.0
 40
0.088891
  1

 50
21.457561
  7
ITALICC
100
AcDbText
  0
TEXT
  5
26A2
100
AcDbEntity
  8
0
100
AcDbText
 10
226.716256
 20
35.291018
 30
0.0
 40
0.086193
  1

 50
348.897994
  7
HELV
100
AcDbText
  0
TEXT
  5
26A3
100
AcDbEntity
  8
0
100
AcDbText
 10
228.51189
 20
34.245797
 30
0.0
 40
0.086193
  1

 50
169.647637
  7
HELV
100
AcDbText
  0
TEXT
  5
26A4
100
AcDbEntity
  8
0
100
AcDbText
 10
228.769025
 20
34.263691
 30
0.0
 40
0.086193
  1

 50
194.263022
  7
HELV
100
AcDbText
  0
TEXT
  5
26A5
100
AcDbEntity
  8
0
100
AcDbText
 10
229.1497
 20
34.593487
 30
0.0
 40
0.086193
  1

 50
243.493791
  7
HELV
100
AcDbText
  0
TEXT
  5
26A6
100
AcDbEntity
  8
0
100
AcDbText
 10
229.179022
 20
35.016198
 30
0.0
 40
0.086193
  1

 50
284.519432
  7
HELV
100
AcDbText
  0
TEXT
  5
26A7
100
AcDbEntity
  8
0
100
AcDbText
 10
228.847526
 20
35.395394
 30
0.0
 40
0.086193
  1

 50
333.750201
  7
HELV
100
AcDbText
  0
TEXT
  5
26A8
100
AcDbEntity
  8
0
100
AcDbText
 10
228.884086
 20
34.209601
 30
0.0
 40
0.046544
  1

 50
26.178009
  7
HELV
100
AcDbText
  0
TEXT
  5
26A9
100
AcDbEntity
  8
0
100
AcDbText
 10
229.170423
 20
34.44716
 30
0.0
 40
0.046544
  1

 50
57.212492
  7
HELV
100
AcDbText
  0
TEXT
  5
26AA
100
AcDbEntity
  8
0
100
AcDbText
 10
229.286355
 20
34.73597
 30
0.0
 40
0.046544
  1

 50
83.074561
  7
HELV
100
AcDbText
  0
TEXT
  5
26AB
100
AcDbEntity
  8
0
100
AcDbText
 10
229.243739
 20
35.105574
 30
0.0
 40
0.046544
  1

 50
114.109044
  7
HELV
100
AcDbText
  0
TEXT
  5
26AC
100
AcDbEntity
  8
0
100
AcDbText
 10
229.150283
 20
35.268406
 30
0.0
 40
0.046544
  1

 50
129.626285
  7
HELV
100
AcDbText
  0
TEXT
  5
26AD
100
AcDbEntity
  8
TEXT
100
AcDbText
 10
240.534343
 20
28.374313
 30
0.0
 40
0.18
  1

  7
ROMANS
100
AcDbText
  0
TEXT
  5
26AE
100
AcDbEntity
  8
3
 62
     7
100
AcDbText
 10
240.151043
 20
55.833109
 30
0.0
 40
0.030223
  1

100
AcDbText
  0
TEXT
  5
26AF
100
AcDbEntity
  8
3
 62
     7
100
AcDbText
 10
240.151043
 20
56.193109
 30
0.0
 40
0.030223
  1

100
AcDbText
  0
TEXT
  5
26B0
100
AcDbEntity
  8
3
 62
     7
100
AcDbText
 10
240.151043
 20
56.073109
 30
0.0
 40
0.030223
  1

100
AcDbText
  0
TEXT
  5
26B1
100
AcDbEntity
  8
3
 62
     7
100
AcDbText
 10
240.151043
 20
56.793109
 30
0.0
 40
0.030223
  1

100
AcDbText
  0
TEXT
  5
26B2
100
AcDbEntity
  8
3
 62
     7
100
AcDbText
 10
240.151043
 20
56.313109
 30
0.0
 40
0.030223
  1

100
AcDbText
  0
TEXT
  5
26B3
100
AcDbEntity
  8
3
 62
     7
100
AcDbText
 10
240.151043
 20
56.673109
 30
0.0
 40
0.030223
  1

100
AcDbText
  0
TEXT
  5
26B4
100
AcDbEntity
  8
3
 62
     7
100
AcDbText
 10
240.151043
 20
56.913109
 30
0.0
 40
0.030223
  1

100
AcDbText
  0
TEXT
  5
26B5
100
AcDbEntity
  8
3
 62
     7
100
AcDbText
 10
240.151043
 20
57.033109
 30
0.0
 40
0.030223
  1

100
AcDbText
  0
TEXT
  5
26B6
100
AcDbEntity
  8
3
 62
     7
100
AcDbText
 10
240.151043
 20
57.153109
 30
0.0
 40
0.030223
  1

100
AcDbText
  0
TEXT
  5
26B7
100
AcDbEntity
  8
3
 62
     7
100
AcDbText
 10
240.151043
 20
57.273109
 30
0.0
 40
0.030223
  1

100
AcDbText
  0
TEXT
  5
26B8
100
AcDbEntity
  8
3
 62
     7
100
AcDbText
 10
240.151043
 20
57.393109
 30
0.0
 40
0.030223
  1

100
AcDbText
  0
TEXT
  5
26B9
100
AcDbEntity
  8
3
 62
     7
100
AcDbText
 10
240.151043
 20
57.633109
 30
0.0
 40
0.030223
  1

100
AcDbText
  0
TEXT
  5
26BA
100
AcDbEntity
  8
3
 62
     7
100
AcDbText
 10
240.151043
 20
57.753109
 30
0.0
 40
0.030223
  1

100
AcDbText
  0
TEXT
  5
26BB
100
AcDbEntity
  8
3
 62
     7
100
AcDbText
 10
240.151043
 20
57.993109
 30
0.0
 40
0.030223
  1

100
AcDbText
  0
TEXT
  5
26BC
100
AcDbEntity
  8
3
 62
     7
100
AcDbText
 10
239.269909
 20
57.328654
 30
0.0
 40
0.030223
  1

100
AcDbText
  0
TEXT
  5
26F3
100
AcDbEntity
  8
BORDER
 62
     2
100
AcDbText
 10
231.247651
 20
59.220338
 30
0.0
 40
0.035358
  1

100
AcDbText
  0
TEXT
  5
26F5
100
AcDbEntity
  8
0
  6
CONTINUOUS
 62
     7
100
AcDbText
 10
198.913849
 20
25.673711
 30
0.0
 40
0.1
  1

  7
ROMANT
100
AcDbText
  0
TEXT
  5
26F6
100
AcDbEntity
  8
0
  6
CONTINUOUS
 62
     7
100
AcDbText
 10
198.576012
 20
25.428177
 30
0.0
 40
0.1
  1

  7
ROMANT
100
AcDbText
  0
TEXT
  5
26F7
100
AcDbEntity
  8
0
  6
CONTINUOUS
 62
     7
100
AcDbText
 10
199.415486
 20
24.906417
 30
0.0
 40
0.1
  1

  7
ROMANT
100
AcDbText
  0
TEXT
  5
26F8
100
AcDbEntity
  8
3
 62
     7
100
AcDbText
 10
152.643404
 20
23.227324
 30
0.0
 40
0.088891
  1

  7
ITALICC
100
AcDbText
  0
TEXT
  5
26F9
100
AcDbEntity
  8
3
 62
     7
100
AcDbText
 10
152.53229
 20
23.449552
 30
0.0
 40
0.088891
  1

  7
ITALICC
100
AcDbText
  0
TEXT
  5
26FA
100
AcDbEntity
  8
3
 62
     7
100
AcDbText
 10
152.598958
 20
23.338438
 30
0.0
 40
0.088891
  1

  7
ITALICC
100
AcDbText
  0
TEXT
  5
2718
100
AcDbEntity
  8
0
  6
CONTINUOUS
 62
     7
100
AcDbText
 10
246.889364
 20
55.835877
 30
0.0
 40
0.075
  1

  7
ROMANT
100
AcDbText
  0
TEXT
  5
2719
100
AcDbEntity
  8
0
  6
CONTINUOUS
 62
     7
100
AcDbText
 10
246.635987
 20
55.651727
 30
0.0
 40
0.075
  1

  7
ROMANT
100
AcDbText
  0
TEXT
  5
271A
100
AcDbEntity
  8
0
  6
CONTINUOUS
 62
     7
100
AcDbText
 10
247.265592
 20
55.260407
 30
0.0
 40
0.075
  1

  7
ROMANT
100
AcDbText
  0
TEXT
  5
271B
100
AcDbEntity
  8
3
 62
     7
100
AcDbText
 10
212.18653
 20
54.001087
 30
0.0
 40
0.066668
  1

  7
ITALICC
100
AcDbText
  0
TEXT
  5
271C
100
AcDbEntity
  8
3
 62
     7
100
AcDbText
 10
212.103195
 20
54.167758
 30
0.0
 40
0.066668
  1

  7
ITALICC
100
AcDbText
  0
TEXT
  5
271D
100
AcDbEntity
  8
3
 62
     7
100
AcDbText
 10
212.153196
 20
54.084423
 30
0.0
 40
0.066668
  1

  7
ITALICC
100
AcDbText
  0
TEXT
  5
27DA
100
AcDbEntity
  8
3
 62
     7
100
AcDbText
 10
243.585809
 20
69.573987
 30
0.0
 40
0.044446
  1

  7
ITALICC
100
AcDbText
  0
TEXT
  5
27DB
100
AcDbEntity
  8
3
 62
     7
100
AcDbText
 10
243.530252
 20
69.685101
 30
0.0
 40
0.044446
  1

  7
ITALICC
100
AcDbText
  0
TEXT
  5
27DC
100
AcDbEntity
  8
3
 62
     7
100
AcDbText
 10
243.563586
 20
69.629544
 30
0.0
 40
0.044446
  1

  7
ITALICC
100
AcDbText
  0
TEXT
  5
27DD
100
AcDbEntity
  8
3
 62
     7
100
AcDbText
 10
242.837763
 20
54.667408
 30
0.0
 40
0.044446
  1

  7
ITALICC
100
AcDbText
  0
TEXT
  5
27DE
100
AcDbEntity
  8
3
 62
     7
100
AcDbText
 10
242.782206
 20
54.778521
 30
0.0
 40
0.044446
  1

  7
ITALICC
100
AcDbText
  0
TEXT
  5
27DF
100
AcDbEntity
  8
3
 62
     7
100
AcDbText
 10
242.81554
 20
54.722965
 30
0.0
 40
0.044446
  1

  7
ITALICC
100
AcDbText
  0
TEXT
  5
27E0
100
AcDbEntity
  8
3
 62
     7
100
AcDbText
 10
276.8668
 20
77.841177
 30
0.0
 40
0.044446
  1

  7
ITALICC
100
AcDbText
  0
TEXT
  5
27E1
100
AcDbEntity
  8
3
 62
     7
100
AcDbText
 10
276.811243
 20
77.952291
 30
0.0
 40
0.044446
  1

  7
ITALICC
100
AcDbText
  0
TEXT
  5
27E2
100
AcDbEntity
  8
3
 62
     7
100
AcDbText
 10
276.844577
 20
77.896734
 30
0.0
 40
0.044446
  1

  7
ITALICC
100
AcDbText
  0
TEXT
  5
27E3
100
AcDbEntity
  8
3
 62
     7
100
AcDbText
 10
276.8668
 20
62.368151
 30
0.0
 40
0.044446
  1

  7
ITALICC
100
AcDbText
  0
TEXT
  5
27E4
100
AcDbEntity
  8
3
 62
     7
100
AcDbText
 10
276.811243
 20
62.479265
 30
0.0
 40
0.044446
  1

  7
ITALICC
100
AcDbText
  0
TEXT
  5
27E5
100
AcDbEntity
  8
3
 62
     7
100
AcDbText
 10
276.844577
 20
62.423708
 30
0.0
 40
0.044446
  1

  7
ITALICC
100
AcDbText
  0
TEXT
  5
27E6
100
AcDbEntity
  8
3
 62
     7
100
AcDbText
 10
265.681934
 20
77.935623
 30
0.0
 40
0.044446
  1

  7
ITALICC
100
AcDbText
  0
TEXT
  5
27E7
100
AcDbEntity
  8
3
 62
     7
100
AcDbText
 10
265.626377
 20
78.046737
 30
0.0
 40
0.044446
  1

  7
ITALICC
100
AcDbText
  0
TEXT
  5
27E8
100
AcDbEntity
  8
3
 62
     7
100
AcDbText
 10
265.659711
 20
77.99118
 30
0.0
 40
0.044446
  1

  7
ITALICC
100
AcDbText
  0
TEXT
  5
27E9
100
AcDbEntity
  8
0
 62
     7
100
AcDbText
 10
279.143245
 20
69.213236
 30
0.0
 40
0.09
  1

100
AcDbText
  0
TEXT
  5
27EA
100
AcDbEntity
  8
3
 62
     7
100
AcDbText
 10
240.025364
 20
100.777194
 30
0.0
 40
0.088891
  1

 50
21.457561
  7
ITALICC
100
AcDbText
  0
TEXT
  5
27EB
100
AcDbEntity
  8
3
 62
     7
100
AcDbText
 10
239.840658
 20
100.943372
 30
0.0
 40
0.088891
  1

 50
21.457561
  7
ITALICC
100
AcDbText
  0
TEXT
  5
27EC
100
AcDbEntity
  8
3
 62
     7
100
AcDbText
 10
239.943352
 20
100.864348
 30
0.0
 40
0.088891
  1

 50
21.457561
  7
ITALICC
100
AcDbText
  0
TEXT
  5
27ED
100
AcDbEntity
  8
3
 62
     7
100
AcDbText
 10
259.569828
 20
108.459245
 30
0.0
 40
0.088891
  1

 50
21.457561
  7
ITALICC
100
AcDbText
  0
TEXT
  5
27EE
100
AcDbEntity
  8
3
 62
     7
100
AcDbText
 10
259.385122
 20
108.625423
 30
0.0
 40
0.088891
  1

 50
21.457561
  7
ITALICC
100
AcDbText
  0
TEXT
  5
27EF
100
AcDbEntity
  8
3
 62
     7
100
AcDbText
 10
259.487816
 20
108.546399
 30
0.0
 40
0.088891
  1

 50
21.457561
  7
ITALICC
100
AcDbText
  0
TEXT
  5
27F0
100
AcDbEntity
  8
3
 62
     7
100
AcDbText
 10
279.114293
 20
116.141297
 30
0.0
 40
0.088891
  1

 50
21.457561
  7
ITALICC
100
AcDbText
  0
TEXT
  5
27F1
100
AcDbEntity
  8
3
 62
     7
100
AcDbText
 10
278.929586
 20
116.307475
 30
0.0
 40
0.088891
  1

 50
21.457561
  7
ITALICC
100
AcDbText
  0
TEXT
  5
27F2
100
AcDbEntity
  8
3
 62
     7
100
AcDbText
 10
279.032281
 20
116.22845
 30
0.0
 40
0.088891
  1

 50
21.457561
  7
ITALICC
100
AcDbText
  0
TEXT
  5
27F3
100
AcDbEntity
  8
3
 62
     7
100
AcDbText
 10
298.658757
 20
123.823348
 30
0.0
 40
0.088891
  1

 50
21.457561
  7
ITALICC
100
AcDbText
  0
TEXT
  5
27F4
100
AcDbEntity
  8
3
 62
     7
100
AcDbText
 10
298.474051
 20
123.989526
 30
0.0
 40
0.088891
  1

 50
21.457561
  7
ITALICC
100
AcDbText
  0
TEXT
  5
27F5
100
AcDbEntity
  8
3
 62
     7
100
AcDbText
 10
298.576745
 20
123.910502
 30
0.0
 40
0.088891
  1

 50
21.457561
  7
ITALICC
100
AcDbText
  0
TEXT
  5
27F6
100
AcDbEntity
  8
3
 62
     7
100
AcDbText
 10
245.878355
 20
85.886173
 30
0.0
 40
0.088891
  1

 50
21.457561
  7
ITALICC
100
AcDbText
  0
TEXT
  5
27F7
100
AcDbEntity
  8
3
 62
     7
100
AcDbText
 10
245.693649
 20
86.052352
 30
0.0
 40
0.088891
  1

 50
21.457561
  7
ITALICC
100
AcDbText
  0
TEXT
  5
27F8
100
AcDbEntity
  8
3
 62
     7
100
AcDbText
 10
245.796344
 20
85.973327
 30
0.0
 40
0.088891
  1

 50
21.457561
  7
ITALICC
100
AcDbText
  0
TEXT
  5
27F9
100
AcDbEntity
  8
3
 62
     7
100
AcDbText
 10
265.42282
 20
93.568225
 30
0.0
 40
0.088891
  1

 50
21.457561
  7
ITALICC
100
AcDbText
  0
TEXT
  5
27FA
100
AcDbEntity
  8
3
 62
     7
100
AcDbText
 10
265.238114
 20
93.734403
 30
0.0
 40
0.088891
  1

 50
21.457561
  7
ITALICC
100
AcDbText
  0
TEXT
  5
27FB
100
AcDbEntity
  8
3
 62
     7
100
AcDbText
 10
265.340808
 20
93.655379
 30
0.0
 40
0.088891
  1

 50
21.457561
  7
ITALICC
100
AcDbText
  0
TEXT
  5
27FC
100
AcDbEntity
  8
3
 62
     7
100
AcDbText
 10
284.967284
 20
101.250276
 30
0.0
 40
0.088891
  1

 50
21.457561
  7
ITALICC
100
AcDbText
  0
TEXT
  5
27FD
100
AcDbEntity
  8
3
 62
     7
100
AcDbText
 10
284.782578
 20
101.416454
 30
0.0
 40
0.088891
  1

 50
21.457561
  7
ITALICC
100
AcDbText
  0
TEXT
  5
27FE
100
AcDbEntity
  8
3
 62
     7
100
AcDbText
 10
284.885272
 20
101.33743
 30
0.0
 40
0.088891
  1

 50
21.457561
  7
ITALICC
100
AcDbText
  0
TEXT
  5
27FF
100
AcDbEntity
  8
3
 62
     7
100
AcDbText
 10
304.511748
 20
108.932328
 30
0.0
 40
0.088891
  1

 50
21.457561
  7
ITALICC
100
AcDbText
  0
TEXT
  5
2800
100
AcDbEntity
  8
3
 62
     7
100
AcDbText
 10
304.327042
 20
109.098506
 30
0.0
 40
0.088891
  1

 50
21.457561
  7
ITALICC
100
AcDbText
  0
TEXT
  5
2801
100
AcDbEntity
  8
3
 62
     7
100
AcDbText
 10
304.429737
 20
109.019481
 30
0.0
 40
0.088891
  1

 50
21.457561
  7
ITALICC
100
AcDbText
  0
TEXT
  5
2802
100
AcDbEntity
  8
3
 62
     7
100
AcDbText
 10
251.731347
 20
70.995153
 30
0.0
 40
0.088891
  1

 50
21.457561
  7
ITALICC
100
AcDbText
  0
TEXT
  5
2803
100
AcDbEntity
  8
3
 62
     7
100
AcDbText
 10
251.546641
 20
71.161331
 30
0.0
 40
0.088891
  1

 50
21.457561
  7
ITALICC
100
AcDbText
  0
TEXT
  5
2804
100
AcDbEntity
  8
3
 62
     7
100
AcDbText
 10
251.649335
 20
71.082307
 30
0.0
 40
0.088891
  1

 50
21.457561
  7
ITALICC
100
AcDbText
  0
TEXT
  5
2805
100
AcDbEntity
  8
3
 62
     7
100
AcDbText
 10
271.275811
 20
78.677204
 30
0.0
 40
0.088891
  1

 50
21.457561
  7
ITALICC
100
AcDbText
  0
TEXT
  5
2806
100
AcDbEntity
  8
3
 62
     7
100
AcDbText
 10
271.091105
 20
78.843383
 30
0.0
 40
0.088891
  1

 50
21.457561
  7
ITALICC
100
AcDbText
  0
TEXT
  5
2807
100
AcDbEntity
  8
3
 62
     7
100
AcDbText
 10
271.193799
 20
78.764358
 30
0.0
 40
0.088891
  1

 50
21.457561
  7
ITALICC
100
AcDbText
  0
TEXT
  5
2808
100
AcDbEntity
  8
3
 62
     7
100
AcDbText
 10
290.820276
 20
86.359256
 30
0.0
 40
0.088891
  1

 50
21.457561
  7
ITALICC
100
AcDbText
  0
TEXT
  5
2809
100
AcDbEntity
  8
3
 62
     7
100
AcDbText
 10
290.63557
 20
86.525434
 30
0.0
 40
0.088891
  1

 50
21.457561
  7
ITALICC
100
AcDbText
  0
TEXT
  5
280A
100
AcDbEntity
  8
3
 62
     7
100
AcDbText
 10
290.738264
 20
86.44641
 30
0.0
 40
0.088891
  1

 50
21.457561
  7
ITALICC
100
AcDbText
  0
TEXT
  5
280B
100
AcDbEntity
  8
3
 62
     7
100
AcDbText
 10
310.36474
 20
94.041307
 30
0.0
 40
0.088891
  1

 50
21.457561
  7
ITALICC
100
AcDbText
  0
TEXT
  5
280C
100
AcDbEntity
  8
3
 62
     7
100
AcDbText
 10
310.180034
 20
94.207485
 30
0.0
 40
0.088891
  1

 50
21.457561
  7
ITALICC
100
AcDbText
  0
TEXT
  5
280D
100
AcDbEntity
  8
3
 62
     7
100
AcDbText
 10
310.282728
 20
94.128461
 30
0.0
 40
0.088891
  1

 50
21.457561
  7
ITALICC
100
AcDbText
  0
TEXT
  5
280E
100
AcDbEntity
  8
3
 62
     7
100
AcDbText
 10
286.306862
 20
66.63146
 30
0.0
 40
0.088891
  1

 50
21.457561
  7
ITALICC
100
AcDbText
  0
TEXT
  5
280F
100
AcDbEntity
  8
3
 62
     7
100
AcDbText
 10
286.122156
 20
66.797638
 30
0.0
 40
0.088891
  1

 50
21.457561
  7
ITALICC
100
AcDbText
  0
TEXT
  5
2810
100
AcDbEntity
  8
3
 62
     7
100
AcDbText
 10
286.22485
 20
66.718614
 30
0.0
 40
0.088891
  1

 50
21.457561
  7
ITALICC
100
AcDbText
  0
TEXT
  5
2811
100
AcDbEntity
  8
0
100
AcDbText
 10
297.035646
 20
71.961585
 30
0.0
 40
0.086193
  1

 50
348.897994
  7
HELV
100
AcDbText
  0
TEXT
  5
2812
100
AcDbEntity
  8
0
100
AcDbText
 10
298.831279
 20
70.916364
 30
0.0
 40
0.086193
  1

 50
169.647637
  7
HELV
100
AcDbText
  0
TEXT
  5
2813
100
AcDbEntity
  8
0
100
AcDbText
 10
299.088414
 20
70.934258
 30
0.0
 40
0.086193
  1

 50
194.263022
  7
HELV
100
AcDbText
  0
TEXT
  5
2814
100
AcDbEntity
  8
0
100
AcDbText
 10
299.46909
 20
71.264053
 30
0.0
 40
0.086193
  1

 50
243.493791
  7
HELV
100
AcDbText
  0
TEXT
  5
2815
100
AcDbEntity
  8
0
100
AcDbText
 10
299.498412
 20
71.686765
 30
0.0
 40
0.086193
  1

 50
284.519432
  7
HELV
100
AcDbText
  0
TEXT
  5
2816
100
AcDbEntity
  8
0
100
AcDbText
 10
299.166916
 20
72.065961
 30
0.0
 40
0.086193
  1

 50
333.750201
  7
HELV
100
AcDbText
  0
TEXT
  5
2817
100
AcDbEntity
  8
0
100
AcDbText
 10
299.203476
 20
70.880168
 30
0.0
 40
0.046544
  1

 50
26.178009
  7
HELV
100
AcDbText
  0
TEXT
  5
2818
100
AcDbEntity
  8
0
100
AcDbText
 10
299.489813
 20
71.117727
 30
0.0
 40
0.046544
  1

 50
57.212492
  7
HELV
100
AcDbText
  0
TEXT
  5
2819
100
AcDbEntity
  8
0
100
AcDbText
 10
299.605744
 20
71.406537
 30
0.0
 40
0.046544
  1

 50
83.074561
  7
HELV
100
AcDbText
  0
TEXT
  5
281A
100
AcDbEntity
  8
0
100
AcDbText
 10
299.563128
 20
71.776141
 30
0.0
 40
0.046544
  1

 50
114.109044
  7
HELV
100
AcDbText
  0
TEXT
  5
281B
100
AcDbEntity
  8
0
100
AcDbText
 10
299.469673
 20
71.938973
 30
0.0
 40
0.046544
  1

 50
129.626285
  7
HELV
100
AcDbText
  0
TEXT
  5
281C
100
AcDbEntity
  8
TEXT
100
AcDbText
 10
310.853733
 20
65.04488
 30
0.0
 40
0.18
  1

  7
ROMANS
100
AcDbText
  0
TEXT
  5
2D33
100
AcDbEntity
  8
TEXT
  6
BYBLOCK
 62
     7
100
AcDbText
 10
139.746453
 20
23.894492
 30
0.0
 40
0.228229
  1
%%UOPTIONAL MOUNTING%%U
  7
ROMANS
 72
     4
 11
141.47366
 21
23.985783
 31
0.0
100
AcDbText
  0
TEXT
  5
2D34
100
AcDbEntity
  8
TEXT
  6
BYBLOCK
 62
     7
100
AcDbText
 10
138.9539
 20
23.495923
 30
0.0
 40
0.228229
  1
%%USTYLE PB REAR CONNECTOR:%%U
  7
ROMANS
 72
     4
 11
141.47366
 21
23.587214
 31
0.0
100
AcDbText
  0
LINE
  5
2D35
100
AcDbEntity
  8
OBJ
 62
     7
100
AcDbLine
 10
141.925913
 20
25.14479
 30
0.0
 11
141.769413
 21
25.14479
 31
0.0
  0
LINE
  5
2D36
100
AcDbEntity
  8
OBJ
 62
     7
100
AcDbLine
 10
141.925913
 20
25.24679
 30
0.0
 11
141.925913
 21
25.14479
 31
0.0
  0
ARC
  5
2D37
100
AcDbEntity
  8
OBJ
 62
     7
100
AcDbCircle
 10
141.422583
 20
25.237906
 30
0.0
 40
0.14381
100
AcDbArc
 50
220.716676
 51
319.283324
  0
LINE
  5
2D38
100
AcDbEntity
  8
OBJ
 62
     7
100
AcDbLine
 10
140.925913
 20
25.24679
 30
0.0
 11
140.925913
 21
25.14479
 31
0.0
  0
LINE
  5
2D39
100
AcDbEntity
  8
OBJ
 62
     7
100
AcDbLine
 10
140.925913
 20
25.14479
 30
0.0
 11
141.082413
 21
25.14479
 31
0.0
  0
LINE
  5
2D3A
100
AcDbEntity
  8
OBJ
 62
     7
100
AcDbLine
 10
141.925913
 20
25.24679
 30
0.0
 11
140.925913
 21
25.24679
 31
0.0
  0
LINE
  5
2D3B
100
AcDbEntity
  8
OBJ
 62
     7
100
AcDbLine
 10
141.082413
 20
25.14479
 30
0.0
 11
141.769413
 21
25.14479
 31
0.0
  0
LINE
  5
2D3C
100
AcDbEntity
  8
OBJ
 62
     7
100
AcDbLine
 10
140.925913
 20
25.24679
 30
0.0
 11
141.925913
 21
25.24679
 31
0.0
  0
LINE
  5
2D3D
100
AcDbEntity
  8
OBJ
 62
     7
100
AcDbLine
 10
141.925913
 20
25.62179
 30
0.0
 11
141.925913
 21
25.24679
 31
0.0
  0
LINE
  5
2D3E
100
AcDbEntity
  8
OBJ
 62
     7
100
AcDbLine
 10
140.925913
 20
25.62179
 30
0.0
 11
140.925913
 21
25.24679
 31
0.0
  0
LINE
  5
2D3F
100
AcDbEntity
  8
OBJ
 62
     7
100
AcDbLine
 10
141.703413
 20
24.63479
 30
0.0
 11
141.703413
 21
24.57979
 31
0.0
  0
LINE
  5
2D40
100
AcDbEntity
  8
OBJ
 62
     7
100
AcDbLine
 10
141.148413
 20
24.63479
 30
0.0
 11
141.148413
 21
24.57979
 31
0.0
  0
LINE
  5
2D41
100
AcDbEntity
  8
OBJ
 62
     7
100
AcDbLine
 10
141.734413
 20
24.63479
 30
0.0
 11
141.117413
 21
24.63479
 31
0.0
  0
LINE
  5
2D42
100
AcDbEntity
  8
OBJ
 62
     7
100
AcDbLine
 10
141.703413
 20
24.57979
 30
0.0
 11
141.148413
 21
24.57979
 31
0.0
  0
LINE
  5
2D43
100
AcDbEntity
  8
OBJ
 62
     7
100
AcDbLine
 10
141.734413
 20
25.14479
 30
0.0
 11
141.734413
 21
24.63479
 31
0.0
  0
LINE
  5
2D44
100
AcDbEntity
  8
OBJ
 62
     7
100
AcDbLine
 10
141.117413
 20
25.14479
 30
0.0
 11
141.117413
 21
24.63479
 31
0.0
  0
LINE
  5
2D45
100
AcDbEntity
  8
0
 62
     7
100
AcDbLine
 10
142.065631
 20
25.661413
 30
0.0
 11
142.043815
 21
25.62179
 31
0.0
  0
LINE
  5
2D46
100
AcDbEntity
  8
0
 62
     7
100
AcDbLine
 10
142.170767
 20
25.661413
 30
0.0
 11
142.195299
 21
25.62179
 31
0.0
  0
LINE
  5
2D47
100
AcDbEntity
  8
0
 62
     7
100
AcDbLine
 10
142.043815
 20
25.62179
 30
0.0
 11
142.195299
 21
25.62179
 31
0.0
  0
LINE
  5
2D48
100
AcDbEntity
  8
0
 62
     7
100
AcDbLine
 10
142.098199
 20
25.795577
 30
0.0
 11
142.098199
 21
25.661413
 31
0.0
  0
LINE
  5
2D49
100
AcDbEntity
  8
0
 62
     7
100
AcDbLine
 10
142.138199
 20
25.795577
 30
0.0
 11
142.138199
 21
25.661413
 31
0.0
  0
LINE
  5
2D4A
100
AcDbEntity
  8
0
 62
     7
100
AcDbLine
 10
142.138199
 20
25.661413
 30
0.0
 11
142.170767
 21
25.661413
 31
0.0
  0
LINE
  5
2D4B
100
AcDbEntity
  8
0
 62
     7
100
AcDbLine
 10
142.065631
 20
25.661413
 30
0.0
 11
142.098199
 21
25.661413
 31
0.0
  0
LINE
  5
2D4D
100
AcDbEntity
  8
0
 62
     7
100
AcDbLine
 10
140.771125
 20
25.661413
 30
0.0
 11
140.795657
 21
25.62179
 31
0.0
  0
LINE
  5
2D4E
100
AcDbEntity
  8
0
 62
     7
100
AcDbLine
 10
140.665989
 20
25.661413
 30
0.0
 11
140.644173
 21
25.62179
 31
0.0
  0
LINE
  5
2D4F
100
AcDbEntity
  8
0
 62
     7
100
AcDbLine
 10
140.644173
 20
25.62179
 30
0.0
 11
140.795657
 21
25.62179
 31
0.0
  0
LINE
  5
2D50
100
AcDbEntity
  8
0
 62
     7
100
AcDbLine
 10
140.665989
 20
25.661413
 30
0.0
 11
140.698557
 21
25.661413
 31
0.0
  0
LINE
  5
2D51
100
AcDbEntity
  8
0
 62
     7
100
AcDbLine
 10
140.698557
 20
25.795577
 30
0.0
 11
140.698557
 21
25.661413
 31
0.0
  0
LINE
  5
2D52
100
AcDbEntity
  8
0
 62
     7
100
AcDbLine
 10
140.738557
 20
25.795577
 30
0.0
 11
140.738557
 21
25.661413
 31
0.0
  0
LINE
  5
2D53
100
AcDbEntity
  8
0
 62
     7
100
AcDbLine
 10
140.738557
 20
25.661413
 30
0.0
 11
140.771125
 21
25.661413
 31
0.0
  0
LINE
  5
2D55
100
AcDbEntity
  8
ART1
 62
     7
100
AcDbLine
 10
140.524913
 20
25.62179
 30
0.0
 11
140.524913
 21
25.795577
 31
0.0
  0
LINE
  5
2D56
100
AcDbEntity
  8
ART1
 62
     7
100
AcDbLine
 10
142.326913
 20
25.62179
 30
0.0
 11
140.524913
 21
25.62179
 31
0.0
  0
LINE
  5
2D57
100
AcDbEntity
  8
ART1
 62
     7
100
AcDbLine
 10
142.326913
 20
25.62179
 30
0.0
 11
142.326913
 21
25.795577
 31
0.0
  0
LINE
  5
2D58
100
AcDbEntity
  8
OBJ
 62
     7
100
AcDbLine
 10
140.905302
 20
27.160577
 30
0.0
 11
139.410302
 21
27.160577
 31
0.0
  0
LINE
  5
2D59
100
AcDbEntity
  8
PILLOWBLOCK
 62
     7
100
AcDbLine
 10
141.225302
 20
26.734895
 30
0.0
 11
141.585302
 21
26.734895
 31
0.0
  0
LINE
  5
2D5A
100
AcDbEntity
  8
PILLOWBLOCK
 62
     7
100
AcDbLine
 10
141.405302
 20
26.554895
 30
0.0
 11
141.405302
 21
26.914895
 31
0.0
  0
LINE
  5
2D72
100
AcDbEntity
  8
0
  6
BYBLOCK
 62
     7
100
AcDbLine
 10
144.160582
 20
24.572522
 30
0.0
 11
143.980582
 21
24.572522
 31
0.0
  0
LINE
  5
2D73
100
AcDbEntity
  8
0
  6
BYBLOCK
 62
     7
100
AcDbLine
 10
143.980582
 20
24.572522
 30
0.0
 11
143.19248
 21
26.258608
 31
0.0
  0
MTEXT
  5
2D74
100
AcDbEntity
  8
0
  6
BYBLOCK
 62
     7
100
AcDbMText
 10
145.405582
 20
24.572522
 30
0.0
 40
0.18
 41
0.0
 71
     5
 72
     1
  1
\A1;2X \U+22050.41 THRU. 
  0
SOLID
  5
2D75
100
AcDbEntity
  8
0
  6
BYBLOCK
 62
     7
100
AcDbTrace
 10
143.219658
 20
26.271312
 30
0.0
 11
143.165302
 21
26.245905
 31
0.0
 12
143.11626
 22
26.421675
 32
0.0
 13
143.11626
 23
26.421675
 33
0.0
  0
POINT
  5
2D78
100
AcDbEntity
  8
DEFPOINTS
  6
BYBLOCK
 62
     7
100
AcDbPoint
 10
143.11626
 20
26.421675
 30
0.0
  0
POINT
  5
2D79
100
AcDbEntity
  8
DEFPOINTS
  6
BYBLOCK
 62
     7
100
AcDbPoint
 10
142.944343
 20
26.789479
 30
0.0
  0
DIMENSION
  5
2DA1
100
AcDbEntity
  8
PILLOWBLOCK
 62
     7
100
AcDbDimension
  2
*D36
 10
143.030302
 20
29.016331
 30
0.0
 11
141.405302
 21
29.016331
 31
0.0
 12
3.968113
 22
2.867633
 32
0.0
 70
    32
  3
BODYT
100
AcDbAlignedDimension
 13
139.780302
 23
26.695577
 33
0.0
 14
143.030302
 24
26.695577
 34
0.0
100
AcDbRotatedDimension
1001
ACAD
1000
DSTYLE
1002
{
1070
    47
1040
0.003
1070
   147
1040
0.18
1070
   287
1070
     3
1070
    42
1040
0.125
1070
    44
1040
0.36
1070
    43
1040
0.18
1070
   141
1040
0.18
1002
}
  0
DIMENSION
  5
2DCE
100
AcDbEntity
  8
PILLOWBLOCK
 62
     7
100
AcDbDimension
  2
*D37
 10
139.166928
 20
24.57979
 30
0.0
 11
139.166928
 21
25.187683
 31
0.0
 12
3.968113
 22
2.867633
 32
0.0
 70
   160
  3
BODYT
100
AcDbAlignedDimension
 13
140.524913
 23
25.795577
 33
0.0
 14
141.148413
 24
24.57979
 34
0.0
 50
90.0
100
AcDbRotatedDimension
1001
ACAD
1000
DSTYLE
1002
{
1070
    47
1040
0.003
1070
   147
1040
0.18
1070
   287
1070
     3
1070
    42
1040
0.125
1070
    44
1040
0.36
1070
    43
1040
0.18
1070
   141
1040
0.18
1002
}
  0
LINE
  5
2E0C
100
AcDbEntity
  8
PILLOWBLOCK
 62
     7
100
AcDbLine
 10
118.429006
 20
24.219422
 30
0.0
 11
106.580284
 21
24.219422
 31
0.0
  0
LINE
  5
2E0D
100
AcDbEntity
  8
PILLOWBLOCK
 62
     7
100
AcDbLine
 10
118.429006
 20
25.025871
 30
0.0
 11
104.908202
 21
25.025871
 31
0.0
  0
LINE
  5
2E0E
100
AcDbEntity
  8
PILLOWBLOCK
 62
     7
100
AcDbLine
 10
118.429006
 20
25.774715
 30
0.0
 11
107.502813
 21
25.774715
 31
0.0
  0
LINE
  5
2E11
100
AcDbEntity
  8
PILLOWBLOCK
 62
     7
100
AcDbLine
 10
118.429006
 20
22.635328
 30
0.0
 11
106.580284
 21
22.635328
 31
0.0
  0
LINE
  5
2E12
100
AcDbEntity
  8
PILLOWBLOCK
 62
     7
100
AcDbLine
 10
118.429006
 20
23.441776
 30
0.0
 11
104.908202
 21
23.441776
 31
0.0
  0
LINE
  5
2E13
100
AcDbEntity
  8
PILLOWBLOCK
 62
     7
100
AcDbLine
 10
106.580284
 20
25.025871
 30
0.0
 11
106.580284
 21
21.82888
 31
0.0
  0
LINE
  5
2E14
100
AcDbEntity
  8
PILLOWBLOCK
 62
     7
100
AcDbLine
 10
107.502813
 20
26.609965
 30
0.0
 11
107.502813
 21
21.82888
 31
0.0
  0
LINE
  5
2E15
100
AcDbEntity
  8
PILLOWBLOCK
 62
     7
100
AcDbLine
 10
109.290211
 20
25.774715
 30
0.0
 11
109.290211
 21
21.82888
 31
0.0
  0
LINE
  5
2E16
100
AcDbEntity
  8
PILLOWBLOCK
 62
     7
100
AcDbLine
 10
111.07761
 20
25.774715
 30
0.0
 11
111.07761
 21
21.82888
 31
0.0
  0
LINE
  5
2E17
100
AcDbEntity
  8
PILLOWBLOCK
 62
     7
100
AcDbLine
 10
113.066811
 20
25.774715
 30
0.0
 11
113.066811
 21
21.82888
 31
0.0
  0
LINE
  5
2E18
100
AcDbEntity
  8
PILLOWBLOCK
 62
     7
100
AcDbLine
 10
114.854209
 20
25.774715
 30
0.0
 11
114.854209
 21
21.82888
 31
0.0
  0
LINE
  5
2E19
100
AcDbEntity
  8
PILLOWBLOCK
 62
     7
100
AcDbLine
 10
116.641608
 20
25.774715
 30
0.0
 11
116.641608
 21
21.82888
 31
0.0
  0
LINE
  5
2E1A
100
AcDbEntity
  8
PILLOWBLOCK
 62
     7
100
AcDbLine
 10
118.429006
 20
21.82888
 30
0.0
 11
104.908202
 21
21.82888
 31
0.0
  0
LINE
  5
2E1B
100
AcDbEntity
  8
PILLOWBLOCK
 62
     7
100
AcDbLine
 10
104.908202
 20
21.82888
 30
0.0
 11
104.908202
 21
26.609965
 31
0.0
  0
LINE
  5
2E1C
100
AcDbEntity
  8
PILLOWBLOCK
 62
     7
100
AcDbLine
 10
104.908202
 20
26.609965
 30
0.0
 11
118.429006
 21
26.609965
 31
0.0
  0
LINE
  5
2E1E
100
AcDbEntity
  8
PILLOWBLOCK
 62
     7
100
AcDbLine
 10
118.429006
 20
26.609965
 30
0.0
 11
118.429006
 21
21.82888
 31
0.0
  0
TEXT
  5
2E1F
100
AcDbEntity
  8
BORDER
  6
CONTINUOUS
 62
     7
100
AcDbText
 10
108.277965
 20
25.191451
 30
0.0
 40
0.3744
  1
1
  7
TXT
 72
     1
 11
108.340365
 21
25.191451
 31
0.0
100
AcDbText
  0
TEXT
  5
2E20
100
AcDbEntity
  8
BORDER
  6
CONTINUOUS
 62
     7
100
AcDbText
 10
110.002963
 20
25.191451
 30
0.0
 40
0.3744
  1
2
  7
TXT
 72
     1
 11
110.127763
 21
25.191451
 31
0.0
100
AcDbText
  0
TEXT
  5
2E22
100
AcDbEntity
  8
BORDER
  6
CONTINUOUS
 62
     7
100
AcDbText
 10
111.790362
 20
25.191451
 30
0.0
 40
0.3744
  1
3
  7
TXT
 72
     1
 11
111.915162
 21
25.191451
 31
0.0
100
AcDbText
  0
TEXT
  5
2E23
100
AcDbEntity
  8
BORDER
  6
CONTINUOUS
 62
     7
100
AcDbText
 10
113.779563
 20
25.191451
 30
0.0
 40
0.3744
  1
4
  7
TXT
 72
     1
 11
113.904363
 21
25.191451
 31
0.0
100
AcDbText
  0
TEXT
  5
2E24
100
AcDbEntity
  8
BORDER
  6
CONTINUOUS
 62
     7
100
AcDbText
 10
115.566962
 20
25.191451
 30
0.0
 40
0.3744
  1
5
  7
TXT
 72
     1
 11
115.691762
 21
25.191451
 31
0.0
100
AcDbText
  0
TEXT
  5
2E25
100
AcDbEntity
  8
BORDER
  6
CONTINUOUS
 62
     7
100
AcDbText
 10
117.35436
 20
25.191451
 30
0.0
 40
0.3744
  1
6
  7
TXT
 72
     1
 11
117.47916
 21
25.191451
 31
0.0
100
AcDbText
  0
TEXT
  5
2E26
100
AcDbEntity
  8
BORDER
  6
CONTINUOUS
 62
     7
100
AcDbText
 10
107.903565
 20
24.442606
 30
0.0
 40
0.3744
  1
1.13
  7
TXT
 72
     1
 11
108.340365
 21
24.442606
 31
0.0
100
AcDbText
  0
TEXT
  5
2E27
100
AcDbEntity
  8
BORDER
  6
CONTINUOUS
 62
     7
100
AcDbText
 10
109.628563
 20
24.442606
 30
0.0
 40
0.3744
  1
2.13
  7
TXT
 72
     1
 11
110.127763
 21
24.442606
 31
0.0
100
AcDbText
  0
TEXT
  5
2E28
100
AcDbEntity
  8
BORDER
  6
CONTINUOUS
 62
     7
100
AcDbText
 10
111.415962
 20
24.442606
 30
0.0
 40
0.3744
  1
3.13
  7
TXT
 72
     1
 11
111.915162
 21
24.442606
 31
0.0
100
AcDbText
  0
TEXT
  5
2E29
100
AcDbEntity
  8
BORDER
  6
CONTINUOUS
 62
     7
100
AcDbText
 10
113.405163
 20
24.442606
 30
0.0
 40
0.3744
  1
4.13
  7
TXT
 72
     1
 11
113.904363
 21
24.442606
 31
0.0
100
AcDbText
  0
TEXT
  5
2E2A
100
AcDbEntity
  8
BORDER
  6
CONTINUOUS
 62
     7
100
AcDbText
 10
115.192562
 20
24.442606
 30
0.0
 40
0.3744
  1
5.13
  7
TXT
 72
     1
 11
115.691762
 21
24.442606
 31
0.0
100
AcDbText
  0
TEXT
  5
2E2B
100
AcDbEntity
  8
BORDER
  6
CONTINUOUS
 62
     7
100
AcDbText
 10
116.97996
 20
24.442606
 30
0.0
 40
0.3744
  1
6.13
  7
TXT
 72
     1
 11
117.47916
 21
24.442606
 31
0.0
100
AcDbText
  0
TEXT
  5
2E2C
100
AcDbEntity
  8
BORDER
  6
CONTINUOUS
 62
     7
100
AcDbText
 10
107.778765
 20
23.636158
 30
0.0
 40
0.3744
  1
28.7
  7
TXT
 72
     1
 11
108.340365
 21
23.636158
 31
0.0
100
AcDbText
  0
TEXT
  5
2E2D
100
AcDbEntity
  8
BORDER
  6
CONTINUOUS
 62
     7
100
AcDbText
 10
109.628563
 20
23.636158
 30
0.0
 40
0.3744
  1
54.1
  7
TXT
 72
     1
 11
110.127763
 21
23.636158
 31
0.0
100
AcDbText
  0
TEXT
  5
2E2E
100
AcDbEntity
  8
BORDER
  6
CONTINUOUS
 62
     7
100
AcDbText
 10
111.353562
 20
23.636158
 30
0.0
 40
0.3744
  1
79.5
  7
TXT
 72
     1
 11
111.915162
 21
23.636158
 31
0.0
100
AcDbText
  0
TEXT
  5
2E2F
100
AcDbEntity
  8
BORDER
  6
CONTINUOUS
 62
     7
100
AcDbText
 10
113.249163
 20
23.636158
 30
0.0
 40
0.3744
  1
104.9
  7
TXT
 72
     1
 11
113.904363
 21
23.636158
 31
0.0
100
AcDbText
  0
TEXT
  5
2E30
100
AcDbEntity
  8
BORDER
  6
CONTINUOUS
 62
     7
100
AcDbText
 10
115.036562
 20
23.636158
 30
0.0
 40
0.3744
  1
130.3
  7
TXT
 72
     1
 11
115.691762
 21
23.636158
 31
0.0
100
AcDbText
  0
TEXT
  5
2E31
100
AcDbEntity
  8
BORDER
  6
CONTINUOUS
 62
     7
100
AcDbText
 10
116.79276
 20
23.636158
 30
0.0
 40
0.3744
  1
155.7
  7
TXT
 72
     1
 11
117.47916
 21
23.636158
 31
0.0
100
AcDbText
  0
TEXT
  5
2E32
100
AcDbEntity
  8
BORDER
  6
CONTINUOUS
 62
     7
100
AcDbText
 10
107.841165
 20
22.858511
 30
0.0
 40
0.3744
  1
1.28
  7
TXT
 72
     1
 11
108.340365
 21
22.858511
 31
0.0
100
AcDbText
  0
TEXT
  5
2E33
100
AcDbEntity
  8
BORDER
  6
CONTINUOUS
 62
     7
100
AcDbText
 10
109.566163
 20
22.858511
 30
0.0
 40
0.3744
  1
2.28
  7
TXT
 72
     1
 11
110.127763
 21
22.858511
 31
0.0
100
AcDbText
  0
TEXT
  5
2E34
100
AcDbEntity
  8
BORDER
  6
CONTINUOUS
 62
     7
100
AcDbText
 10
111.353562
 20
22.858511
 30
0.0
 40
0.3744
  1
3.28
  7
TXT
 72
     1
 11
111.915162
 21
22.858511
 31
0.0
100
AcDbText
  0
TEXT
  5
2E35
100
AcDbEntity
  8
BORDER
  6
CONTINUOUS
 62
     7
100
AcDbText
 10
113.342763
 20
22.858511
 30
0.0
 40
0.3744
  1
4.28
  7
TXT
 72
     1
 11
113.904363
 21
22.858511
 31
0.0
100
AcDbText
  0
TEXT
  5
2E36
100
AcDbEntity
  8
BORDER
  6
CONTINUOUS
 62
     7
100
AcDbText
 10
115.130162
 20
22.858511
 30
0.0
 40
0.3744
  1
5.28
  7
TXT
 72
     1
 11
115.691762
 21
22.858511
 31
0.0
100
AcDbText
  0
TEXT
  5
2E37
100
AcDbEntity
  8
BORDER
  6
CONTINUOUS
 62
     7
100
AcDbText
 10
116.91756
 20
22.858511
 30
0.0
 40
0.3744
  1
6.28
  7
TXT
 72
     1
 11
117.47916
 21
22.858511
 31
0.0
100
AcDbText
  0
TEXT
  5
2E38
100
AcDbEntity
  8
BORDER
  6
CONTINUOUS
 62
     7
100
AcDbText
 10
107.778765
 20
22.052063
 30
0.0
 40
0.3744
  1
32.5
  7
TXT
 72
     1
 11
108.340365
 21
22.052063
 31
0.0
100
AcDbText
  0
TEXT
  5
2E39
100
AcDbEntity
  8
BORDER
  6
CONTINUOUS
 62
     7
100
AcDbText
 10
109.566163
 20
22.052063
 30
0.0
 40
0.3744
  1
57.9
  7
TXT
 72
     1
 11
110.127763
 21
22.052063
 31
0.0
100
AcDbText
  0
TEXT
  5
2E3A
100
AcDbEntity
  8
BORDER
  6
CONTINUOUS
 62
     7
100
AcDbText
 10
111.353562
 20
22.052063
 30
0.0
 40
0.3744
  1
83.3
  7
TXT
 72
     1
 11
111.915162
 21
22.052063
 31
0.0
100
AcDbText
  0
TEXT
  5
2E3B
100
AcDbEntity
  8
BORDER
  6
CONTINUOUS
 62
     7
100
AcDbText
 10
113.249163
 20
22.052063
 30
0.0
 40
0.3744
  1
108.7
  7
TXT
 72
     1
 11
113.904363
 21
22.052063
 31
0.0
100
AcDbText
  0
TEXT
  5
2E3C
100
AcDbEntity
  8
BORDER
  6
CONTINUOUS
 62
     7
100
AcDbText
 10
115.067762
 20
22.052063
 30
0.0
 40
0.3744
  1
134.1
  7
TXT
 72
     1
 11
115.691762
 21
22.052063
 31
0.0
100
AcDbText
  0
TEXT
  5
2E3D
100
AcDbEntity
  8
BORDER
  6
CONTINUOUS
 62
     7
100
AcDbText
 10
116.79276
 20
22.052063
 30
0.0
 40
0.3744
  1
159.5
  7
TXT
 72
     1
 11
117.47916
 21
22.052063
 31
0.0
100
AcDbText
  0
TEXT
  5
2E40
100
AcDbEntity
  8
BORDER
  6
CONTINUOUS
 62
     7
100
AcDbText
 10
106.755902
 20
24.442606
 30
0.0
 40
0.3744
  1
IN.
  7
TXT
 72
     1
 11
107.067902
 21
24.442606
 31
0.0
100
AcDbText
  0
TEXT
  5
2E41
100
AcDbEntity
  8
BORDER
  6
CONTINUOUS
 62
     7
100
AcDbText
 10
106.755902
 20
23.636158
 30
0.0
 40
0.3744
  1
MM
  7
TXT
 72
     1
 11
107.067902
 21
23.636158
 31
0.0
100
AcDbText
  0
TEXT
  5
2E42
100
AcDbEntity
  8
BORDER
  6
CONTINUOUS
 62
     7
100
AcDbText
 10
106.755902
 20
22.858511
 30
0.0
 40
0.3744
  1
IN.
  7
TXT
 72
     1
 11
107.067902
 21
22.858511
 31
0.0
100
AcDbText
  0
TEXT
  5
2E43
100
AcDbEntity
  8
BORDER
  6
CONTINUOUS
 62
     7
100
AcDbText
 10
106.755902
 20
22.052063
 30
0.0
 40
0.3744
  1
MM
  7
TXT
 72
     1
 11
107.067902
 21
22.052063
 31
0.0
100
AcDbText
  0
TEXT
  5
2E44
100
AcDbEntity
  8
BORDER
  6
CONTINUOUS
 62
     7
100
AcDbText
 10
105.532954
 20
24.066046
 30
0.0
 40
0.468
  1
A
  7
TXT
 72
     1
 11
105.688954
 21
24.066046
 31
0.0
100
AcDbText
  0
TEXT
  5
2E46
100
AcDbEntity
  8
BORDER
  6
CONTINUOUS
 62
     7
100
AcDbText
 10
105.532954
 20
22.410453
 30
0.0
 40
0.468
  1
B
  7
TXT
 72
     1
 11
105.688954
 21
22.410453
 31
0.0
100
AcDbText
  0
TEXT
  5
2E47
100
AcDbEntity
  8
BORDER
  6
CONTINUOUS
 62
     7
100
AcDbText
 10
109.410166
 20
25.989683
 30
0.0
 40
0.3744
  1
RIBBON WHEEL SIZES
  7
TXT
 72
     1
 11
112.654966
 21
25.989683
 31
0.0
100
AcDbText
  0
DIMENSION
  5
2E56
100
AcDbEntity
  8
PILLOWBLOCK
 62
     7
100
AcDbDimension
  2
*D38
 10
122.305302
 20
24.096936
 30
0.0
 11
121.405302
 21
24.096936
 31
0.0
 70
    32
  3
BODYT
100
AcDbAlignedDimension
 13
120.505302
 23
25.489705
 33
0.0
 14
122.305302
 24
25.489705
 34
0.0
100
AcDbRotatedDimension
1001
ACAD
1000
DSTYLE
1002
{
1070
   147
1040
0.18
1070
   287
1070
     3
1070
    42
1040
0.13
1070
    44
1040
0.36
1070
    43
1040
0.18
1070
   141
1040
0.18
1002
}
  0
DIMENSION
  5
2E8C
100
AcDbEntity
  8
PILLOWBLOCK
 62
     7
100
AcDbDimension
  2
*D39
 10
122.786434
 20
10.694252
 30
0.0
 11
121.339934
 21
10.694252
 31
0.0
 70
    32
  3
BODYT
100
AcDbAlignedDimension
 13
119.893434
 23
10.006932
 33
0.0
 14
122.786434
 24
10.075682
 34
0.0
100
AcDbRotatedDimension
1001
ACAD
1000
DSTYLE
1002
{
1070
   147
1040
0.18
1070
   287
1070
     3
1070
    42
1040
0.13
1070
    44
1040
0.36
1070
    43
1040
0.18
1070
   141
1040
0.18
1002
}
  0
LWPOLYLINE
  5
2E9C
100
AcDbEntity
  8
OBJASSY
  6
DASHDOT
 62
     7
100
AcDbPolyline
 90
        4
 70
     1
 43
0.0
 10
129.901457
 20
10.026932
 10
129.901457
 20
8.186932
 10
130.179457
 20
8.186932
 10
130.179457
 20
10.026932
  0
DIMENSION
  5
2EB8
100
AcDbEntity
  8
PILLOWBLOCK
 62
     7
100
AcDbDimension
  2
*D40
 10
132.786457
 20
11.197796
 30
0.0
 11
131.343957
 21
11.197796
 31
0.0
 70
    32
  3
BODYT
100
AcDbAlignedDimension
 13
129.901457
 23
10.026932
 33
0.0
 14
132.786457
 24
10.061307
 34
0.0
100
AcDbRotatedDimension
1001
ACAD
1000
DSTYLE
1002
{
1070
   147
1040
0.18
1070
   287
1070
     3
1070
    42
1040
0.13
1070
    44
1040
0.36
1070
    43
1040
0.18
1070
   141
1040
0.18
1002
}
  0
LWPOLYLINE
  5
2ED6
100
AcDbEntity
  8
OBJASSY
  6
DASHDOT
 62
     7
100
AcDbPolyline
 90
        4
 70
     1
 43
0.0
 10
139.901434
 20
10.026932
 10
139.901434
 20
8.186932
 10
140.179434
 20
8.186932
 10
140.179434
 20
10.026932
  0
DIMENSION
  5
2EE4
100
AcDbEntity
  8
PILLOWBLOCK
 62
     7
100
AcDbDimension
  2
*D41
 10
142.786434
 20
11.087354
 30
0.0
 11
141.343934
 21
11.087354
 31
0.0
 70
    32
  3
BODYT
100
AcDbAlignedDimension
 13
139.901434
 23
10.026932
 33
0.0
 14
142.786434
 24
9.956832
 34
0.0
100
AcDbRotatedDimension
1001
ACAD
1000
DSTYLE
1002
{
1070
   147
1040
0.18
1070
   287
1070
     3
1070
    42
1040
0.13
1070
    44
1040
0.36
1070
    43
1040
0.18
1070
   141
1040
0.18
1002
}
  0
LINE
  5
2EF4
100
AcDbEntity
  8
0
  6
BYBLOCK
 62
     7
100
AcDbLine
 10
121.581434
 20
8.013182
 30
0.0
 11
121.581434
 21
6.694065
 31
0.0
  0
LINE
  5
2EF5
100
AcDbEntity
  8
0
  6
BYBLOCK
 62
     7
100
AcDbLine
 10
122.706434
 20
8.013182
 30
0.0
 11
122.706434
 21
6.694065
 31
0.0
  0
LINE
  5
2EF6
100
AcDbEntity
  8
0
  6
BYBLOCK
 62
     7
100
AcDbLine
 10
121.401434
 20
7.054065
 30
0.0
 11
121.221434
 21
7.054065
 31
0.0
  0
LINE
  5
2EF7
100
AcDbEntity
  8
0
  6
BYBLOCK
 62
     7
100
AcDbLine
 10
122.886434
 20
7.054065
 30
0.0
 11
123.066434
 21
7.054065
 31
0.0
  0
SOLID
  5
2EF8
100
AcDbEntity
  8
0
  6
BYBLOCK
 62
     7
100
AcDbTrace
 10
121.401434
 20
7.084065
 30
0.0
 11
121.401434
 21
7.024065
 31
0.0
 12
121.581434
 22
7.054065
 32
0.0
 13
121.581434
 23
7.054065
 33
0.0
  0
SOLID
  5
2EF9
100
AcDbEntity
  8
0
  6
BYBLOCK
 62
     7
100
AcDbTrace
 10
122.886434
 20
7.084065
 30
0.0
 11
122.886434
 21
7.024065
 31
0.0
 12
122.706434
 22
7.054065
 32
0.0
 13
122.706434
 23
7.054065
 33
0.0
  0
TEXT
  5
2EFA
100
AcDbEntity
  8
0
  6
BYBLOCK
 62
     7
100
AcDbText
 10
122.070143
 20
6.987803
 30
0.0
 40
0.252
  1
A
 72
     1
 11
122.154143
 21
7.113803
 31
0.0
100
AcDbText
 73
     2
  0
POINT
  5
2EFB
100
AcDbEntity
  8
DEFPOINTS
  6
BYBLOCK
 62
     7
100
AcDbPoint
 10
121.581434
 20
8.138182
 30
0.0
  0
POINT
  5
2EFC
100
AcDbEntity
  8
DEFPOINTS
  6
BYBLOCK
 62
     7
100
AcDbPoint
 10
122.706434
 20
8.138182
 30
0.0
  0
POINT
  5
2EFD
100
AcDbEntity
  8
DEFPOINTS
  6
BYBLOCK
 62
     7
100
AcDbPoint
 10
122.706434
 20
7.054065
 30
0.0
  0
LINE
  5
2EFE
100
AcDbEntity
  8
0
  6
BYBLOCK
 62
     7
100
AcDbLine
 10
122.786434
 20
8.013182
 30
0.0
 11
122.786434
 21
5.878346
 31
0.0
  0
LINE
  5
2EFF
100
AcDbEntity
  8
0
  6
BYBLOCK
 62
     7
100
AcDbLine
 10
121.501434
 20
8.013182
 30
0.0
 11
121.501434
 21
5.878346
 31
0.0
  0
LINE
  5
2F00
100
AcDbEntity
  8
0
  6
BYBLOCK
 62
     7
100
AcDbLine
 10
122.966434
 20
6.238346
 30
0.0
 11
123.146434
 21
6.238346
 31
0.0
  0
LINE
  5
2F01
100
AcDbEntity
  8
0
  6
BYBLOCK
 62
     7
100
AcDbLine
 10
121.321434
 20
6.238346
 30
0.0
 11
121.141434
 21
6.238346
 31
0.0
  0
SOLID
  5
2F02
100
AcDbEntity
  8
0
  6
BYBLOCK
 62
     7
100
AcDbTrace
 10
122.966434
 20
6.268346
 30
0.0
 11
122.966434
 21
6.208346
 31
0.0
 12
122.786434
 22
6.238346
 32
0.0
 13
122.786434
 23
6.238346
 33
0.0
  0
SOLID
  5
2F03
100
AcDbEntity
  8
0
  6
BYBLOCK
 62
     7
100
AcDbTrace
 10
121.321434
 20
6.268346
 30
0.0
 11
121.321434
 21
6.208346
 31
0.0
 12
121.501434
 22
6.238346
 32
0.0
 13
121.501434
 23
6.238346
 33
0.0
  0
TEXT
  5
2F04
100
AcDbEntity
  8
0
  6
BYBLOCK
 62
     7
100
AcDbText
 10
122.070143
 20
6.109786
 30
0.0
 40
0.252
  1
B
 72
     1
 11
122.154143
 21
6.235786
 31
0.0
100
AcDbText
 73
     2
  0
POINT
  5
2F05
100
AcDbEntity
  8
DEFPOINTS
  6
BYBLOCK
 62
     7
100
AcDbPoint
 10
122.786434
 20
8.138182
 30
0.0
  0
POINT
  5
2F06
100
AcDbEntity
  8
DEFPOINTS
  6
BYBLOCK
 62
     7
100
AcDbPoint
 10
121.501434
 20
8.138182
 30
0.0
  0
POINT
  5
2F07
100
AcDbEntity
  8
DEFPOINTS
  6
BYBLOCK
 62
     7
100
AcDbPoint
 10
121.501434
 20
6.238346
 30
0.0
  0
LINE
  5
2F1C
100
AcDbEntity
  8
BORDER
  6
CONTINUOUS
 62
     7
100
AcDbLine
 10
115.468666
 20
32.373294
 30
0.0
 11
115.468666
 21
30.436152
 31
0.0
  0
LWPOLYLINE
  5
2F1D
100
AcDbEntity
  8
BORDER
 62
     7
100
AcDbPolyline
 90
        4
 70
     1
 43
0.026
 10
111.872773
 20
30.423294
 10
103.783677
 20
30.423294
 10
103.783677
 20
28.112124
 10
111.872773
 20
28.112124
  0
TEXT
  5
2F1E
100
AcDbEntity
  8
BORDER
 62
     7
100
AcDbText
 10
103.936902
 20
29.498826
 30
0.0
 40
0.110936
  1
IS THE CONFIDENTIAL PROPERTY OF DOVER FLEXO ELECTRONICS, NONE OF WHICH SHALL
 41
0.95
100
AcDbText
  0
TEXT
  5
2F1F
100
AcDbEntity
  8
BORDER
 62
     7
100
AcDbText
 10
103.936902
 20
29.267709
 30
0.0
 40
0.110936
  1
BE COPIED, REPRODUCED, DISCLOSED TO OTHERS, PUBLISHED OR USED IN WHOLE OR IN
 41
0.95
100
AcDbText
  0
TEXT
  5
2F20
100
AcDbEntity
  8
BORDER
 62
     7
100
AcDbText
 10
103.936902
 20
29.036592
 30
0.0
 40
0.110936
  1
PART, FOR ANY PURPOSE OTHER THAN THAT FOR WHICH IT IS BEING MADE AVAILABLE
 41
0.95
100
AcDbText
  0
TEXT
  5
2F21
100
AcDbEntity
  8
BORDER
 62
     7
100
AcDbText
 10
103.936902
 20
28.805475
 30
0.0
 40
0.110936
  1
WITHOUT THE EXPRESS ADVANCE WRITTEN PERMISSION OF A DULY AUTHORIZED AGENT
 41
0.95
100
AcDbText
  0
TEXT
  5
2F22
100
AcDbEntity
  8
BORDER
 62
     7
100
AcDbText
 10
103.936902
 20
28.574358
 30
0.0
 40
0.110936
  1
OF THE COMPANY. THIS DOCUMENT IS THE PROPERTY OF DFE AND
 41
0.95
100
AcDbText
  0
TEXT
  5
2F23
100
AcDbEntity
  8
BORDER
 62
     7
100
AcDbText
 10
103.936902
 20
29.729943
 30
0.0
 40
0.110936
  1
THE SUBJECT MATTER DISCLOSED HEREIN EMBODIES PROPRIETARY INFORMATION WHICH
 41
0.95
100
AcDbText
  0
TEXT
  5
2F24
100
AcDbEntity
  8
BORDER
 62
     7
100
AcDbText
 10
105.872507
 20
30.105517
 30
0.0
 40
0.15716
  1
COMPANY CONFIDENTIAL
 41
1.25
100
AcDbText
  0
LINE
  5
2F25
100
AcDbEntity
  8
BORDER
 62
     7
100
AcDbLine
 10
105.785838
 20
30.047738
 30
0.0
 11
109.714827
 21
30.047738
 31
0.0
  0
TEXT
  5
2F26
100
AcDbEntity
  8
BORDER
 62
     7
100
AcDbText
 10
103.936902
 20
28.343241
 30
0.0
 40
0.110936
  1
IS TO BE RETURNED TO THE COMPANY ON DEMAND.
 41
0.95
100
AcDbText
  0
ENDSEC
  0
SECTION
  2
OBJECTS
  0
DICTIONARY
  5
C
100
AcDbDictionary
  3
ACAD_GROUP
350
D
  3
ACAD_MLINESTYLE
350
1A
  3
ACDBVARIABLEDICTIONARY
350
7D
  0
DICTIONARY
  5
D
102
{ACAD_REACTORS
330
C
102
}
100
AcDbDictionary
  0
DICTIONARY
  5
1A
102
{ACAD_REACTORS
330
C
102
}
100
AcDbDictionary
  3
STANDARD
350
1B
  0
DICTIONARY
  5
7D
102
{ACAD_REACTORS
330
C
102
}
100
AcDbDictionary
  3
DIMADEC
350
7E
  0
MLINESTYLE
  5
1B
102
{ACAD_REACTORS
330
1A
102
}
100
AcDbMlineStyle
  2
STANDARD
 70
     0
  3

 62
   256
 51
90.0
 52
90.0
 71
     2
 49
0.5
 62
   256
  6
BYLAYER
 49
-0.5
 62
   256
  6
BYLAYER
  0
DICTIONARYVAR
  5
7E
102
{ACAD_REACTORS
330
7D
102
}
100
DictionaryVariables
280
     0
  1
0
  0
ENDSEC
  0
EOF
